This file was generated by Ched 2.7.0.0.
#TITLE ""
#ARTIST ""
#DESIGNER ""
#DIFFICULTY 0
#PLAYLEVEL
#SONGID ""
#WAVE ""
#WAVEOFFSET 0
#JACKET ""
#REQUEST "ticks_per_beat 480"
#00002: 4
#BPM01: 124
#00008: 01
#TIL00: ""
#HISPEED 00
#MEASUREHS 00
#0011a:14
#00114:00140000
#00118:0014
#00112:00000014
#0021a:14
#00214:00140000
#00312:14
#00318:00140000
#00314:0014
#0031a:00000014
#00412:14
#00418:00140000
#0051a:14140000
#00514:00001414
#00618:14
#00612:00140000
#00712:14140000
#00718:00001414
#00814:14
#0081a:00140000
#00912:00000014
#00910:41
#01018:14
#01014:00140000
#0101a:0014
#01012:00000014
#0111a:00000014
#01214:14
#01218:00140000
#01212:0014
#0121a:00000014
#01314:00000014
#01312:0034343400000000
#01418:00000014
#0141a:0034343400000000
#0171a:1414
#01714:00140014
#01710:41
#0181a:14
#01818:00140014
#01814:0014
#01912:1414
#01918:00140014
#02012:14
#02014:00140014
#02018:0014
#02112:00000014
#02219:14
#02213:00140000
#0221a:0014
#02214:00000014
#0231a:00000014
#02413:14
#02419:00140000
#02412:0014
#02418:00000014
#02512:00000014
#02514:0034343400000000
#02510:41
#0261a:00000014
#02618:0034343400000000
#02912:00000014
#0301a:00000014
#03114:1414
#03118:00140014
#03212:14343400
#03214:0000001400000000
#03314:00000014
#03310:41
#03418:00000014
#03512:14
#0351a:00140000
#03514:0014
#03518:00000014
#03612:14
#0361a:00140000
#03614:0014
#03618:00000014
#03714:0014
#03718:00000014
#0381a:00140000
#03814:0014
#03818:00000014
#03812:24
#03918:0014
#03914:00000014
#04012:00140000
#04018:0014
#04014:00000014
#0401a:14
#04112:0014
#04118:00000014
#04312:14
#04314:00140000
#04318:0014
#0431a:00000014
#04412:14
#0441a:00140000
#04414:00001414
#04418:0000000000140014
#04512:14
#04518:00140000
#04514:0014
#0451a:00000014
#04612:14
#0461a:00140000
#04614:00001414
#04618:0000000000140014
#04714:14
#0471f:11
#0481a:00140000
#04814:00001414
#04818:0000000000140014
#04914:14
#0491a:00140000
#04912:0014
#04918:00000014
#05014:14001414
#0501a:00140000
#05018:0000000000140000
#0511a:14
#05112:00140000
#05118:0014
#05114:00000014
#0521a:14
#05212:00140000
#05218:00001414
#05214:0000000000140014
#05318:14
#05312:00140000
#0531a:0014
#05314:00000014
#05418:14343434
#05512:00140000
#05518:0014
#05514:00000014
#0551a:24
#0551f:21
#05614:0014
#05618:00000014
#05610:41
#0571a:00140000
#05714:0014
#05718:00000014
#05712:14
#0581a:0014
#05814:00000014
#0601a:14
#06018:00140000
#06014:0014
#06012:00000014
#0611a:14
#06112:00140000
#06118:00001414
#06114:0000000000140014
#0621a:14
#06214:00140000
#06218:0014
#06212:00000014
#0631a:14
#06312:00140000
#06318:00001414
#06314:0000000000140014
#06614:0014001400140024
#06618:00141424
#01612:00343400
#02814:00343400
#04210:41
#03252:54
#03254:0000002400000000
#04754:54
#05458:54
#0555a:14
#00258:00000014
#00454:00000014
#0065a:00000014
#00852:00000014
#01858:00000014
#02054:00000014
#002380:00001424
#004340:00001424
#0063a0:00001424
#008320:00001424
#0093a0:14
#009390:00340000
#009380:0024
#011320:14
#011330:00340000
#011340:0024
#013320:1434343400000000
#013340:0024
#0143a0:1434343400000000
#014380:0024
#015320:14
#015340:00240000
#0153a0:0014
#015380:00000024
#016320:14343400
#016340:00000024
#021380:14
#021390:00340000
#0213a0:0024
#023340:14
#023330:00340000
#023320:0024
#025340:1434343400000000
#025320:0024
#026380:1434343400000000
#0263a0:0024
#027340:14
#027320:00240000
#027380:0014
#0273a0:00000024
#028340:14343400
#028320:00000024
#0293a0:14
#029390:00000034000000000000000000000000
#029380:0000002400000000
#030320:14
#030330:00000034000000000000000000000000
#030340:0000002400000000
#032320:14343424
#032340:0000005400000000
#033380:14
#033390:00000034000000000000000000000000
#0333a0:0000002400000000
#034340:14
#034330:00000034000000000000000000000000
#034320:0000002400000000
#039340:14240000
#041380:14240000
#042340:14
#042320:00240000
#042380:0014
#0423a0:00000024
#047340:14
#048320:24
#054380:14343434
#0553a0:24
#056380:14240000
#058340:14240000
#059380:14
#0593a0:00240000
#059340:0014
#059320:00000024
#064380:14
#0643a0:0000000000000034
#0653a0:0034000000343400
#065390:00340000
#065380:0000003434000024
