This file was generated by Ched 2.7.0.0.
#TITLE ""
#ARTIST ""
#DESIGNER ""
#DIFFICULTY 0
#PLAYLEVEL
#SONGID ""
#WAVE ""
#WAVEOFFSET 0
#JACKET ""
#REQUEST "ticks_per_beat 480"
#00002: 4
#BPM01: 230
#BPM02: 115
#00008: 01
#07908: 02
#TIL00: ""
#HISPEED 00
#MEASUREHS 00
#00119:14
#00219:14
#00313:14
#00413:14
#00519:14
#00619:14
#00713:14
#00813:14
#01518:14
#0171a:14
#01812:14
#01614:14
#0191a:14
#02012:14
#02010:41
#01414:14
#03114:14
#03110:41
#03312:14
#0341a:14
#03218:14
#03018:14
#03512:14
#0361a:14
#06212:1616
#06312:16
#06418:1616
#06518:16
#06812:16
#06818:0016
#06912:16
#07018:16
#07012:0016
#07118:16
#07212:16
#07218:0016
#07312:16
#0761a:14
#07614:14
#07718:14
#07712:14
#0781a:14
#07814:14
#09212:16
#09115:0016
#08813:0014
#08619:0014
#0811a:14
#08112:0014
#08110:41
#08214:0014
#08218:14
#06018:2616
#0601f:21
#06118:16
#06110:41
#0431f:11
#04318:26
#01318:24
#02914:24
#07913:24
#07919:24
#08918:26
#04412:0026
#04618:26
#04712:0026
#04918:26
#05012:0026
#08012:24
#0801a:24
#00910:41
#04210:41
#0093a0:14
#0103a0:24
#011320:14
#012320:24
#0213a0:14
#0223a0:24
#023340:14
#024340:24
#025380:14
#026380:24
#027320:14
#028320:24
#037320:14
#038320:24
#039380:14
#040380:24
#041340:14
#042340:24
#052390:14
#053390:24
#054330:14
#055330:24
#056320:14
#058320:24
#0563a1:14
#0583a1:24
#066321:16
#067321:26
#074381:16
#075381:26
#0833a1:1424
#084321:1424
#085391:14
#086391:24
#087331:14
#088331:24
#089381:16
#090381:3636
#091381:26
#092321:00000016
#095321:002600000000000000000000
