This file was generated by Ched 2.7.0.0.
#TITLE ""
#ARTIST ""
#DESIGNER ""
#DIFFICULTY 0
#PLAYLEVEL
#SONGID ""
#WAVE ""
#WAVEOFFSET 0
#JACKET ""
#REQUEST "ticks_per_beat 480"
#00002: 4
#BPM01: 230
#BPM02: 115
#00008: 01
#07908: 02
#TIL00: ""
#HISPEED 00
#MEASUREHS 00
#04918:13
#04914:00130000
#04913:0013
#04912:00000023
#05015:1313
#0501b:00130000
#05018:0000001300000000
#05019:00000013
#05218:130000000000000000000013
#0521b:000000130000000013000000
#05215:000000131300
#05212:000000130000000000000013
#00118:13
#0011b:00130000
#00115:000013
#00112:00130000
#00212:000000000013000000000000
#0021b:000013
#00216:000013
#00318:130000130000000013000000
#00312:13
#00315:000013000000130000130000
#0031b:0013
#00412:130000000013000000000013
#00417:1313
#00416:000000130000000013000000
#0041b:000000130000000000130013
#00517:001300130000
#00519:00000013
#00514:00000013
#0061b:13
#00612:0013
#00616:13
#00718:001200000000
#00712:00120000
#00714:0012
#00716:00000012
#00818:12
#00912:00130000
#0091b:000013
#00915:00001313
#00918:00130000
#00910:41
#0121b:001300001300
#01216:00130013
#01212:000000000013000000000000
#01217:0013
#01317:13
#01318:00130000
#01319:0013
#0131a:00000013
#01312:13
#01314:0013
#0141b:13
#01412:000000130013000000000000
#01417:000000130013000000000000
#01416:13000013
#01618:001300000000
#01615:00130000
#01612:13
#01617:13000013
#01616:000000000013000000000000
#0161b:000000000013000000000000
#0171b:13
#01719:00130013
#01717:0013
#01716:13
#01712:0013
#0181b:13000013
#01816:13
#01812:000000130013000000000000
#01817:000000000000000000000013
#02012:130000130013000000000000
#0201b:000013
#02017:13
#02010:41
#02217:00130000
#0221b:000000131300
#02216:130000131300
#02212:00130000
#0231b:13
#02319:0013
#02315:00130000
#02312:00000013
#0251b:13
#02518:000000130000000013000000
#02515:000000000013000000000000
#02512:230023
#0271b:13
#02715:000000130000000013000000
#02718:000000000013000000000000
#02712:26
#02818:001400000000
#02816:000014000014
#02814:000014
#0281a:24
#02812:0024
#02912:13
#02917:0013
#02916:00130000
#0291b:00130013
#02915:00000013
#02918:24
#0301b:00130013
#03017:000000000013000000000000
#03012:130000000013000000000000
#03315:130000000013000000000000
#0331b:00130013
#03318:0013
#03312:00130013
#03415:130000130013000000000000
#03418:001300000000
#0341b:000000000013000000000000
#03412:00000013
#03512:13
#0351b:000000000000000000000013
#03517:13
#03619:00130013
#03617:000000000013000000000000
#03612:000000000000130000000013
#03614:001300001300
#03616:13
#0361b:000000000000000000000013
#03815:000000130000000013000000
#0381b:0013
#03812:0013
#03918:00000013
#03912:0013
#04012:00000013
#0411b:13
#04118:00131300
#04115:13000013
#04112:0013
#0421b:13
#04218:0013
#04212:13
#04210:41
#04312:23131323
#04317:00131300
#0431f:11
#0431b:00000023
#04412:13132300
#04418:0013000000000000
#0441b:00002313
#04416:00000013
#04615:00131300
#04618:0000000000130000
#04612:23
#0461b:00000023
#04718:13132300
#04715:0000001300000000
#04712:0023
#04713:00000023
#04719:00000023
#05118:00000013
#05115:000000000000000000000013
#0511a:13
#0511b:00230000
#0531b:000000000000000000000013000000000000000000000000
#05518:000000000013000000000000
#05515:000000000013000000000000
#0541b:000000130000000000000013
#05412:000000130000000013000013
#05418:000000131300
#05415:13
#05618:000000120000120000000012
#05616:000000000012000000120000
#05612:23
#0561b:23
#05714:00000012
#05716:120000000012000000000000
#05718:00121200
#0571a:00000012
#05919:000000121212
#05915:000000121212
#0591b:00230000
#06418:000000130000000013000000
#06415:000013000000130000130000
#06412:13
#0641b:1313
#06518:13130000
#06515:001300130000
#0651b:000013
#06512:13
#0661b:000000130013000000000000
#06615:0013
#06618:000000000000000000130013
#06712:13
#06718:0013
#06715:00000013
#0671b:00130000
#06716:00130000
#06812:2313
#06815:00130013
#0681b:13
#06818:00130000
#06918:00130013
#0691b:1313
#06912:13
#06915:00130000
#0701b:130000000013000000000000
#07016:000000000013000000000000
#07017:00000013
#07012:13
#07115:000013
#07112:00130000
#0721b:13000013
#07218:00130000
#07215:0013
#07212:00000013
#07315:00001313
#07318:00000013
#07317:13
#07312:00130000
#0741b:00000013
#07518:1313
#07515:00130000
#0751b:000013
#07512:000013
#07918:000013000000000000130000
#07918:001300000000
#07915:002300130000
#0801b:000000000013000000000000
#08012:130000000013000000000000
#08015:001300130000000000000000
#08018:001313000000
#08017:000000001313
#08019:000000000000000000000013
#0811b:13
#08118:001300130013
#08115:001313
#08112:0013
#08110:41
#08312:130000000013000000000000
#08317:130000000013000000000000
#08316:000000130000000013000000
#08417:13
#08418:000013000000000000000013
#08415:000000130000000000001300
#0841b:000000000013000000130000
#08412:000013
#08416:000000000013000000000000
#08518:001313130000
#08515:000000000013000000000000
#08512:13
#0851b:13
#08612:131300
#08615:001300000000
#08614:000000000013000000000000
#08616:0013
#0881b:13
#08818:0013
#08812:13
#08815:0013
#09117:000012000000000000000012
#0911c:00120000
#09116:000000121200
#0911b:230000000000001200000000
#09114:00000012
#09112:000000000012
#09212:12
#09216:0000000000000000000000000000000000000000000000000016000000160000
#09215:00000000000000000000000026161616
#09214:0000000000000000000000000000000000000000000000000000001600000016
#0101b:00130000
#01012:000013
#01018:00001313
#01015:00130000
#01112:00130000
#0111b:000013
#01115:00001313
#01118:00130000
#01516:13
#01515:00130000
#01514:0013
#01513:00000013
#0151b:13
#01519:0013
#01914:00130013
#01916:0013
#0191b:0013
#01912:13
#0211b:13
#02117:0013
#02416:13
#02414:0013
#0241b:00130000
#02418:00000013
#02618:00130000
#02619:0013
#0261a:00000013
#02612:23131415
#0311b:13
#03115:13
#03116:0013
#03117:00130000
#03112:00130013
#03118:00000013
#03110:41
#03212:00130013
#03216:000000000013000000000000
#0321b:130000000013000000000000
#03218:000000000000000000000013
#03718:000000000000000000000013000000000000000000000000
#03715:000000000000000000000013000000000000000000000000
#0451b:13231300
#04518:00000013
#04512:0000230000130000
#04516:13
#04515:0000000000000013
#04812:00000013
#04815:0000230000000013
#0481a:23
#0481b:00230000
#04814:23
#06015:00130000
#0601b:0013
#06012:260013
#06017:00000013
#06018:26
#0601f:21
#0611b:130013
#06112:1313
#06118:00130000
#06116:00000013
#06110:41
#06212:13
#0621b:13000013
#06215:00130000
#06218:0013
#06216:000013
#0631b:13
#06312:13000013
#06318:00130000
#06315:0013
#06317:000013
#07719:221212231313
#07715:221212000000
#07714:000000231313
#07819:241414251515
#07813:241414000000
#07812:000000251515
#0871b:131300
#08718:001300000000
#08719:000000000013000000000000
#08717:0013
#08912:231300230000
#08916:001300
#08914:000000000013000000000000
#08918:001300000000
#08917:000000000013
#08919:000000000000000000000013
#08915:000013
#0891b:23
#09016:001300
#09014:000000000013000000000000
#09018:001300000000
#09013:000013
#09015:00000013
#09017:000000000013
#09019:000000000000000000000013
#0901b:23
#09012:0023
#09316:00001600000000000000160000000000001600000016000000160000001600000016000000160000001600000016000000160000001600000016000000160000
#09315:1600160016001600161616161616161616161616161616161616161616161616
#09314:00000000000016000000000000001600000000160000001600000016000000160000001600000016000000160000001600000016000000160000001600000016
#09415:16001600160016001600160016001600000000140000001400000014000000140000001400000014000000140000001400000000000000000000000000000000
#09416:00160000001600000016000000160000140014001400140014001400140014001400140014001400140014001400140000000000000000000000000000000000
#09414:00000016000000160000001600000016000000000000000000000000000000000000000000000000000000000000000000000000000000000000000000000000
#09417:00000000000000000000000000000000001400000014000000140000001400000014000000140000001400000014000000000000000000000000000000000000
#05816:000024000000000000000024
#05812:002300230000
#0581b:000000000000000000000023
#0821b:23
#08215:23
#08214:002300000000
#0821a:002300000000
#08219:002300
#08213:002300
#08212:0023
#08218:0023
#00152:00130000
#00252:000000000013000000000000
#0025b:000013
#0065b:53
#00652:0053
#00758:13
#00755:13
#0095b:000053
#00955:00000053
#01052:000063
#01058:00000063
#0115b:000053
#01155:00000053
#01457:000000000053000000000000
#01656:000000000063000000000000
#01852:000000000053000000000000
#02057:53
#02052:000000000053000000000000
#0215b:53
#02157:0023
#0235b:53
#02359:0023
#02456:53
#02454:0023
#02558:000053
#0265b:13
#02652:00333435
#02752:36
#02755:000053
#02957:0053
#02952:53
#02956:00230000
#0295b:00000023
#03052:000000000053000000000000
#0315b:63
#03156:0063
#03157:00230000
#03152:00000023
#0325b:000000000063000000000000
#03755:000000000000000000000023000000000000000000000000
#03758:000000000000000000000023000000000000000000000000
#03652:000000000000000000000053
#0365b:000000000000000000000053
#0385b:0053
#03855:000053
#03958:13000053
#03952:1353
#0405b:00130000
#04055:00130000
#04252:53
#04258:0053
#0485b:00130000
#04855:00130000
#04958:53
#05055:0053
#05258:000000000000000000000053
#0535b:000000000000000000000023000000000000000000000000
#0545b:000000000000000000000053
#05452:000000000000000000000063
#05558:000000000053000000000000
#05555:000000000063000000000000
#05852:0033
#05856:0044
#06058:46
#06052:36
#06555:0053
#0655b:000053
#06658:13
#06652:13
#07052:53
#07056:000000000053000000000000
#0705b:000000000053000000000000
#07057:00000053
#0725b:00000053
#07357:23
#07355:00000053
#0755b:000053
#07552:000053
#07958:000053000000000000530000
#07955:0053
#08252:0013
#08258:0013
#08357:53
#08558:0053
#08656:0053
#08757:0063
#0885b:53
#08852:53
#08858:0053
#08855:0053
#08958:006300000000
#08955:000053
#0895b:13
#08952:13
#09058:006300000000
#0915b:43
#09255:00000000000000000000000056565656
#09256:0000000000000000000000000000000000000000000000000026000000260000
#09254:0000000000000000000000000000000000000000000000000000002600000026
#09356:00002600000000000000260000000000002600000026000000260000002600000026000000260000002600000026000000260000002600000026000000260000
#09355:5600560056005600565656565656565656565656565656565656565656565656
#09354:00000000000026000000000000002600000000260000002600000026000000260000002600000026000000260000002600000026000000260000002600000026
#09455:56005600560056005600560056005600000000240000002400000024000000240000002400000024000000240000002400000000000000000000000000000000
#09456:00260000002600000026000000260000540054005400540054005400540054005400540054005400540054005400540000000000000000000000000000000000
#09454:00000026000000260000002600000026000000000000000000000000000000000000000000000000000000000000000000000000000000000000000000000000
#09457:00000000000000000000000000000000002400000024000000240000002400000024000000240000002400000024000000000000000000000000000000000000
#0805b:000000000043000000000000
#08052:000000000033000000000000
#0595b:00430000
#05956:00340000
#0345b:000000000053000000000000
#03552:53
#0685b:53
#06858:00230000
#06952:63
#06955:00230000
#0565b:13
#05652:13
#0013b0:000013
#0023b0:23
#002351:13230000
#002380:000000130023000000000000
#005320:001300230000
#0063b0:13
#006380:00533300
#007380:23
#006321:0013
#006351:00000053
#007351:23
#008321:00152500
#008390:00152500
#008320:000015
#009320:25
#008391:000015
#009391:25
#0093b1:000013
#010381:23
#009350:00000013
#010320:23
#010320:000013
#011350:23
#010381:00000013
#0113b1:23
#0113b1:000013
#012381:23
#011350:00000013
#012320:23
#014370:000000000013000000000000
#0143b0:00000023
#016360:000000000013000000000000
#016320:00000023
#018370:000000130023000000000000
#018321:000000000013000000000000
#018361:00000023
#020371:13
#0203b1:000000000023000000000000
#020320:000000000013000000000000
#021360:23
#0213b1:13
#021371:0053
#0223b1:23
#0233b1:13
#023391:00230000
#023391:0013
#023371:00000023
#024361:13
#024341:00230000
#024341:0013
#024321:00000023
#025381:000013
#0263b1:23
#027351:000013
#028321:23
#029321:1323
#029361:00530000
#029370:0013
#0293b0:00000053
#030370:23
#030320:000000000013000000000000
#030360:00000023
#0313b0:1323
#031370:00530000
#031361:0013
#031321:00000053
#032361:23
#0323b1:000000000013000000000000
#032371:00000023
#0343b1:000000000013000000000000
#034371:00000023
#035321:13
#035361:00000023
#0363b1:000000000000000000000013
#037381:000000000000000000000053000000000000000000000000
#0383b1:23
#036320:000000000000000000000013
#037350:000000000000000000000053000000000000000000000000
#038320:23
#0383b0:0013
#039380:23
#038351:000013
#039321:23
#039321:0013
#040351:00230000
#039380:00000013
#0403b0:00230000
#042320:13
#042350:0023
#042381:0013
#0433b1:23
#046381:13230000
#046351:00000013
#047351:23
#049381:13
#0493b1:00000023
#050351:0013
#051321:00230000
#052381:000000000000000000000013
#0533b1:000000000000000000000053000000000000000000000000
#054381:23
#0543b1:000000000000000000000013
#055381:000000000033000000000000
#0563b1:23
#054320:000000000000000000000013
#055350:000000000033000000000000
#056320:23
#058360:001400240000
#058360:000000000000000000000014
#059360:00240000
#065350:0013
#066320:23
#0653b1:000013
#066381:23
#0683b1:1323
#068381:00530000
#069321:1323
#069351:00530000
#070321:13000023
#070361:000000000033000000000000
#0703b0:000000000013000000000000
#070370:00000033
#0713b0:00230000
#071380:000000132300
#0723b0:00000013
#073370:53
#0733b0:00230000
#073350:00000013
#074320:00000023
#0753b0:000013
#076380:00000023
#075321:000013
#076351:00000023
#079381:001300000000
#0793b1:0023
#079350:0013
#079320:00000023
#079381:00000013
#0803b1:23
#080321:000000001333
#080341:000000000000000000000033
#081361:23
#083371:13
#0833b1:00230000
#0833b1:000013
#083391:000000000023
#083340:000000000013
#084320:23
#085350:001323000000
#085380:0013
#0863b0:0023
#086361:0013
#087321:0023
#087370:0013
#0883b0:33
#088380:0033
#0893b0:23
#088321:13
#088351:0033
#089321:23
#089381:001300000000
#0893b1:000023
#089350:000013
#090320:002300000000
#090381:001300000000
#0903b1:000023
#0913a1:001200
#091391:0000003200000000
#091381:000000000022000000000000
#092351:00000000000000000000000016565656
#092361:0000000000000000000000000000000000000000000000000056000000560000
#092341:0000000000000000000000000000000000000000000000000000005600000056
#093351:5600560056005600565656565656565656565656565656565656565656565656
#093361:00005600000000000000560000000000005600000056000000560000005600000056000000560000005600000056000000560000005600000056000000560000
#093341:00000000000056000000000000005600000000560000005600000056000000560000005600000056000000560000005600000056000000560000005600000056
#094351:56005600560056005600560056005600000000540000005400000054000000540000005400000054000000540000005400000000000000000000000000000000
#094361:00560000005600000056000000560000540054005400540054005400540054005400540054005400540054005400540054000000000000000000000000000000
#094341:00000056000000560000005600000056000000000000000000000000000000000000000000000000000000000000000000000000000000000000000000000000
#094371:00000000000000000000000000000000005400000054000000540000005400000054000000540000005400000054000000000000000000000000000000000000
#095371:002200000000000000000000
