This file was generated by Ched 2.7.0.0.
#TITLE ""
#ARTIST ""
#DESIGNER ""
#DIFFICULTY 0
#PLAYLEVEL
#SONGID ""
#WAVE ""
#WAVEOFFSET 0
#JACKET ""
#REQUEST "ticks_per_beat 480"
#00002: 4
#BPM01: 115
#BPM02: 230
#07908: 01
#00008: 02
#TIL00: ""
#HISPEED 00
#MEASUREHS 00
#00118:13
#00115:00130000
#0011b:000013
#00112:000013
#0041b:13
#00418:00130000
#00415:0013
#00412:00000013
#00515:0013
#00518:00000013
#00512:0013000000000000
#0051b:0013000000000000
#0061b:13
#00612:13
#00712:00130000
#00715:0013
#00718:00000013
#0081b:13
#00918:1313
#00912:00130000
#00915:000013
#0091b:00000013
#00910:41
#01312:13
#01315:00130000
#01318:0013
#0131b:00000013
#01418:13
#01415:00130000
#01412:13
#0151b:13
#01518:00130000
#01515:0013
#01512:00000013
#01615:001300000000
#01618:00130000
#0161b:13
#01712:13
#01715:00130000
#0171b:0013
#01718:00000013
#0181b:13
#01812:00130000
#01815:13
#0191b:13
#01918:00130000
#01912:0013
#01915:00000013
#02012:13
#0201b:00130000
#02018:13
#02010:41
#02118:13
#02218:00130000
#02212:00130000
#02215:0013
#0221b:000013
#02312:13
#02318:13
#02415:13
#0241b:13
#02512:13
#02518:000000130000000013000000
#02515:000000000013000000000000
#0251b:23
#02612:00130000
#02618:0013
#02615:00000013
#02715:00130000
#02718:260000000013000000000000
#02712:000013
#0271b:000013
#02814:001400000014
#02818:001414
#0281a:24
#02812:0024
#02915:00130000
#0291b:0013
#02918:00000013
#02912:0013
#0291a:24
#0301b:13
#03012:13
#03018:00130000
#03015:000000000013000000000000
#03118:00130000
#03112:1313
#03115:00000013
#0311b:1313
#03110:41
#03212:13
#0321b:13
#03215:000000130000000000000013
#03218:000000000013000000000000
#03318:13
#0331b:00130013
#03315:0013
#03312:00130013
#03418:13130000
#03415:000013000013000000000000
#0351b:13
#03615:00130013
#03612:130000000000130000000013
#0361b:130000000000000013000013
#03618:000000000013000000000000
#0381b:00130000
#03812:0013
#03818:000013
#03912:0013
#03918:0013
#03915:00000013
#0391b:00000013
#0401b:00000013
#04115:13130000
#04112:0013
#04118:00001313
#0411b:13
#04215:13
#0421b:13
#04210:41
#04415:13
#04418:00130013
#04412:0023
#0441b:0023
#04618:00001323
#04615:2300000000130000
#0461b:00130000
#04612:00130000
#04712:1323
#04714:00130000
#0471b:13
#04719:00130000
#04715:00000023
#0431b:00000013
#0431f:11
#05012:13
#05018:00130000
#05015:0013
#04815:00000013
#04818:23
#0481b:00230000
#05215:130013
#0521b:00130000
#05218:000000000000130000000013
#05212:00130000
#05112:00000013
#05118:000000000000000000000013
#0541b:000000130000000000000013
#05412:130000000000000000000013
#05415:0013
#05418:000013
#05615:2313
#05618:23000013
#0561b:00130000
#05712:13000013
#05718:00130000
#05715:0013
#0571b:00000013
#06418:00130000
#06412:1313
#06415:00000013
#0641b:1313
#0651b:13
#06518:000000130000000014000000
#06512:1314
#06015:0013
#06016:28
#0601f:21
#0621b:1313
#06212:1313
#06115:0013
#06118:00000013
#06110:41
#06315:00130000
#0631a:0014
#06314:000014
#06915:00000013
#06918:0013
#07118:000013
#0711b:00130000
#07115:0013
#07018:13000013
#07012:00000013
#06715:0013
#06712:00000013
#06718:00130000
#0681b:13
#06812:00000013
#07212:13
#07218:00130000
#07215:0013
#0721b:00000013
#07318:0013
#07315:00000013
#0741b:00000013
#07512:13
#07518:00130000
#07515:0013
#0751b:000013
#07918:000013000000000000130000
#07918:001300000000
#07912:000013000000000000130000
#07912:001300000000
#0801b:130013
#0801b:13
#08018:000000000013
#08013:000000000000000000000013
#08015:130013
#08015:13
#0811a:140014
#08116:001400140014
#08112:001400
#08110:41
#0831b:000000000013000013000000
#08315:130000000013000000000000
#08316:000013
#08319:000000000013
#08314:000000000013
#08417:13
#08418:001300000013
#08415:00130013
#0841b:000000000013000013000000
#08412:130000000013000000000013
#08512:001300000000
#08518:000013130000
#08515:000000000013000000000000
#0851b:13
#08612:13
#0861b:001300000000
#08615:000013130000
#08618:000000000013000000000000
#0911a:000012000000000000120000
#09116:240000120000120012000000
#0911c:000000000000001200000000
#09114:000000000012
#09118:000000000000000000000012
#09212:12
#09216:00000000000000000000000000160000
#09215:0000000000002616
#09214:00000000000000000000000000000016
#08718:13
#08715:001300000000
#0871b:001300
#08712:000000000013000000000000
#08812:13
#0881b:13
#08912:260000000000000000130000000000001300000000000000000000000000000013000000000000000000000000000000
#08915:000000000013000000000000
#0891b:000000000000000000130000000000000000000000000000000000000000000013000000000000001300000000000000
#08918:260000000000230000000013
#09012:001314001400
#09016:000000000014000000000000
#0901b:001300000000
#09018:00000014
#09014:000000000014
#0901a:000000000000240000000014
#09015:23
#0021b:13
#00215:00130000
#00218:000000000013000000000000
#00212:000013
#04518:00000013
#01015:1313
#0101b:00130000
#01018:000013
#01012:00000013
#01118:1313
#01112:00130000
#01115:000013
#0111b:00000013
#01215:1313
#0121b:00130000
#01218:000013
#01212:00000013
#00312:00000013
#00318:0013
#00315:00130000
#0031b:13
#09315:1616161616161616
#09314:00000016000000160000001600000016
#09316:00160000001600000016000000160000
#09415:1616160000000000
#09416:00160000001600000000000000000000
#09414:00000016000000000000000000000000
#0661b:13
#06618:0013
#06612:13
#06615:0013
#0581a:002400000000
#05812:000000000000000000000024
#08212:23
#08215:002300000000
#08218:002300
#0821b:0023
#07716:003434343434
#07816:343434343400
#05918:000000003434
#0065b:53
#00652:63
#00155:00130000
#00758:13
#00755:13
#02158:53
#02352:53
#02358:53
#02455:63
#0245b:63
#02558:000053
#0265b:13
#02652:00130000
#02658:0013
#02655:00000013
#02758:16
#0355b:63
#0365b:000000000000000000000053
#03652:000000000000000000000063
#0395b:13000063
#03955:00000063
#04058:00130000
#04052:00130000
#04255:63
#0425b:63
#0485b:00130000
#05258:000000000000000000000053
#0545b:000000000000000000000053
#05452:000000000000000000000063
#05952:00140000
#0585a:0014
#07058:53
#0685b:63
#06852:00000053
#0755b:000053
#07355:00000053
#08558:0053
#08655:0053
#07958:005300000000
#07952:005300000000
#08355:63
#08852:53
#0885b:63
#0825b:0013
#08055:63
#0805b:63
#08052:000000000013000000000000
#08058:000000000013000000000000
#09156:14
#06056:18
#0725b:00000063
#03055:000000000063000000000000
#03258:000000000053000000000000
#03455:000000000063000000000000
#03858:000053
#00252:000013
#09256:00000000000000000000000000260000
#09255:0000000000005656
#09254:00000000000000000000000000000026
#09355:5656565656565656
#09354:00000026000000260000002600000026
#09356:00260000002600000026000000260000
#09455:5656560000000000
#09456:00260000002600000000000000000000
#09454:00000026000000000000000000000000
#0665b:63
#06658:0023
#06652:53
#06655:0023
#0625b:0063
#06252:0053
#05655:13
#05658:13
#08958:16
#08952:16
#0063b0:13
#006380:0033
#007380:23
#006321:13
#006351:0033
#007351:23
#008321:000000140000000024000000
#0083a0:000000140000000024000000
#014380:000000000013000000000000
#0143b0:00000023
#016350:000000000013000000000000
#016320:00000023
#0183b0:000000000013000000000000
#018380:00000023
#020320:000000000013000000000000
#020350:000023
#021380:13
#0223b0:23
#023320:13
#023350:0023
#023381:13
#0233b1:0023
#024351:13
#024321:0023
#0243b0:13
#024380:0023
#025380:000013
#0263b0:23
#030350:000000000013000000000000
#030320:00000023
#032380:000000000013000000000000
#0323b0:00000023
#034350:000000000013000000000000
#034320:00000023
#0353b0:13
#035380:00000023
#0363b0:000000000000000000000013
#038380:23
#036321:000000000000000000000013
#038351:23
#038381:000013
#0393b1:23
#0393b1:00000013
#040381:00230000
#039350:00000013
#040320:00230000
#0423b0:13
#042380:0023
#042351:13
#042321:0023
#043321:13
#043351:0023
#044351:0000000000000013
#045321:0023
#049381:13
#0493b1:00000023
#0503b1:00000013
#051381:00230000
#052381:000000000000000000000013
#0533b1:0023
#0543b1:000000000000000000000013
#055381:000000000033000000000000
#056381:23
#054320:000000000000000000000013
#055350:000000000033000000000000
#056350:23
#0583a0:001400240000
#058320:000000000000000000000014
#059320:00240000
#059380:000000143434
#060360:28
#0603b0:00000013
#061380:00230000
#0623b0:0013
#062380:0000000000000023
#062321:0013
#062351:0000000000000023
#0663b1:13
#066381:0053
#0673b1:23
#066320:13
#066350:0053
#067320:23
#0683b0:13
#068380:0023
#068320:00000013
#069350:00230000
#070380:13
#0703b0:000000000023000000000000
#0723b0:00000013
#073380:00230000
#073350:00000013
#074320:0023
#0753b0:000013
#077360:343434343434
#078360:343434343400
#078320:00000000002c
#079380:001300000000
#0793b0:0023
#079321:001300000000
#079351:0023
#080351:13
#080321:000000000023000000000000
#0803b0:13
#080380:000000000023000000000000
#083350:13
#083320:00230000
#085380:0013
#0853b0:00000023
#086350:0013
#086320:00000023
#0873b0:0013
#0883b0:33
#088380:0033
#089380:26
#088321:13
#088351:0033
#089321:26
#0913c1:000000000000000012322200000000000000000000000000
#092351:0000000000001656
#092361:00000000000000000000000000560000
#092341:00000000000000000000000000000056
#093351:5656565656565656
#093361:00560000005600000056000000560000
#093341:00000056000000560000005600000056
#094351:5656565600000000
#094361:00560000005600000000000000000000
#094341:00000056000000000000000000000000
#095371:002200000000000000000000
