This file was generated by Ched 2.7.0.0.
#TITLE ""
#ARTIST ""
#DESIGNER ""
#DIFFICULTY 0
#PLAYLEVEL
#SONGID ""
#WAVE ""
#WAVEOFFSET 0
#JACKET ""
#REQUEST "ticks_per_beat 480"
#00002: 4
#BPM01: 230
#BPM02: 115
#00008: 01
#07908: 02
#TIL00: ""
#HISPEED 00
#MEASUREHS 00
#0521b:130000130000001300000013
#05215:000000131300
#05212:000000130000000000000013
#05218:0013
#00115:130000131300
#0011b:00131300
#00112:00130000
#00212:000000130000000000001300000000000000000000000000
#00218:000000130000000013000000
#00215:130013
#0031b:1313
#00312:1313
#00318:000000130013000013000000
#00315:000013000000000000130013
#00412:130000130000000013000000
#0041b:130000000013000000000013
#00417:00130000
#00414:00001313
#00419:00001313
#00612:14
#0061a:0014
#00616:0014000000140000
#00718:000012120000000000120000
#00712:00120000
#00715:0012
#0081b:12
#00812:00141400
#0081a:000014
#00912:00130000
#00916:00001313
#00917:001300000000
#0091a:14
#0091b:000000000000000013000013
#00910:41
#0121c:001200000000
#01216:000000120000000012000000
#01212:00000012
#01214:000000000012000000000000
#01217:13
#0121a:001200
#01218:0012
#01317:1300000000130000
#01312:13000012
#01313:0012
#0131a:0013000000001300
#01318:0000130000000013
#0131b:0000001300000000
#01319:0013
#01314:00120000
#01412:00000000130000000000001300000000
#01416:130000000013000000000013
#01417:00130013
#0141b:000000000013000000000000
#01616:000014140013000000000000
#0161b:000000000013000000000013
#01617:13000013
#01612:000013
#02012:000000130000000013130000
#02018:120000000000000013130000
#0201b:000000130013000000000000
#02015:000000000013000000000000
#02010:41
#0231b:13
#02317:0013
#02312:001300001300
#02315:13
#02314:0013
#0251b:13
#02519:000000120012000000000000
#02515:000000120012000000000000
#02518:000013
#02512:230023
#02716:000013
#02719:150000120012000000000000
#02715:000000120012000000000000
#0271b:000013
#02712:23
#02818:001400120000
#02816:000014000014
#02814:001200001400
#02812:000012240000
#0281a:240012
#0281c:000000000012
#0301b:000000130013000000130000
#03016:000000000013000000000000
#03017:13
#03012:130000130000001300000000
#03315:160000000013160000130000
#03318:000000130000000000000013
#0331b:00000013
#03312:00130000
#03415:161600000000
#03418:00130013
#0341b:000000000000000000001300000000000000000000130000
#03412:000000000013000000000000
#03616:000000160013180000000000
#0361b:000000000000000013000013
#03612:1a00000000000000001c0013
#03619:001300000000
#03816:000000130000000013000000
#03817:0013
#03812:0013
#0381b:00130000
#03917:00000013
#03916:0013
#0391b:0013
#03915:00160000
#03912:00120000
#04012:00000013
#0401b:00000013
#04112:1416181a
#0411b:000013000013000013000013
#04212:1c00000000000000000000000000000000343434343434340000000000000000
#04210:41
#04312:23131323
#04317:00131300
#0431b:2300001300002300
#04319:0000000000130000
#0431f:11
#04614:0013
#04618:0000000000130000
#04616:00130000
#04613:0000000000130000
#04612:23
#0461b:00000023
#0471a:00130000
#04716:0000001300000000
#04717:13
#04719:0000000000122300
#04714:0000000000000012
#04712:0023
#04718:0023
#04713:00000023
#05117:00120013
#05116:000000000000000000000013
#0511c:12
#05112:001c001400001300
#0511a:0000001400000000
#0561c:00120000
#05614:000000000016000000000000
#05618:0012
#05612:24000012
#05616:000000000000000000000016
#0561a:24
#05714:000012
#05716:120000001400001400001400
#0571c:00120012
#0571a:000000000012000000000012
#05712:0012
#06415:000000160000000013160000
#06412:1313
#0641b:1313
#06418:001300000000
#0651b:130000131300
#06515:00160013
#06512:1313
#06518:001300000013
#0661b:00130013
#06612:00130013
#06615:0013
#06812:1216
#06816:00000013
#06817:00130000
#0681a:001300000000
#0681c:0012
#06813:000013
#06818:26
#0701b:13
#07012:13
#07013:00130000
#0701a:00130000
#07019:0013
#07014:0013
#07018:00000013
#07015:00000013
#07112:000000131300
#0721b:13000013
#07218:000000130000000013000000
#07215:0013
#07212:000013000013000000130000
#07216:13
#07318:0013
#0731b:000013000013000000130000
#07315:000000130000000013000000
#07312:13000013
#07317:13
#07519:13131300
#0751b:000013
#07514:13131300
#07512:000013
#07918:000013000000000000130000
#07918:001300000000
#07915:001300130000
#0791b:000013
#07912:000000000000000000000013
#08018:000016000016000000000000
#08012:160000160016000000130000
#08015:001600001600000000000000
#08014:000000000013
#08016:000000000000000000000013
#0801b:000013
#0811b:130013001300001300000000
#08115:000013000013000013001300
#08112:130000000000001300130000
#08118:001300000000000000130013
#08119:000000000013000000000000
#08117:0013
#08110:41
#08317:000000000013000000000000
#08312:130000000013130000130000
#08316:000013
#0831b:000013130000000000000013
#08417:131400000000
#08412:000000130000120012000013
#08416:000014000014
#0841b:000000000013000000130000
#08415:000000141400
#0841c:001200000000
#08518:001200000000
#0851c:121200
#08515:000013000013000000000000
#08517:14001313
#0851a:00120000
#08512:00131300
#08519:00000000000000000013001300130013
#0851b:0000000000130013
#08514:00000013
#08612:12001313
#08616:000000001200000012000000000000130000000000130000
#08614:000000001200000000000000000000000000000012000000000000130000000000130000000000130000000000130000
#08617:13130000
#08619:000000130000000000130000000000130000000000130000000000000000000000000000000000001500000000000000
#0861b:0013001300000000
#0861a:000014
#09113:001200000000
#0911c:00120012
#09112:000000120012
#09116:000000000000000012000012
#09114:00000012
#09119:001200
#09117:0000121200000000
#09115:000000000012000000000000
#09118:000000001200000000000000000012000000000000120000
#0911a:2412
#09212:1200000000000000000000000000000000000000000000000014000000140000
#09218:1200000000000000000000000000000000000000000000000000001400000014
#0921a:0000000000000000000000000000000000000000000000000014000000140000
#09219:00000000000000000000000024141414
#09213:00000000000000000000000024141414
#09214:0000000000000000000000000000000000000000000000000000001400000014
#01112:000000130000000000000013
#01117:001300000000
#0111b:000000000013000000130000
#01116:000000131300
#01716:12
#01712:0012
#01714:00120012
#0171c:1200001200000012
#01718:0012000000120000
#0171a:00121212
#01816:12130013
#0181b:00000000130000000000001300000000
#01817:000000000013000000000000
#01812:000000000013000000000013
#0291b:00130013
#02912:1313
#02918:24
#03218:000000000000000000000013
#03212:000000130013000000130000
#03217:000000000013000000000000
#03216:13
#0321b:130000130000001300000000
#0351b:00130013
#03512:000000000000000000130000000000000000000000001300
#03518:0013
#03515:13
#03717:000000000000000000000013000000000000000000000000
#0371b:00130013
#0451a:13
#0451b:00231300
#04517:0000000000130013
#04516:0013000000000000
#04513:00000013
#04512:00230000
#04412:0013000023001300
#0441b:13132300
#04416:1300130000000013
#04414:0000001300000000
#0771c:221212000000
#07714:001200000000
#07716:001200
#07719:000013
#07712:220000231313
#07717:000000000013
#0771b:0023
#0781a:241414240000
#07814:001400000000
#07816:000014000014
#07812:240000241414
#07818:000014
#08718:160000000014000000000000
#08716:000014001300140000000012
#0871a:001400
#08714:000000000013000000001200
#08712:00001312
#0871c:001200000000
#08912:000014000012000000000000
#08914:000012240000
#08918:000013000000000000120000
#08915:000013
#08916:00120000
#0891a:240000000012
#0891c:000000000000000000000012
#09018:240013000000000000000014
#09012:000014241200
#09014:00000013
#09016:000000120012001200001300
#00018:000000000000000000000000000000000000000000130013
#00015:000000000000000000000013
#00514:13000013
#00519:130013
#00517:000013000000000000000013
#0051b:0013
#0101b:00130000
#01017:00001313
#01016:001300000000
#01012:000000000000000013000013
#01516:1300000000130000
#0151b:1312
#01513:0013000000001300
#01515:0000130000000013
#01512:0000001300000000
#01514:0013
#0151a:00120000
#0151c:00000012
#01918:12
#0191c:0012
#0191a:00120012
#01912:1200001200000012
#01916:0012000000120000
#01914:00121212
#0211b:130000000013000000000000
#02118:00130000
#02115:0013
#02112:00000013
#02212:130000000013000000000000
#02215:00130000
#02218:0013
#0221b:00000013
#02616:00120000
#02617:0013
#02618:00000014
#02612:23
#03112:00130013
#0311b:1313
#03116:13
#03110:41
#0481b:0012230000000000
#04818:00000014
#0481a:2324
#04814:23
#04815:00230000
#04812:000000000000000000000000243434343434003434343434
#0491c:1212
#04912:001c001c0000121c
#04917:00120000
#05017:12000012
#05012:001c1200001c001c
#0501c:0012
#05319:000000000012000000000012
#05315:000000130000160012160000
#05415:1613
#05412:000000130000001300000013
#05418:000000131300
#0541b:000000130000000000000013
#06718:1316
#0671b:00130000
#06712:00130016
#06719:00000012
#06715:0012
#06918:000000000000160000000013
#06913:00000013
#0691a:00130000
#06917:001300000000
#06912:1612
#06916:000013
#0691c:12
#07418:00130000
#07415:00130000
#02412:13
#02416:0013
#0241b:001300001300
#02418:13
#02419:0013
#05918:000000121212
#05916:000000121212
#05917:00230000
#0821b:231200000000000000000000
#08214:000023120000000000000000
#08219:000000000000000000000000000000000000000000000000000000000000000023000000000000001200000000000000000000000000000000000000000000001200001200000012000000120000001200000012000000120000001200000000
#08216:000000000000000000000000000000000000000000000000000000000000000000000000000000000000000000000000000000000000000000000000000000000018000000180000001800000018000000180000001800000018000000180000
#08218:000000000000000000000000000000000000000000000000230000000000000000141414141414141414141414141414
#08215:23
#0821a:002300000000
#08213:002300
#08212:0023
#08812:1200000000000000003434343434343400000000000000000034343434343434
#0881a:0034343434343434000000000000000000343434343434340000000000000000
#09319:1400140014001400141414141414141414141414141414141414141414141414
#0931a:00001400000000000000140000000000001400000014000000140000001400000014000000140000001400000014000000140000001400000014000000140000
#09318:00000000000014000000000000001400000000140000001400000014000000140000001400000014000000140000001400000014000000140000001400000014
#09313:1400140014001400141414141414141414141414141414141414141414141414
#09312:00001400000000000000140000000000001400000014000000140000001400000014000000140000001400000014000000140000001400000014000000140000
#09314:00000000000014000000000000001400000000140000001400000014000000140000001400000014000000140000001400000014000000140000001400000014
#09419:14001400140014001400140014001400000000120000001200000012000000120000001200000012000000120000001200000000000000000000000000000000
#0941a:00140000001400000014000000140000120012001200120012001200120012001200120012001200120012001200120000000000000000000000000000000000
#09418:00000014000000140000001400000014000000000000000000000000000000000000000000000000000000000000000000000000000000000000000000000000
#0941b:00000000000000000000000000000000001200000012000000120000001200000012000000120000001200000012000000000000000000000000000000000000
#09413:14001400140014001400140014001400001200000012000000120000001200000012000000120000001200000012000000000000000000000000000000000000
#09412:00140000001400000014000000140000000000000000000000000000000000000000000000000000000000000000000000000000000000000000000000000000
#09414:00000014000000140000001400000014120012001200120012001200120012001200120012001200120012001200120000000000000000000000000000000000
#09415:00000000000000000000000000000000000000120000001200000012000000120000001200000012000000120000001200000000000000000000000000000000
#06017:00130000
#06016:0013
#06018:260013
#06012:26120019
#0601c:0012
#0601f:21
#06116:00130000
#06117:0013
#06115:000000000000000013190000
#0611c:00120000
#06112:1c12
#06110:41
#06212:1c15
#06217:00120000
#06218:0012
#0621a:000000140000000012000000
#06216:00000018
#06312:1c140018
#06317:00120000
#06316:0012
#06314:000012
#06319:0015
#05515:000012160000160012160000
#05519:000000000012000000000000
#05816:000024000000230000000024
#05812:002300000000
#0581b:000000000000000000000023
#00152:00130000
#00252:000000230000000000001300000000000000000000000000
#00258:000000530000000013000000
#00255:530013
#0025b:000000000013000000000000
#00652:64
#0065a:0064
#00656:0024000000240000
#00752:14
#0075a:14
#00956:34000053
#0235b:53
#02357:0023
#02558:000053
#0265b:13
#02652:00333333
#02756:000053
#02752:33
#03056:000000000053000000000000
#03052:000000000000002300000000
#03757:000000000000000000000023000000000000000000000000
#03652:000000000000000000000053
#03857:0053
#03856:000053
#0395b:13
#03952:13
#03956:0053
#03957:00000053
#0405b:00130000
#04052:00130000
#0485b:00130000
#04855:00130000
#04852:0054
#04858:00000024
#05856:0033
#0585a:0044
#06058:46
#06052:36
#06552:0053
#0655b:000053
#06555:00000023
#06558:000000000023
#0755b:000053
#07552:000063
#07958:000053000000000000530000
#07955:005300530000
#08252:0013
#08258:000000000000000000000000000000000000000000000000130000000000000000545454545454545454545454545454
#08259:000000000000000000000000000000000000000000000000000000000000000000000000000000000000000000000000000000000000000000000000000000005200002200000022000000220000002200000022000000220000002200000000
#08256:000000000000000000000000000000000000000000000000000000000000000000000000000000000000000000000000000000000000000000000000000000000028000000280000002800000028000000280000002800000028000000280000
#08352:53
#08958:006300000000
#08955:000053
#0895a:44
#09058:006300000000
#0915a:44
#07152:000033
#07156:000044
#08058:000000000046000000000000
#08052:000000000036000000000000
#0805b:000053
#05957:00430000
#05952:00340000
#00556:0043
#00856:0044
#01057:00000063
#01357:5300000000230000
#01358:0000530000000023
#01359:0053
#0135a:0023000000005300
#0135b:0000002300000000
#01556:6300000000230000
#01553:0023000000006300
#01555:0000630000000023
#01552:0000002300000000
#01554:0063
#0175c:5200002200000022
#0175a:00525252
#01758:0022000000220000
#01952:6200002200000022
#01956:0022000000220000
#01954:00626262
#03257:000000000063000000000000
#0325b:000000000000002300000000
#03452:000000000053000000000000
#03458:00000053
#0345b:0000000000000023
#0425a:00000044
#0465b:00430000
#04752:33
#04952:34
#05152:0000003400000000
#0515a:0000004400000000
#05258:0053
#0525b:000000000000002300000000
#05455:3663
#05452:000000000000002300000000
#05652:34
#0565a:44
#06652:33
#0665b:43
#07058:00000053
#07055:00000053
#0735b:00000053
#07352:00000053
#07458:00230000
#07455:00230000
#02452:63
#02456:0023
#0775c:12
#07752:0013
#0785a:14
#07852:0014
#08555:005300000000
#08552:00230000
#08557:00002323
#0855b:0000000000230023
#08559:00000000000000000053005300530053
#08657:23230000
#08659:00530053005300530000000000000000
#0865b:0023002300000000
#08652:00002323
#08654:00000000000000000053005300530053
#08656:0000000000230023
#08756:0054
#09259:00000000000000000000000054545454
#0925a:0000000000000000000000000000000000000000000000000024000000240000
#09258:0000000000000000000000000000000000000000000000000000002400000024
#09252:0000000000000000000000000000000000000000000000000024000000240000
#09253:00000000000000000000000064646464
#09254:0000000000000000000000000000000000000000000000000000002400000024
#09359:5400540054005400545454545454545454545454545454545454545454545454
#0935a:00002400000000000000240000000000002400000024000000240000002400000024000000240000002400000024000000240000002400000024000000240000
#09358:00000000000024000000000000002400000000240000002400000024000000240000002400000024000000240000002400000024000000240000002400000024
#09353:6400640064006400646464646464646464646464646464646464646464646464
#09352:00002400000000000000240000000000002400000024000000240000002400000024000000240000002400000024000000240000002400000024000000240000
#09354:00000000000024000000000000002400000000240000002400000024000000240000002400000024000000240000002400000024000000240000002400000024
#09459:54005400540054005400540054005400000000220000002200000022000000220000002200000022000000220000002200000000000000000000000000000000
#0945a:00240000002400000024000000240000520052005200520052005200520052005200520052005200520052005200520000000000000000000000000000000000
#09458:00000024000000240000002400000024000000000000000000000000000000000000000000000000000000000000000000000000000000000000000000000000
#0945b:00000000000000000000000000000000002200000022000000220000002200000022000000220000002200000022000000000000000000000000000000000000
#09453:64006400640064006400640064006400002200000022000000220000002200000022000000220000002200000022000000000000000000000000000000000000
#09452:00240000002400000024000000240000000000000000000000000000000000000000000000000000000000000000000000000000000000000000000000000000
#09454:00000024000000240000002400000024620062006200620062006200620062006200620062006200620062006200620000000000000000000000000000000000
#09455:00000000000000000000000000000000000000220000002200000022000000220000002200000022000000220000002200000000000000000000000000000000
#03555:53
#03552:0000002300000000
#05355:00003646
#05555:00463646
#001380:000013
#002380:23
#002351:13230000
#002321:0053000000000000
#002380:00130000
#0023b0:000000000023000000000000
#005320:000013000053000000000000
#005360:00532300
#006320:14543400
#006360:0054000000000000
#007320:24
#0063a1:00001454
#006361:0000000000540000
#0073a1:24
#008361:00142400
#008361:000014
#009361:24
#009361:00000013
#010321:23
#010371:00000013
#0113b1:23
#013371:1300000000530000
#0133a1:0053000000003300
#013381:0000330000000053
#0133b1:0000005300000000
#013391:0033
#0143b1:23
#015361:1300000000530000
#015331:0053000000003300
#015351:0000330000000053
#015321:0000005300000000
#015341:0033
#016321:23
#0173c1:1200005200000052
#017381:0052000000520000
#0173a1:00323232
#018381:22
#019321:1200005200000052
#019361:0052000000520000
#019341:00323232
#020361:22
#021381:00001323
#022351:00001323
#0233b1:13
#023371:00230000
#023371:0013
#0233b1:00000023
#024321:13
#024361:00230000
#024361:0013
#024321:00000023
#025381:000013
#0263b1:23
#026331:000000000013000000000000000000000000000000000000
#026321:00230000
#026341:000000000000000000000013000000000000000000000000
#026321:0023
#026351:000000000000000000000000000000000013000000000000
#026321:00000023
#026361:000000000000000000000000000000000000000000000013
#027321:23
#027361:000013
#028321:23
#029371:000012220000000000000000
#029371:000000000000000012220000
#030361:000000000013000000230000
#030321:000000000000005300000000
#031371:000012220000000000000000
#031371:000000000000000012220000
#032371:000000000013000000230000
#0323b1:000000000000005300000000
#034321:000000000013000000000000
#034351:00000023
#034380:00000013
#0343b0:0000000000000053
#035380:23
#035351:13000023
#035321:0000005300000000
#036321:000000000000000000000013
#037371:000000000000000000000053000000000000000000000000
#038321:23
#038371:0013
#0383b1:000000000053
#0393b1:23
#038360:000013
#039320:23
#039360:0013
#040320:53230000
#039371:00000013
#0403b1:00230000
#042321:0000000000000000000000000000000014343434343434340000000000000000
#0423a1:00000024
#0463b1:13230000
#046321:00000013
#047321:23
#048321:000000000000000000000000143434343434003434343434
#048381:00000034
#049321:24
#052381:000000132300
#0523b1:000000000000005300000000
#054351:000000132300
#054321:000000000000005300000000
#058361:001400000000
#0583a1:0024
#058361:000000000000000000000014
#059321:00240000
#065321:0013
#065351:00000053
#066321:23
#0653b0:000013
#065380:000000000053
#0663b0:23
#066380:000000000013230000000000
#066350:000000000000000000000013
#067350:23
#070380:00000013
#0713b0:00230000
#070351:00000013
#071321:00230000
#071361:000000142400
#0733b1:00000013
#074351:00530000
#0743b1:00000023
#073320:00000013
#074380:00530000
#074320:00000023
#0753b0:000013
#076350:535353535300
#076380:005300530053005300230000
#075321:000013
#076381:535353535300
#076351:005300530053005300230000
#079381:001300000000
#0793b1:0023
#079350:001300000000
#079320:000000000023000000000000
#079350:0013
#079320:00000023
#079381:00000013
#0803b1:23
#0803b1:000013
#080381:000000000023
#082391:000000000000000000000000000000000000000000000000000000000000000000000000000000000000000000000000000000000000000000000000000000001200005200000052000000520000005200000052000000520000005200000052
#082361:000000000000000000000000000000000000000000000000000000000000000000000000000000000000000000000000000000000000000000000000000000000058000000580000005800000058000000580000005800000058000000580000
#082381:000000000000000000000000000000000000000000000000000000000000000000545454545454545454545454545454
#083391:22
#083320:13
#083360:00230000
#0833b0:000013
#083380:000000000023
#083351:000000000013
#084321:23
#085351:001323000000
#085321:00530000
#085371:00001353
#085391:00000000000000000053005300530053
#0853b1:0000000000530053
#086371:53532300
#086391:00530053005300530000000000000000
#0863b1:0053005300000000
#086320:00001353
#086340:00000000000000000053005300530053
#086360:0000000000530053
#087320:23
#087360:0014
#0883a0:3434343434343434000000000000000034343434343434340000000000000000
#088320:0000000000000000343434343434343400000000000000003434343434343434
#0893a0:24
#089380:001300000000
#0893b0:000023
#089351:000013
#090321:002300000000
#090380:001300000000
#0903b0:000023
#092390:00000000000000000000000014545454
#0923a0:0000000000000000000000000000000000000000000000000054000000540000
#092380:0000000000000000000000000000000000000000000000000000005400000054
#093390:5400540054005400545454545454545454545454545454545454545454545454
#0933a0:00005400000000000000540000000000005400000054000000540000005400000054000000540000005400000054000000540000005400000054000000540000
#093380:00000000000054000000000000005400000000540000005400000054000000540000005400000054000000540000005400000054000000540000005400000054
#094390:54005400540054005400540054005400000000520000005200000052000000520000005200000052000000520000005200000000000000000000000000000000
#0943a0:00540000005400000054000000540000520052005200520052005200520052005200520052005200520052005200520052000000000000000000000000000000
#094380:00000054000000540000005400000054000000000000000000000000000000000000000000000000000000000000000000000000000000000000000000000000
#0943b0:00000000000000000000000000000000005200000052000000520000005200000052000000520000005200000052000000000000000000000000000000000000
#095380:002200000000000000000000
#092331:00000000000000000000000014545454
#092321:0000000000000000000000000000000000000000000000000054000000540000
#092341:0000000000000000000000000000000000000000000000000000005400000054
#093331:5400540054005400545454545454545454545454545454545454545454545454
#093321:00005400000000000000540000000000005400000054000000540000005400000054000000540000005400000054000000540000005400000054000000540000
#093341:00000000000054000000000000005400000000540000005400000054000000540000005400000054000000540000005400000054000000540000005400000054
#094331:54005400540054005400540054005400005200000052000000520000005200000052000000520000005200000052000000000000000000000000000000000000
#094321:00540000005400000054000000540000000000000000000000000000000000000000000000000000000000000000000000000000000000000000000000000000
#094341:00000054000000540000005400000054520052005200520052005200520052005200520052005200520052005200520052000000000000000000000000000000
#094351:00000000000000000000000000000000000000520000005200000052000000520000005200000052000000520000005200000000000000000000000000000000
#095361:002200000000000000000000
