This file was generated by Ched 2.7.0.0.
#TITLE ""
#ARTIST ""
#DESIGNER ""
#DIFFICULTY 0
#PLAYLEVEL
#SONGID ""
#WAVE ""
#WAVEOFFSET 0
#JACKET ""
#REQUEST "ticks_per_beat 480"
#00002: 4
#BPM01: 230
#BPM02: 115
#00008: 01
#07908: 02
#TIL00: ""
#HISPEED 00
#MEASUREHS 00
#0021a:14
#00212:14
#00318:14
#00414:14
#00518:16
#00515:0016
#00612:16
#00615:0016
#00718:16
#01512:14
#01518:0014
#0171a:14
#01712:0014
#01912:14
#0191a:0014
#02219:0014
#02213:0014
#0391a:14
#03914:0014
#04018:14
#04012:0014
#00812:14
#00818:14
#01314:0014
#0131a:24
#03613:0014
#03619:0014
#03813:0014
#03819:0014
#04214:0014
#04218:14
#04210:41
#06118:0014
#06114:14
#06110:41
#06314:0014
#06318:14
#06514:0014
#06518:14
#08312:00000014
#0841a:00000014
#09212:14
#0921a:14
#09215:00000000000000000000000000180000
#09214:0000000000002818
#09213:00000000000000000000000000000018
#09314:1818181818181818
#09313:00000018000000180000001800000018
#09315:00180000001800000018000000180000
#09414:1818180000000000
#09415:00180000001800000000000000000000
#09413:00000018000000000000000000000000
#08914:14
#08918:14
#08714:14
#08712:0014
#06616:0014
#0661a:14
#02114:14
#0291a:14
#02914:0014
#0301a:14
#03014:0014
#03118:14
#03112:0014
#03110:41
#03218:14
#03212:0014
#0331a:14
#03314:0014
#03418:14
#03412:0014
#0351a:14
#03517:0014
#03712:14
#03715:0014
#04118:1414
#04114:00140014
#0141a:14
#01612:14
#01818:14
#02014:14
#02018:0014
#02010:41
#0591a:14
#05912:14
#06914:0014
#06918:14
#07118:0014
#07114:14
#06412:0014
#0641a:14
#07212:14
#0721a:0014
#07314:14
#07318:00000034
#0101a:0014
#01014:0014
#01212:0014
#01218:0014
#07513:14
#07519:14
#07512:0024
#04319:00141400
#0431f:11
#04318:26
#04419:14140000
#04413:00000014
#04513:14001414
#04619:00141400
#04719:14140000
#04712:0026
#04714:00000026
#05312:14
#05318:14
#0541a:14
#05414:14
#05512:14
#05518:14
#08514:14
#08618:14
#0011a:24
#00112:24
#05612:24
#0561a:24
#07912:00002424
#0791a:00002424
#08012:24
#0801a:24
#08812:0024
#0881a:0024
#0251a:24
#02514:24
#02612:24
#02618:24
#0271a:24
#02714:24
#02812:24
#02818:24
#0601a:24
#0601f:21
#06812:24
#04816:26
#04818:00260000
#05214:24
#0521a:24
#08212:26
#08214:002600000000
#08216:002600
#08218:0026
#09013:0034
#09019:0034
#09018:34
#09014:34
#00910:41
#08110:41
#00758:16
#09254:0000000000005858
#09255:00000000000000000000000000280000
#09253:00000000000000000000000000000028
#09355:00280000002800000028000000280000
#09353:00000028000000280000002800000028
#09354:5858585858585858
#09455:00280000002800000000000000000000
#09453:00000028000000000000000000000000
#09454:5858580000000000
#08852:0054
#0885a:0054
#08954:24
#08958:24
#08752:0024
#08754:64
#0665a:54
#06656:0024
#02154:54
#0355a:64
#03557:0024
#03752:64
#03755:0024
#04254:0014
#08052:000000000014000000000000
#0805a:000000000014000000000000
#0915a:14
#09152:14
#0675a:44
#08658:54
#08554:54
#009380:14
#009390:0034
#0103a0:24
#011340:14
#011330:0034
#012320:24
#021340:14
#022320:24
#023380:14
#0233a0:0024
#024340:14
#024320:0024
#0353a0:14
#035370:0054
#0363a0:24
#037320:14
#037350:0054
#038320:24
#049380:14
#0493a0:00000024
#050340:0014
#051320:00240000
#056320:14545454
#056330:0054005400540054
#057320:54545454
#057330:0054005400540054
#058320:24
#0563a1:14545454
#056391:0054005400540054
#0573a1:54545454
#057391:0054005400540054
#0583a1:24
#0603a1:1424
#062321:1424
#0663a1:14
#066361:0054
#0673a1:24
#068321:1424
#0703a1:1424
#073381:00001434
#0743a1:0024
#075321:0014
#076321:340034343434
#077321:363636363636
#078321:383838383838
#079321:28
#0803a1:140000000024000000000000
#080320:140000000024000000000000
#081340:14
#081320:00240000
#081380:0014
#0813a0:00000024
#083340:14
#083330:00340000
#083320:0024
#084380:14
#084390:00340000
#0843a0:0024
#085340:14
#085320:0024
#086380:14
#0863a0:0024
#087340:14
#087320:0034
#088340:24
#088320:0014
#089340:34
#090340:34
#090330:0034
#091320:24
#0883a1:0014
#089381:34
#090381:34
#090391:0034
#0913a1:24
#092341:0000000000001858
#092351:00000000000000000000000000580000
#092331:00000000000000000000000000000058
#093341:5858585858585858
#093351:00580000005800000058000000580000
#093331:00000058000000580000005800000058
#094341:5858585800000000
#094351:00580000005800000000000000000000
#094331:00000058000000000000000000000000
#095351:002600000000000000000000
