This file was generated by Ched 2.7.0.0.
#TITLE ""
#ARTIST ""
#DESIGNER ""
#DIFFICULTY 0
#PLAYLEVEL
#SONGID ""
#WAVE ""
#WAVEOFFSET 0
#JACKET ""
#REQUEST "ticks_per_beat 480"
#00002: 4
#BPM01: 147
#00008: 01
#TIL00: ""
#HISPEED 00
#MEASUREHS 00
#04812:1616
#02019:14
#01919:14
#02113:14
#02110:41
#02213:14
#0231a:14
#0241a:14
#02512:14
#02612:14
#02718:14
#02710:0041
#02814:14
#02918:14
#03014:14
#0311a:14
#03212:14
#0331a:14
#03412:14
#03410:41
#0351a:14
#0351f:11
#03614:14
#03912:14
#04018:14
#04412:0016
#04418:26
#0441f:21
#04518:16
#04512:0016
#04510:41
#04618:1616
#04918:1616
#05012:1616
#05618:1616
#05218:0016
#05212:26
#05210:41
#05312:16
#05318:0016
#05412:1616
#05712:1616
#05818:1616
#06212:16
#06218:0016
#06312:16
#06318:0016
#00518:0000000000240000
#00714:002400000000
#00818:00000024
#05910:41
#011330:14
#014330:24
#015390:14
#018390:24
#0373a0:14
#0383a0:24
#041320:14
#042320:34
#043340:24
#047380:1626
#051380:1626
#055320:1626
#059320:1626
#060380:16
#061380:0026
#064320:1600003600003600
#065320:0026
#066380:1600003600003600
#068380:0000000000260000
