This file was generated by Ched 2.7.0.0.
#TITLE ""
#ARTIST ""
#DESIGNER ""
#DIFFICULTY 0
#PLAYLEVEL
#SONGID ""
#WAVE ""
#WAVEOFFSET 0
#JACKET ""
#REQUEST "ticks_per_beat 480"
#00002: 4
#BPM01: 147
#00008: 01
#TIL00: ""
#HISPEED 00
#MEASUREHS 00
#02118:1300001300130013
#02112:0013000000000000
#02115:00131300
#0211b:00000013
#02110:41
#02412:1324
#0241b:0013
#02418:0013001300002300
#02415:0000230000130013
#0241a:24
#02512:13241324
#02518:0013000000130000
#0251b:00130013
#02515:0000001300000013
#0251a:2424
#03417:13000000000000001300000000000013
#03416:00130023
#03412:23000000000000000000000000000013
#03410:41
#0351b:0000000000000013000000000000000000000000000000001300000000000000
#03516:0000000000000013000000000000000000000000000000001300000000000000
#0351f:11
#04015:0000000000130013
#04018:00001300000000000000000000000013
#0401b:13
#04016:13
#04017:0000131300000000
#04012:00000013
#0401a:00000024
#04116:0000001300000000
#04112:13
#04115:0000000000000013
#04118:00000000000000000000000014000013
#04119:00130000
#0411b:13
#0411c:0000001200120000
#0471b:13000000000000130000000000000000
#04715:0000001300000000
#04712:0000000013000013
#04716:13
#04717:0013
#04917:0013
#04915:13
#0491b:1300001300000013
#04912:00000013000000001300130000000000
#04916:00000013
#04918:00000013000000000000000000000000
#05016:24000000000024001400000000140000
#05012:0000140000143434
#0501a:00000000140000240000000000000000
#05018:0000000000130000
#0501b:0000000000001313
#0551a:00000000240014140000000024000000
#05516:2400140000000014
#05512:14000000000014140000000024000000
#05518:0000000024000000000000000000000000000013000000000000000000000000
#05514:0014000000000000
#05515:0000000000000000000000000000000000000013000000000000000000000000
#05612:1414
#0561a:14000014
#05616:0000001414000000
#05816:00000000000000140000140000001400
#05812:2600001400001400
#0581a:0014
#05814:00280000
#06018:2600131613000000
#06015:0013000000130000
#06012:0000002600000000
#0601a:00000024
#06112:00001517
#06117:0017
#06119:00000015
#06116:14
#0191b:00130013
#01918:2613
#01915:13
#02018:1313
#0201b:00130013
#02012:13
#02215:1300001313000000
#02212:0013000000130000
#0221b:00130000
#02218:00000000000000130000000014000000
#02312:1424
#02318:0013001300002300
#0231b:0013
#02315:0000230000130013
#0231a:24
#02612:13
#0261b:13
#02618:0000001300000000
#02615:0000001300000000
#0311b:00000000000000001300001300000000
#03112:16000000000000000013000000000000
#03115:00000000130000000000001300000000
#03118:2613001300000000
#02718:2613
#02712:16000000000000000013000000001300
#0271b:00001300000000000000001300000000
#02715:0000131300000000
#02710:0041
#02818:1600131300000000
#02815:0013
#0281b:00000000000000000013000000001300
#02812:26001300000000000000001300000000
#02912:16000000000000000013000000001300
#02918:26000000000000001300000000000013
#0291b:00001300000000000000001300000000
#02915:0000131300000000
#03012:1313
#0301b:00130023
#03018:0000000000000013
#03015:00000000000000000000000000130000
#03212:26000000000000001300001300000000
#0321b:00000000000000000013000000000000
#03218:16000000130000000000001300000000
#03215:0013001300000000
#0331b:00000000000000001300001300000000
#03312:16000000000000000013000000000000
#03315:00000000130000000000001300000000
#03318:2613001300000000
#03612:1300000000130000
#03618:0000130000000013
#03615:0013000013000000
#0361b:0000001300001300
#03712:1300000000000000000000130000000000000000000000001300000000000000
#03716:0000000000130000000000000000000000000000000000000000000000000000
#03714:00130000
#0371a:0014
#03717:00000013
#0381b:1300000000130000
#03815:00130000
#03818:0013000013000000
#03812:0000001300001400
#03912:13000024
#03917:13
#03915:0013000000000000
#03916:0000131300000000
#03918:0000000000130013
#0391b:00000013
#04218:0016
#04212:26000000240000000000001600000000
#04215:0000000000000016
#0421a:00240000
#04312:14003434343400003400340000000000
#0431a:14003434343400003400340000000000
#04318:0000001300000000
#04315:0000001300000000
#04418:2613000000130000
#04415:0000001300000000
#04412:0000000000000013
#0441f:21
#04512:1300001313000000
#04518:00000013000000000000000000000000
#0451b:0013
#04510:41
#0461b:1300001300000000
#04615:00000013000000001300000000000000
#04612:13
#04618:0013
#04818:0000001313000000
#0481b:00000013000000000000001300000000
#04812:1300000013000013
#04815:00000013000000000000001300000000
#04817:24
#0511a:14
#05119:00001400000000000000001300000000
#05118:00000000140000000000000000130000
#05117:00000000000014000000000000000013
#05115:00130000000000001600000000000000
#05114:00000013000000000000140000000000
#05113:00000000001300000000000014000000
#05112:00000000000000130000000000001400
#05217:0013000000000000
#05216:0000001300000000
#05213:0000000000130000
#0521a:0000000000000013
#05212:26
#05210:41
#0531b:1300001313000000
#05315:00000013000000000000000000000000
#05312:0013
#05412:1300001300000000
#05418:00000013000000001300000000000000
#0541b:13
#05415:0013
#05712:14
#05716:0000001414001400
#0571a:0014
#05912:00000000000014000034341434340014
#0591a:00003414340000140000000000001400
#05916:2424
#05910:41
#06215:00131300
#06212:2600001600002400
#06218:1613002600130000
#06214:0000000000000014
#06316:1414
#06314:0014001400140000
#06312:00140000
#06416:00000015000000000000000000000000
#06419:2500002500002500
#06412:25000025
#06516:1524
#06514:00000028
#06512:00250000
#0141b:13
#01415:0013
#0151b:13
#01617:0013
#01812:13
#0181b:0013
#06615:00000015000000000000000000000000
#06618:0000000000000014
#06614:0000000000000014
#06612:2500002500000000
#06619:25000024
#06613:00000024
#06719:14141414
#0671a:0014000000140000
#06718:0000001400000014
#06713:14141414
#06712:0014000000140000
#06714:0000001400000014
#06819:14141400
#0681a:0014000000140000
#06818:0000001400000000
#06813:14141400
#06812:0014000000140000
#06814:0000001400000000
#00516:0000000000000000000000000000000000000024000000000000000000000000
#00716:00000024000000000000000000000000
#00816:0000000000000000000000000000000000000000000000000024000000000000
#03457:53000000000000005300000000000063
#03456:00530000
#03452:00000000000000000000000000000063
#0355b:0000000000000023000000000000000000000000000000005300000000000000
#03556:0000000000000023000000000000000000000000000000000000000000000000
#04152:53
#04156:0000002300000000
#04957:0053
#04955:53
#04952:00000023000000001300000000000000
#04956:00000063
#0495b:13000013
#05558:0000000000000000000000000000000000000023000000000000000000000000
#0555a:00000000000000540000000044000000
#05555:0000000000000000000000000000000000000023000000000000000000000000
#05552:00000000000000540000000034000000
#0475b:53000013
#04756:53000013
#04752:0063
#04757:0063
#05652:1454
#0565a:54000064
#05656:00004434
#06058:16
#0605a:00000064
#02052:23
#01955:53
#02258:00000014
#02252:0000000000230000
#02255:0053
#02352:14
#02652:53
#0265b:53
#02658:0000002300000000
#02655:0000002300000000
#03152:36000000000000000053000000000000
#03155:00000000000000000000005300000000
#0315b:00000000000000000000005300000000
#02752:16000000000000000053000000000000
#0275b:00000000000000000000005300000000
#0285b:00000000000000000063000000000000
#02852:00000000000000000000006300000000
#02858:16
#02952:16000000000000000053000000000000
#0295b:00000000000000000000005300000000
#03052:5353
#0305b:00530000
#0325b:00000000000000000063000000000000
#03252:00000000000000000000006300000000
#03258:46000000000000000000006300000000
#03352:36000000000000000053000000000000
#0335b:00000000000000000000005300000000
#03355:00000000000000000000005300000000
#03658:0000530000000023
#03655:0023000053000000
#0365b:0000002300005300
#03652:5300000000230000
#03752:6300000000000000000000230000000000000000000000006300000000000000
#03756:0000000000230000000000000000000000000000000000000000000000000000
#03754:00630000
#0375a:0014
#0385b:6300000000230000
#03855:00630000
#03858:0023000063000000
#03852:0000002300001400
#0395b:0000001300000000
#03956:0000005300000000
#03957:53
#04056:63
#04057:0000006300000000
#04052:0000001300000000
#04258:0016
#04252:00000000000000000000001600000000
#04255:0000000000000016
#04352:54000034
#0435a:54000044
#04358:0000002300000000
#04355:0000002300000000
#04555:00000013
#04558:00000053000000000000000013000000
#04552:5353
#0455b:0053
#0465b:53000043
#04655:00000053000000002300000000000000
#04658:0023
#04652:00000033
#04852:5313
#04858:0053
#04855:00000023000000000000000000000000
#0485b:00000000000000000000002300000000
#04857:14
#05052:0000000000540000
#05056:14000000000000001400000000240000
#05155:0016
#0535b:6363
#05355:00000063000000000000000013000000
#05352:0063
#05358:00000013
#05452:63000033
#05458:00000063000000002300000000000000
#05455:0023
#0545b:00000043
#05252:16
#04458:16
#05752:64000014
#05756:44006454
#0575a:0014
#0585a:14005444
#05852:16000054
#05856:0000000000240024
#05952:34000000000000000000002400000000
#0595a:00000024000000000000000000000000
#05956:5454
#06156:24
#06152:0035
#06159:00000045
#06356:2424
#06354:0064005400640000
#06352:00240000
#06252:16000024
#06254:0000000000000054
#06258:0000001600000000
#06459:4500004500005500
#06452:5500003500000000
#06456:00000025000000000000000000000000
#06556:25
#01852:53
#0155b:53
#01455:0053
#0145b:53
#01657:0023
#06655:00000025000000000000000000000000
#06652:3500003500000000
#06659:6500004500005400
#06658:0000000000000024
#06654:0000000000000024
#06653:00000064
#0675a:0024000000240000
#06758:0000002400000024
#06759:54545454
#06753:64646464
#06752:0024000000240000
#06754:0000002400000024
#06859:54545400
#0685a:0024000000240000
#06858:0000002400000000
#06853:64646400
#06852:0024000000240000
#06854:0000002400000000
#011320:13
#014360:23
#0143b1:13
#014381:0023
#014350:0013
#015320:23
#0153b1:13
#016371:0053
#0183b1:23
#018320:13
#018360:0023
#019350:13
#020320:53
#021350:23
#022350:00001323
#022320:0000000000530000
#026320:13000023
#026350:0000005300000000
#0263b1:13000023
#026381:0000005300000000
#027321:00000000000000000013000000000000
#027351:00000000000000000000002300000000
#0273b0:00000000000000000000001300000000
#027380:0000000000000023
#0283b0:00000000000000000013000000000000
#028380:00000000000000000000002300000000
#028321:00000000000000000000001300000000
#028351:0000000000000023
#029321:00000000000000000013000000000000
#029351:00000000000000000000002300000000
#0293b0:00000000000000000000001300000000
#029380:0000000000000023
#030320:13
#030360:00230000
#0303b1:00130000
#030371:0023
#030320:0013
#030360:00000023
#031320:00000000000000000013000000002300
#031350:00000000000000000000003300000000
#0313b1:00000000000000000000001300000000
#031381:0000000000000023
#0323b1:00000000000000000013000000002300
#032381:00000000000000000000003300000000
#032320:00000000000000000000001300000000
#032350:0000000000000023
#033320:00000000000000000013000000002300
#033350:00000000000000000000003300000000
#0333b1:00000000000000000000001300000000
#033381:0000000000000023
#034371:13
#0343b1:00230000
#034360:00130000
#034320:0023
#034371:0013
#0343b1:00000023
#034371:00000000000000000000000000000013
#0353b1:0000000000000053000000000000000000000000000000000000000000000000
#035371:0023
#034320:00000000000000000000000000000013
#035360:0000000000000053000000000000000000000000000000000000000000000000
#035320:0023
#0353b0:00000013
#036370:23
#036321:13230000
#036351:0053000000000000
#036380:00132300
#0363b0:0000005300000000
#036351:00001323
#036321:0000000000530000
#0363b0:00000013
#036380:0000000000000053
#0373b0:23
#037321:1300000000000000000000530000000000000000000000000000000000000000
#037361:0000000000530000000000000000000023000000000000000000000000000000
#037341:00530000
#037321:00000013
#038361:23
#0383b0:13230000
#038380:0053000000000000
#038351:00132300
#038321:0000005300000000
#038380:00001323
#0383b0:0000000000530000
#039370:13
#0393b0:0000002300000000
#039361:0000001300000000
#039321:0000000000230000
#040361:13
#040321:0000002300000000
#040370:0000001300000000
#0403b0:0000000000230000
#041320:13000023
#041360:0000003300000000
#043320:14003434343400003400340024000000
#043350:0000003300000000
#0433a1:14003434343400003400340024000000
#043381:0000003300000000
#044321:13230000
#0443b0:00132300
#044351:00001323
#044380:00000013
#045380:23
#045321:13
#045351:00000023000000000000000000000000
#045380:00000013000000000000000000000000
#0453b0:0000002300000000
#045320:0013
#045350:00000023
#0453b1:0013
#045381:00000023
#0463b1:13
#046381:00000023000000000000000000000000
#046350:00000013000000000000000000000000
#046320:0000002300000000
#046350:0013
#046320:00000023
#046381:0013
#0463b1:00000023
#0473b1:13
#047371:00230000
#047360:13
#047320:00230000
#047320:0013
#047360:00000023
#047371:0013
#0473b1:00000023
#048321:1300002300000000
#048351:00000033000000000000000000000000
#048381:0000000013000023
#0483b1:00000000000000000000003300000000
#049351:1300002300000000
#049321:00000033000000000000000000000000
#049371:0013
#0493b1:00000023
#049360:00000013
#050320:23
#050320:0000000000143434
#050360:00000000000000000000000000540000
#051320:24
#0523b0:13230000
#052321:00132300
#052380:00001323
#052351:00000013
#053351:23
#0533b0:13
#053380:00000023000000000000000000000000
#053351:00000013000000000000000000000000
#053321:0000002300000000
#0533b1:0013
#053381:00000023
#053320:0013
#053350:00000023
#054320:13
#054350:00000023000000000000000000000000
#054381:00000013000000000000000000000000
#0543b1:0000002300000000
#054381:0013
#0543b1:00000023
#054350:0013
#054320:00000023
#0553a0:00000000000000140000000024000000
#055380:0000000000000000000000000000000000000053000000000000000000000000
#055321:00000000000000140000000024000000
#055351:0000000000000000000000000000000000000053000000000000000000000000
#0563a1:14
#056361:00000024000000000000000000000000
#056320:00000014000024000000000000000000
#056320:0014
#056360:00000024
#0563a1:00000014
#057361:24
#057320:14
#057360:00000024000000000000000000000000
#0573a1:00000014000024000000000000000000
#057361:0014
#057321:00000024
#057360:00000014
#0583a0:24
#0583a0:00001424
#058360:0000000000540000
#058321:00000014
#058361:0000000000000054
#059321:24
#059360:1400002400000000
#0593a0:00003454340000000000000000000000
#059360:0000000014000024
#059320:00000000000000000034343434340000
#0603a0:00000014
#061360:34
#0613a0:00240000
#060321:00000014
#061321:00240000
#062321:00000014
#062341:0000000000000054
#063361:3434
#063341:0054005400540000
#063321:00340024
#0623a0:00000014
#0633a0:00000024
#064320:1500002500000000
#064360:00000055000000000000000000000000
#064390:00000015
#065360:55
#065390:00250000
#066390:1500002500000000
#066350:00000055000000000000000000000000
#066390:00000014
#066380:0000000000000054
#067390:54545454
#0673a0:0054000000540000
#067380:0000005400000054
#068390:54545424
#0683a0:0054000000540000
#068380:0000005400000000
#066331:00000014
#066341:0000000000000054
#067331:54545454
#067321:0054000000540000
#067341:0000005400000054
#068331:54545424
#068321:0054000000540000
#068341:0000005400000000
