This file was generated by Ched 2.7.0.0.
#TITLE ""
#ARTIST ""
#DESIGNER ""
#DIFFICULTY 0
#PLAYLEVEL
#SONGID ""
#WAVE ""
#WAVEOFFSET 0
#JACKET ""
#REQUEST "ticks_per_beat 480"
#00002: 4
#BPM01: 147
#00008: 01
#TIL00: ""
#HISPEED 00
#MEASUREHS 00
#01912:00130013
#0191b:0013
#01915:26
#02018:1313
#02015:00130013
#02112:00130013
#0211b:1313
#02110:41
#02218:13
#02215:00130000
#0231b:13
#02318:00130013
#02312:23
#02315:0023
#02412:13
#02415:00130013
#02418:0023
#0241b:23
#0251b:1323
#02512:2313
#02518:00230000
#02515:00000023
#02718:00001300000000000013000000000000
#02715:00000000130000000000001300000000
#0271b:0000001300000000
#02712:2313
#02710:0041
#03019:00140000
#03018:14
#03012:14
#03013:00140000
#03118:00000000000000001300001300000000
#03112:00000000000000000013000000000000
#0311b:2313000000000000
#03115:0000131300000000
#03412:24000000000000000000000000000013
#0341a:0024
#03410:41
#03515:0000000000000013000000000000000000000000000000000000000000000000
#0351f:11
#03717:13
#03915:0013001300000013
#03918:00130023
#0391b:13
#04018:0013001300000013
#04015:00000000130000000000000000000013
#04012:13000023
#0411b:0000331300330000
#04118:13000000000000000000000000000013
#04112:0000000000000013
#04212:14
#04216:00000000340000003400003400000000
#04415:00130000
#0441b:00130000
#04412:00001613
#04418:26000013
#0441f:21
#0451b:13
#04515:00000013000000000000000000000000
#04518:0000001300000000
#04512:0013
#04510:41
#0461b:13
#04618:00000013000000000000000000000000
#04615:0000001300000000
#04612:0013
#04715:0000001313000000
#0471b:13
#04718:00000000000000130000000000001300
#04912:0000001313000000
#04918:0000001313000000
#05018:0000002414000000
#05012:2400000000140000
#05016:00000014
#0501a:2400000000000014
#05014:00000000000000240000000000000000
#0551a:00000000240000140000000000000000
#05512:2400001400000014
#05516:0024000000000000
#05616:1400001400000000
#05612:00000014000000000000000000000000
#0561a:0014
#05712:1414
#05716:00000014000000000000000000000000
#0571a:0000001400000000
#0581a:1400001400000000
#05812:24000000000000140000000000000000
#05912:2400000000000014
#0591a:00000000000000002400000000000014
#05910:41
#06017:00130000
#06012:2400001400002400
#06016:0000000000130000
#0601a:0000002400000000
#06112:0014
#06115:00000013
#06118:0013
#0611a:00000014
#06216:00130000
#0621a:2400001400002400
#06217:0000000000130000
#06212:2400002400000000
#06414:14
#06418:0000001400000000
#0641a:24000024
#06412:0000002400002400
#0661a:14000024
#06612:2600001400002400
#06618:0000002600000000
#03815:0013
#01418:0014
#02815:00001300000000000013000000000000
#02818:00000000130000000000001300000000
#02812:0000001300000000
#0281b:2313
#02918:00001300000000000013000000000000
#02915:00000000130000000000001300000000
#0291b:0000001300000000
#02912:2313
#03215:00000000000000001300001300000000
#0321b:00000000000000000013000000000000
#03212:2313000000000000
#03218:0000131300000000
#03318:00000000000000001300001300000000
#03312:00000000000000000013000000000000
#0331b:2313000000000000
#03315:0000131300000000
#05218:00131600
#05212:26130000
#0521b:00000013
#05215:00000013
#05210:41
#05312:13
#05318:00000013000000000000000000000000
#05315:0000001300000000
#0531b:0013
#05412:13
#05415:00000013000000000000000000000000
#05418:0000001300000000
#0541b:0013
#05112:24
#0511a:0024
#06512:0026
#06518:00000026
#00515:0000000000000000000000000000000000000026000000000000000000000000
#00715:00000026000000000000000000000000
#00815:0000000000000000000000000000000000000000000000000026000000000000
#02755:00000000000000000000005300000000
#03158:00000000000000000000005300000000
#03452:00000000000000000000000000000063
#03555:0000000000000023000000000000000000000000000000000000000000000000
#03757:63
#0375b:0013
#03852:00000013
#03855:0063
#03955:0000006300000000
#04158:53
#0415b:0000002300000000
#04252:54
#04352:00000014
#0435a:00000014
#04458:16
#04555:00000013
#04552:0053
#04652:0053
#04655:00000013
#04952:0053
#04958:0053
#0555a:00000000000000640000000000000000
#0475b:53
#04755:0053
#05656:14
#0565a:0054
#05752:0064
#0585a:14
#05852:14
#05952:54
#0595a:0054
#06052:14
#06454:14
#0645a:14
#06458:0000001400000000
#06452:0000001400000000
#0665a:14
#06652:1600001400000000
#06658:0000001600000000
#02858:00000000000000000000006300000000
#02955:00000000000000000000005300000000
#03255:00000000000000000000006300000000
#03358:00000000000000000000005300000000
#04058:0000005300000000
#05252:16
#0545b:0063
#05458:00000013
#0535b:0063
#05358:00000013
#0505a:14
#05052:14
#06252:14
#0625a:14
#011320:14
#014360:24
#0153a0:14
#018360:24
#0223b0:00001323
#022321:00001323
#026321:13000023
#0263b0:13000023
#027350:00000000000000000000001300000000
#027320:0000000000000023
#028380:00000000000000000000001300000000
#0283b0:0000000000000023
#029350:00000000000000000000001300000000
#029320:0000000000000023
#030340:00001424
#0303a1:00001424
#031381:00000000000000000000001300000000
#0313b1:0000000000000023
#032351:00000000000000000000001300000000
#032321:0000000000000023
#033381:00000000000000000000001300000000
#0333b1:0000000000000023
#034321:14
#034361:00240000
#0343a1:0014
#034361:00000024
#034321:00000000000000000000000000000013
#035351:0000000000000053000000000000000000000000000000000000000000000000
#035321:0023
#0353b1:00000013
#036391:33
#0363b1:00330033
#036381:0033
#037371:33
#0373b1:0023
#037321:00000013
#038351:3333
#038321:00330023
#039351:0000001300000000
#039321:0000000000230000
#040381:0000001300000000
#0403b1:0000000000230000
#041381:13000023
#0413b1:0000333300330000
#042321:14
#042361:00000000340000003400003400002400
#043321:14000034003400003400340024000000
#0433a0:1434343434342400
#045320:0013
#045350:00000023
#046320:0013
#046350:00000023
#0473b0:13
#047380:00230000
#047350:0013
#047320:00000023
#048350:1300002300000000
#048320:00000033000000000000000000000000
#0483b0:0000000013000023
#048380:00000000000000000000003300000000
#0493b0:13
#049380:00000023000000000000000000000000
#049351:13
#049321:00000023000000000000000000000000
#049321:0013
#049351:00000023
#049380:0013
#0493b0:00000023
#051320:14
#051360:00240000
#0513a0:0014
#051360:00000024
#0533b0:0013
#053380:00000023
#0543b0:0013
#054380:00000023
#0553a0:00000000000000140000000000000000
#055360:00000024
#0563a0:0014
#056360:00000024
#057320:0014
#057360:00000024
#0583a0:0014
#058360:00000024
#059320:14
#059360:00240000
#0593a0:0014
#059360:00000024
#0603a0:00000014
#0613a0:34240000
#060321:00000014
#061321:34240000
#062321:00000014
#063321:34343424
#0623a0:00000014
#0633a0:34343424
#064320:00000014
#065320:00240000
#0643a1:00000014
#0653a1:00240000
#0663a1:00000014
#0683a1:00000024
#066320:00000014
#068320:00000024
