This file was generated by Ched 2.7.0.0.
#TITLE ""
#ARTIST ""
#DESIGNER ""
#DIFFICULTY 0
#PLAYLEVEL
#SONGID ""
#WAVE ""
#WAVEOFFSET 0
#JACKET ""
#REQUEST "ticks_per_beat 480"
#00002: 4
#BPM01: 147
#00008: 01
#TIL00: ""
#HISPEED 00
#MEASUREHS 00
#01916:12
#0191c:0012000000000000
#01918:2600000012120000
#02113:0012000000000000
#02114:00120000
#02115:0000001200000000
#02119:0000000000120000
#0211a:00000012
#0211b:0000000000000012
#0211c:12
#02116:0012
#02110:41
#02215:0012000000000012
#02214:00120000
#02213:0000001200000000
#0221a:00000000000000120000000000000000
#02219:0000000000120000
#02218:12
#02216:0013
#02319:00001200000012000000001200000000
#02315:00000012000000000000120000001200
#0231b:0013
#02312:24000024
#0231a:00240000
#02316:0024
#02519:00000012000000001500120000000000
#02515:00001200260000000000001226000000
#02512:1500001226000000
#0251c:0000000000000012
#02518:26
#02417:0000001200000012
#0241a:00000012000000000000000000000000
#02416:2512000000000000
#02412:13250000
#02414:00000000000000000000001200000000
#02418:0000000000120000
#0241b:0013
#02419:00000025
#02415:0025
#02712:16001200000000001313000000131300
#02715:00120000
#0271c:0000001200000000
#02719:00120000
#02717:00000000000000001313000000001300
#0271b:00000000000000000000001300000000
#02718:26
#02710:0041
#03015:00000000190000000000000029161600
#03012:19000000000000001933330000000000
#03018:0012000000120000
#03016:0000001200000000
#0301b:13
#03518:0000000000000012
#0351a:14000014
#03515:00140000
#03514:0014
#03516:00000013
#0351f:11
#03512:26
#03613:0012000000000000
#0361b:1300000000130012
#03617:0013000000000000
#03616:0000000000000013
#03612:0000001300001300
#03615:00130000
#03618:0013
#03614:0000000000120000
#0361a:0000001200000000
#0341b:1300000013330000
#03414:0013000000000000
#03418:0000001300000000
#03412:29130023
#03415:0000000000130012
#03419:00000000000000000000000000120000
#0341c:00000000000000000000000000000012
#03410:41
#03717:1300000000000000000000130000000000000000000000000000000000000000
#0371b:0000000000130000000000000000000000000000000000000000000000000000
#03719:00130000
#03718:0000000000000012
#0371a:00000014
#03716:00000013
#03714:0014
#04814:00000016000000000000000000001600
#0481b:00001300000000000000000000130000
#04812:00000000001300001800130000000000
#04816:28000000000016000000001600000000
#04912:00000018000000001500000000000000
#04919:00000015
#04917:0013000023130000
#04916:18000000001318000000000023001300
#04515:0012000000000000
#0451c:1200120000000012
#04518:00000024000000000000120024000000
#04516:0000122412001200
#04512:2400000000120000
#0451a:0024
#04510:41
#04616:00001224000000000000120000000000
#0461a:0000122400000000
#04617:12
#04612:2400120024000012
#04618:00001212
#0461c:0000000000120000
#04614:00000024
#0471c:0012000000000000
#04718:2400120000000014
#0471a:0000002414000000
#04719:00000000000000000033133300000000
#04714:00000000000000000033133300001400
#04712:1224
#04716:00000012000000240000000000000000
#04417:0000000000120012
#04416:0012000000000000
#04418:0000001200000000
#04412:2424
#0441a:00240024
#0441f:21
#05012:26001c0016130013
#05014:00000013
#0501b:0000000000130013
#05017:00000013
#05018:2616
#05015:00000000000026260000000000000000
#05114:13001813
#05118:00130000000000000000000000000012
#05113:00001300000000130000000000000000
#05117:00000013000000000000000000000000
#0511a:00000000140013000000001400000000
#05112:0000140000140000
#05116:00000000001300000000000000001200
#05119:00000000000000000000000000130000
#05217:0000000000120012
#05218:0012000000000000
#05216:0000001200000000
#05219:2525
#05212:00250025
#05210:41
#06019:15
#06014:00001200120000000016000000000000
#06016:00000016000028000000000000000000
#06012:27000000000014000000000028000033
#0601a:0000000012120000
#06219:0012120000000000
#06214:00000017000000000000000000000000
#06215:00000000000000001217120000000000
#06212:2c00002c00000000
#06216:00000028
#0621b:00000000000000000000000000000033
#06116:00001300003300000000141400001414
#06112:0000181c
#06312:00000000000000000014000015000000
#0631a:0000000000140000
#06316:00000000000000001400001400000000
#06319:000000000000000000000000000000000000153434143434
#06313:000000000000000000000000000000000000003434143434
#06317:00001300003300000000000000000000
#0261c:0012000012000000
#02612:00160000001200160000001200000013
#02616:00000012000000000012000000000000
#02618:2600122600120013
#02615:00000000000000000000000000130000
#0261b:00000023
#0381b:1313
#03812:00130013
#03815:0012000000000000
#03819:0000001200000000
#03814:0000000000120000
#03816:0000000000000013
#0391a:14
#03916:0012000000000000
#03914:00120000
#03912:0000001300000000
#03917:0000000000000013
#0391b:0000000000132300
#04012:1400000000132300
#04018:0012000000000000
#0401a:14120000
#0401b:0000001300000000
#04016:0000000000000013
#04019:00000000000000000000000000000012
#04116:13000000000000001300000000001414
#04112:00130000
#04114:0000001300000000
#0411a:1414
#04119:00000015
#04212:15000000250000001400001400001400
#04219:25150000
#04217:00001200000012000000000000130000
#0421a:00000000000000001400001400001400
#04216:0000000000130000
#04315:2600000000000016
#05319:0012000000000000
#05312:1200120024000012
#05316:0000002400120000
#05318:00121212
#0531c:0000000000120000
#0531a:24
#05314:00000024000000000000000024000000
#05418:0012000000122400
#05414:00120000
#05417:12
#0541c:0000120000000012
#05416:00000024000000001200000012000000
#05412:0000002400120000
#0541a:2424
#05518:120000000000000000000000000000000000000000160000360036003600360036003600260000000000000000000000
#05512:2500000012000000000000000000160000000016000000002600000000000000
#0551c:00120000
#05516:0000001200000014
#05517:0025000000000000
#05514:00250000
#05519:0000002500000000
#05616:00001418001400001800000000000000
#05612:1800001800001800
#05615:0000000000130013
#05618:0000000000130013
#06416:00000000141400000000141400000000
#06412:2600002c00002800
#0641a:00000024
#06418:26
#06616:00000000141400000000141400000000
#06619:00000025
#06612:2600002c00002500
#06618:26
#06512:24001626
#06518:00000000000000002600140016000014
#06514:00000000000000000000001400001400
#06516:14
#05719:00000015000000001400000014000000
#05712:1600001514001400
#05718:16
#0571c:0000000000120012
#05717:0000000000140014
#05812:00001c0026132400
#05815:00000000000000260000140000000000
#05817:0000000000000014
#0581b:0000000000000013
#05818:2600002600000000
#0581a:0024
#05913:00130000000013000000000000000000
#05917:00001300000000130000000000000000
#0591b:00000013000000000000000000000000
#0591a:00000000000000001400001300000000
#05919:00000000001300000000000000000000
#05915:00130000
#05912:00000000000000002613000000001300
#05916:00000000000000000000130000000013
#05914:00000013
#05918:26000000000000000000000000130000
#05910:41
#02016:00000012
#02012:12
#02014:0000001200000000
#0201c:1212000000000000
#02018:0000000012120000
#02818:16
#0281b:00000000000000001313000000131300
#02816:00000000000000001313000000001300
#02812:26000000000012000000001300000000
#0281c:0012000000000000
#02819:00120000
#02815:00120000
#02912:16001200000000001313000000130000
#02915:0000120000000013
#0291c:0000001200000000
#02919:00120000
#02917:00000000000000001313000000000000
#0291b:00000000000000000000001300000000
#02918:26000000000000000000000000000013
#03114:00000000000000001613000000000000
#03119:00000000000000000000000000130000
#03116:0014001400000016
#03112:2c000000120000000000001300000000
#03117:00000000000000000013000000000000
#0311c:00120000
#03216:00001400000014001613000000000000
#03219:00000000000000000013000000000000
#03214:00000000000000000000000000131600
#0321b:00000000000000000000001300000000
#0321c:00120000
#03212:2c120000
#03314:00000000000000001613000000000000
#03312:2c000000120000000000001300000000
#03317:00000000000000000013000000000000
#03316:0014001400000016
#0331c:00120000
#03319:00000000000000000000000000130000
#06719:15151515
#06712:15151515
#06812:15151500
#06819:15151500
#0141c:12
#01412:0012
#0151c:12
#01516:12
#01718:12
#01712:12
#0181c:12
#01816:12
#0111c:12
#00517:0000000000000000000000000000000000000022000000000000000000000000
#00717:00000022000000000000000000000000
#00817:0000000000000000000000000000000000000000000000000022000000000000
#02752:16000000000000000063000000000000
#0275b:00000000000000000000006300000000
#03052:5959
#03055:00590000
#03152:4c000000000000000000005300000000
#03157:00000000000000000053000000000000
#03452:39233900
#0345b:2323
#03458:0000004300000000
#03552:36
#0355a:5444
#03555:00240000
#03556:00000053
#03757:6300000000000000000000230000000000000000000000000000000000000000
#03759:00630000
#0375b:0000000000230000000000000000000043000000000000000000000000000000
#03756:00000053
#03657:0023000000000000
#0365b:5300000000230000
#03656:0000000000000023
#03652:0000002300005300
#03655:00530000
#03658:0053
#04852:0038
#04856:48
#04952:0035
#04959:00000045
#04956:48
#0455c:52
#04556:00525252
#04552:0000000000220000
#05052:3636
#05058:4646
#0505b:0000000000530053
#05057:00000023
#05154:0018
#04657:52
#04652:00520000
#04658:00006262
#0465c:0000000000220000
#04752:5254
#0475a:0054
#04754:0000000000230000
#04759:0000000000230000
#04756:00000022000000000000000000000000
#06359:0000000000005524
#06353:0000000000000024
#06352:00000055
#06052:37000038
#06056:0000004800000000
#06252:4c00003c00000000
#06256:00000048
#06152:0000181c
#01958:16
#01956:52
#02256:0063
#02258:52
#02252:00000013
#0385b:5353
#03852:00630063
#03856:0000000000000023
#03857:00000013
#0395b:0000004300000000
#03952:0000005300000000
#0405b:0000006300000000
#04052:0000003300000000
#04156:5323
#04154:0000005300000000
#04152:00230000
#0415a:14
#04252:3500000034000034
#04259:00450000
#0425a:00000000000000000000004400000000
#05352:62
#05358:00626262
#0535c:0000000000220000
#05457:62
#0545c:00620000
#05456:00005252
#05452:0000000000220000
#05552:0000000000000000000000000000360000000026000000000000000000000000
#05558:00000000000000560000000046000000
#05656:0048
#05652:38000038
#06659:00000065
#06652:3600001c00005500
#06658:46
#06452:3600001c00001800
#0645a:00000054
#06458:46
#06552:2436
#06558:00000046
#06556:24
#05759:00000045000000004400000044000000
#05752:3600003554005400
#05758:46
#05757:0000000000240024
#05259:15
#05857:0000000000000024
#05855:0000000000240000
#05852:34003654
#0585a:00005444
#05858:46
#02052:22
#02056:00000022
#02054:0000005200000000
#02156:0052
#0215c:52
#02152:36
#02858:16
#0285b:00000000000000000053000000000000
#02852:00000000000000000000005300000000
#02952:16000000000000000063000000000000
#0295b:00000000000000000000006300000000
#0325b:00000000000000000000006300000000
#03256:00000000000000000063000000000000
#03252:3c
#03352:4c000000000000000000005300000000
#03357:00000000000000000053000000000000
#04355:0000000000000016
#0155c:52
#01556:52
#01452:0052
#0145c:52
#0185c:52
#01856:52
#01758:52
#01752:52
#06752:55655565
#06759:65556555
#06852:55655500
#06859:65556500
#02357:13
#04452:14
#011370:12
#014320:22
#0143c1:12
#014381:0022
#014320:0012
#015360:32
#017320:32
#018360:32
#018320:0022
#0153c1:12
#017381:32
#0183c1:32
#018381:0022
#019361:12
#020321:52
#020341:0000005200000000
#020361:00000052
#021321:26
#0193a0:0000122200000000
#0193a0:0000000000001222
#0203a0:0000122200000000
#0203a0:0000000000001222
#0213c0:12
#021380:0022
#021361:0012
#022321:22
#022380:12
#0223c0:0000002200000000
#022360:0013
#022320:00000023
#0223b1:00000013
#023371:23
#023321:00120000
#023361:0000002200000000
#0233c1:00000012
#023381:0000000000000022
#024381:00120000
#0243c1:0000002200000000
#024361:00000012
#024321:0000000000000022
#0253c1:00120000
#025381:0000002200000000
#025321:00000012
#025361:0000000000000022
#027321:00000000000000000013000000000000
#027361:00000000000000000000002300000000
#0273b0:00000000000000000000001300000000
#027370:00000000000000000000000000230000
#0283b0:00000000000000000013000000000000
#028370:00000000000000000000002300000000
#028321:00000000000000000000001300000000
#028361:00000000000000000000000000230000
#029321:00000000000000000013000000000000
#029361:00000000000000000000002300000000
#0293b0:00000000000000000000001300000000
#029370:00000000000000000000000000230000
#030320:19230000
#030351:00190000
#0303b1:0023
#030320:00000000000000001933330023000000
#031370:00000000000000000013000000000000
#0313b0:00000000000000000000002300000000
#031321:00000000000000000000001300000000
#031361:00000000000000000000000000230000
#032361:00000000000000000013000000000000
#032321:00000000000000000000002300000000
#0323b0:00000000000000000000001300000000
#032370:00000000000000000000000000230000
#033370:00000000000000000013000000000000
#0333b0:00000000000000000000002300000000
#033321:00000000000000000000001300000000
#033361:00000000000000000000000000230000
#0343b1:13
#034351:00290000
#034320:00132900
#0343b1:0000000013330000
#034351:00000029
#0353a1:1424
#035351:00540000
#035320:0000122200000000
#035361:00000013
#036321:23
#0363b0:13230000
#036370:0053000000000000
#036351:00132300
#036321:0000005300000000
#036380:00001323
#0363b0:0000000000530000
#036321:00000013
#036361:0000000000000053
#037321:23
#037370:1300000000000000000000530000000000000000000000000000000000000000
#0373b0:0000000000530000000000000000000023000000000000000000000000000000
#037390:00530000
#037321:0000122200000000
#037360:00000013
#038320:23
#0383b1:13
#038371:00230000
#038320:00130000
#038360:0023
#0383b1:0013
#038371:00000023
#038320:00000013
#038360:0000000000000053
#039320:23
#0393b0:0013002300000000
#039370:00330000
#039321:0000001300000000
#039361:0000000000230000
#039361:00000013
#039321:0000000000000023
#040321:0013002300000000
#040361:00330000
#0403b0:0000001300000000
#040370:0000000000230000
#040370:00000013
#0403b0:0000000000000023
#041360:1353
#041320:00530023
#041340:0000005300000000
#0413c1:0000122200000000
#0433b0:00001323000000000000000000000000
#043321:00000013230000000000000000000000
#043380:00000000132300000000000000000000
#043351:00000000001323000000000000000000
#0433b0:00000000000013230000000000000000
#043321:00000000000000132300000000000000
#0433b0:00000000000000001323000000000000
#043361:00000000000000000013230000000000
#043390:00000000000000000000132300000000
#043341:00000000000000000000001323000000
#043370:00000000000000000000000013230000
#043321:00000000000000000000000000132300
#0443c1:12
#044381:0022000000000000
#044321:00120000
#044361:0000002200000000
#044381:0012
#0443c1:0000000000220000
#044361:00000012
#044321:0000000000000022
#0453c1:12
#045381:0022000000000000
#045361:00120000
#045321:0000002200000000
#045361:00001232
#045321:0000000000520022
#046371:12
#0463b1:0022000000000000
#046321:00120000
#046361:0000002200000000
#046381:00001232
#0463c1:0000000000520022
#047321:1200002200000000
#047361:00000052000000000000000000000000
#0473a1:00001424
#047341:00000000000000000033333300000000
#047320:00001424
#047390:00000000000000000033333300000000
#048320:14
#048360:0024000000000000
#0483a0:0014
#048360:0000000000240000
#049320:1424000000000000
#0503b0:0000000000130033
#050370:00000033
#051370:23
#052320:12
#052360:0022000000000000
#0523c0:00120000
#052380:0000002200000000
#052360:0012
#052320:0000000000220000
#052380:00000012
#0523c0:0000000000000022
#053320:12
#053360:0022000000000000
#053380:00120000
#0533c0:0000002200000000
#053380:00001232
#0533c0:0000000000520022
#054370:12
#054330:0022000000000000
#0543c0:00120000
#054380:0000002200000000
#054360:00001232
#054320:0000000000520022
#055380:000000000000000000000000000000000000000000160000360036003600360036003600260000000000000000000000
#055320:0000000000000000000000000000000000000056000000000000000000000000
#0563a0:1424000000000000
#057360:00001323000000000000000000000000
#057370:00000000001323000000000000000000
#057320:00001434
#057370:0000000000540054
#058320:24
#0583a0:00001424
#058350:0000000000540000
#058321:00000014
#058371:0000000000000054
#059321:24
#0603a1:0000000000000000000000000000000000000000000000001454545454545454
#0603b1:00000000000000000000000000000000000000000000000000000000000000000000000000000000000000000000000000520052005200520052005200520052
#0613a1:5454545454545454545454545454545424000000000000000000000000000000
#0613b1:00520052005200520052005200520052005200520052005200520052005200520000000000000000000000000000000000000000000000000000000000000000
#060320:00000000000000000000000000001333
#061360:23
#061360:00000000133300000000000000000000
#061320:0000002300000000
#062321:0000000000000000000000000000000000000000000000001454545454545454
#062331:00000000000000000000000000000000000000000000000000000000000000000000000000000000000000000000000000520052005200520052005200520052
#063321:5454545454545454545454545454545424000000000000000000000000000000
#063331:00520052005200520052005200520052005200520052005200520052005200520000000000000000000000000000000000000000000000000000000000000000
#0623b0:00000000000000000000000000001333
#063370:23
#063370:00000000133300000000000000000000
#0633b0:0000002300000000
#063391:00000015
#063331:000000000000000000000000000000000000003434343434
#064381:26
#063320:00000015
#063390:000000000000000000000000000000000000003434343434
#064320:26
#0643a0:00000014
#065360:54
#0653a0:00240000
#065321:14
#065361:00240000
#066391:00000015
#067321:5555
#067391:00550055
#068321:5555
#068391:00550025
#066320:00000015
#067390:5555
#067320:00550055
#068390:5555
#068320:00550025
