This file was generated by Ched 2.7.0.0.
#TITLE ""
#ARTIST ""
#DESIGNER ""
#DIFFICULTY 0
#PLAYLEVEL
#SONGID ""
#WAVE ""
#WAVEOFFSET 0
#JACKET ""
#REQUEST "ticks_per_beat 480"
#00002: 4
#BPM01: 147
#00008: 01
#TIL00: ""
#HISPEED 00
#MEASUREHS 00
#01919:1414
#02113:1414
#02110:41
#02213:1414
#02314:00140014
#0231a:2424
#0271a:14
#02714:14
#02710:0041
#02812:14
#02818:14
#0291a:14
#02914:14
#03214:14
#0321a:14
#03312:14
#03318:14
#03618:1414
#03612:00140014
#0391a:1434340000340000
#03918:0000001400000000
#04414:00140000
#0441a:0014
#04412:00000014
#04418:24
#0441f:21
#04518:1414
#04514:00140014
#04510:41
#0461a:14
#04612:00140000
#04618:0014
#04614:00000014
#04912:0014
#04914:14
#04918:00000014
#0491a:00140000
#05014:14000014
#0501a:0014
#0621a:14
#06218:0014
#06214:00140000
#06212:00000014
#0631a:14
#06318:0014
#06314:00140000
#06312:00000014
#01114:0014
#01113:14
#01213:14
#01212:0014
#01313:14
#01314:0014
#02019:1414
#03118:14
#03112:14
#0351a:14
#03512:00000014
#0351f:11
#03718:14
#03714:00000014
#0381a:1414
#03814:00140014
#04214:14
#04212:0000001400000000
#0431a:14
#04312:14
#05812:0014
#05818:24000014
#05912:14
#05914:00140000
#05910:41
#06012:14
#06014:0000000000000014
#0601a:0000000000000014
#06018:24
#01518:0014
#01519:14
#01619:14
#0161a:0014
#01719:14
#01718:0014
#01419:0014
#01813:0014
#02412:00140014
#02418:2424
#02514:00140014
#0251a:2424
#04012:1434340000340000
#04014:0000001400000000
#04118:14
#0411a:0000001400000000
#05218:00140000
#05212:0014
#0521a:00000014
#05214:24
#05210:41
#05314:1414
#05318:00140014
#05412:14
#05414:0014
#05418:00000014
#0541a:00140000
#0511a:14
#05118:00140000
#06512:0016
#06518:00000016
#03012:14
#03018:14
#03414:14
#0341a:14
#03410:41
#06613:0000000000000016
#06612:2600002600002600
#06714:1616
#06713:0016001600160016
#06712:00160016
#06814:1616
#06813:0016001600000000
#06812:00160000
#00518:000000000000002400000000
#00714:002400000000
#00818:00000024
#05514:24
#05718:24
#05712:00240000
#0571a:0024
#05714:00000024
#05612:0024
#05618:24
#06418:2600002600002600
#02618:24
#01154:0024
#01153:54
#01252:0024
#01253:64
#01354:0024
#01353:54
#04254:64
#04252:0000002400000000
#04558:1414
#05054:14
#05952:5414
#05954:00240000
#06052:64
#06054:0000000000000024
#0605a:0000000000000024
#06058:54
#01558:0024
#01559:64
#01659:54
#0165a:0024
#01759:64
#01758:0024
#03958:0000002400000000
#0395a:54
#04052:64
#04054:0000002400000000
#04158:54
#0415a:0000002400000000
#0475a:0014
#05354:1414
#05552:0014
#05858:14
#0515a:6414
#05158:00240000
#06552:0016
#06558:00000016
#03052:54
#03058:54
#03454:64
#0345a:64
#0355a:24
#03758:24
#06754:2626
#06753:0056006600560066
#06752:00260026
#06653:0000000000000066
#06652:00000026
#06854:2626
#06853:0056006600000000
#06852:00260000
#011330:14
#011340:0054
#012330:34
#012320:0054
#013330:34
#013340:0054
#014330:24
#015390:14
#015380:0054
#016390:34
#0163a0:0054
#017390:34
#017380:0054
#018390:24
#026380:1424
#030380:14
#0303a0:0024
#030321:14
#030341:0024
#034341:14
#034321:0024
#0343a0:14
#034380:0024
#0353a0:14
#035380:0024
#037380:14
#0373a0:0024
#0393a0:1434340000342400
#039380:0000003400000000
#040320:1434340000342400
#040340:0000003400000000
#041380:14000024
#0413a0:0000005400000000
#042340:14000024
#042320:0000005400000000
#047380:14
#0473a0:0000543424000000
#048340:14
#048320:00240000
#0483a0:0014
#048380:00000024
#0513a0:1424
#051380:00540000
#055340:14
#055320:00342400
#056380:14
#0563a0:00240000
#056320:0014
#056340:00000024
#059320:1424
#059340:00540000
#060380:14
#0603a0:0000000000000054
#061380:00000024
#060321:14
#060341:0000000000000054
#061321:00000024
#064381:00000016
#065381:00260000
#066321:00000016
#066331:0000000000000056
#067341:5656
#067331:0056005600560056
#067321:00560056
#068341:5656
#068331:0056005600260000
#068321:00560000
