This file was generated by Ched 2.7.0.0.
#TITLE ""
#ARTIST ""
#DESIGNER ""
#DIFFICULTY 0
#PLAYLEVEL
#SONGID ""
#WAVE ""
#WAVEOFFSET 0
#JACKET ""
#REQUEST "ticks_per_beat 480"
#00002: 4
#BPM01: 132
#00008: 01
#TIL00: ""
#HISPEED 00
#MEASUREHS 00
#00019:14
#00213:14
#0041a:14
#0051a:14
#00614:14
#00610:41
#00714:14
#00818:14
#00918:14
#01012:14
#01112:14
#0121a:14
#03118:1616
#03110:41
#01312:14
#01418:14
#01410:41
#01514:14
#03012:0016
#03018:26
#0301f:21
#03218:0016
#03212:16
#04812:16
#04818:0016
#04810:41
#0501a:14
#05014:0014
#03312:1616
#03818:16
#03812:0016
#04018:0016
#04012:16
#04010:41
#0511a:14
#05114:0014
#05218:14
#05212:0014
#05318:14
#05312:0014
#0161a:14
#01712:14
#01818:14
#01914:14
#02813:14
#02819:14
#02912:14
#0291a:14
#04318:0016
#04512:0016
#05418:16
#05512:16
#05618:1616
#03518:0016
#03712:0016
#0241f:11
#02210:41
#0203a0:14
#0213a0:24
#022340:14
#023340:24
#024380:14
#025380:24
#026320:14
#027320:24
#034380:1636
#035380:26
#036320:1636
#037320:26
#039380:1626
#041320:1626
#042380:1636
#043380:26
#044320:1636
#045320:26
#046380:16
#047380:26
#049320:1626
#057380:1600000036000026
