This file was generated by Ched 2.7.0.0.
#TITLE ""
#ARTIST ""
#DESIGNER ""
#DIFFICULTY 0
#PLAYLEVEL
#SONGID ""
#WAVE ""
#WAVEOFFSET 0
#JACKET ""
#REQUEST "ticks_per_beat 480"
#00002: 4
#BPM01: 132
#00008: 01
#TIL00: ""
#HISPEED 00
#MEASUREHS 00
#00016:22140014
#00014:0000002200140000
#0001a:14
#00018:0000001400000000
#00012:00000022
#00112:0012
#00114:0000000000120000
#00116:00000012
#0011a:00000000000000000000323232000000
#01215:00130000
#01218:0000001300000000
#0121b:23131313
#01212:23
#01312:0000001300130000
#01315:00131313
#01318:0013000000000013
#0131b:13131313
#01512:13131313
#01512:0013
#0151b:0000002300230013
#01518:00231323
#01515:0023000000000023
#01612:13131300
#01617:00000013000000000000000000000000
#01615:00000023
#01712:00000013
#0171b:00000013
#01715:0000000000120000
#01719:0000000000120000
#01717:0012
#01718:0023000000000000
#01812:13001313
#0181b:00131300
#01819:0000000000000013
#01814:0000000000000013
#01817:00000013
#01815:0000001600000000
#0191a:14000024
#01912:00142417
#01917:00131700
#01916:13
#0211b:0000001313000000
#02112:0000001313000017
#02115:13
#02118:13
#02217:2200001722000000
#02215:0000000000000016
#02212:22
#0221c:0022
#02210:41
#02512:0013000013000000
#0251b:0013000013000000
#02514:0000001300001300
#02518:13000013
#02519:0000001300000000
#02515:13
#0281a:14000000000000002400002400002400
#02812:14000000130000000000002300000000
#02815:0000001323000023
#02818:00000000130000130000000000000000
#03015:1414
#03017:00140000
#03018:00000000000000000000001300001300
#03012:0000240000001313
#0301a:2424
#0301f:21
#03115:0000001300001300
#03112:0013000000000000
#03118:0016
#0311b:0000000000000013
#03110:41
#03217:1414
#03215:00000000140000000000001300001300
#0321b:0000000000001313
#03212:2424
#0321a:00240000
#03318:0000001300000000
#0331b:0013000000000013
#03312:0016
#0351b:0000130000000013
#03512:00130000
#03515:0000001300000013
#03518:0000001300000000
#03612:16000013000000000000000000000000
#03618:0000000016000013
#03615:0000001300000000
#0361b:00000000000000000000001300000000
#03718:0000001326002600
#03715:00000000000000130000000000000000
#03712:26260013
#03815:00000000240000000000001300001300
#0381b:0000000000001313
#03812:24
#03817:2424
#0391b:0000001300000000
#03918:0013000000000000
#03915:0016
#03916:0000000000000014
#03912:00000014
#0391a:00000014
#04418:16
#04414:00160024
#04416:0000000000000025
#04412:0000000000230000
#04514:00000012
#0451a:00000012
#04518:26000016000000000000000000000000
#04512:0000000016000000000000001500000000000000000000000000000000000014
#04513:00000000000000000000000000000014
#04519:0000001500000000
#04812:1400001300000000
#04817:0014000000000000
#04814:00140000
#04818:0000001300000000
#0481b:00000013
#04815:00000000000000000000000013000013
#0481a:14
#04810:41
#05412:230000001c0000001c00001600000000
#05418:0000000000161600
#0541b:23
#05512:2c001c001c161600
#05518:00000000000000000000001600000000
#01412:23131313
#01415:0000001300000000
#01418:00130000
#0141b:13
#01410:41
#02313:0013
#0231a:0013
#02315:26
#0241b:1313
#02414:0000001300001813
#02412:1313
#02419:0000001300000013
#0241f:11
#02912:1500000000000000001600160016001600160016001600160000000000000000
#02914:00000000141414141414141400000000
#02918:0000000000000000141614161416141614161416141614160000000000000000
#02919:15
#03419:13
#03414:13
#03412:00001313000000000000000000001300
#03416:0000001300002300
#0341b:0000001300002300
#03417:0000000000000023
#04018:00000000000000000000001300001300
#04012:0000000000001313
#0401a:24
#04017:00240000
#04015:2424
#04010:41
#04112:0000001300000000
#04115:0013000016000023
#04212:13001613
#04218:1300001600001300
#0421b:0013000000000013
#0421a:0012
#04215:0000000000000013
#04214:0000002200000000
#04613:14141414141414141414141414141414
#04614:0014000000140000001400000014000000140000001400000014000000140000
#04612:0000001400000014000000140000001400000014000000140000001400000014
#0461a:0014000000140000001400000014000000140000001400000014000000140000
#04619:24141414141414141414141414141414
#04618:0000001400000014000000140000001400000014000000140000001400000014
#04712:0014
#0471a:0014
#05716:0012
#05718:0000000012000026
#05712:1200000000000026
#0571c:12
#05312:13
#0531b:13
#05314:00130000
#05319:00130000
#05316:0014001400000000
#05315:00000013
#05318:00000013
#00316:00140000
#00313:001a000000000000
#00314:0000000000000000000000000018000000000000000000001800000000000000
#00315:0000000000000016
#00312:0000000000000000001c000000000000
#0431b:00000023000000001300000000000000
#04315:00000013
#04318:2300002300130000
#04312:1300000000000013
#04316:00000013000000000000000000000000
#02012:0000001300000000
#0201a:0000001200000000
#02014:0000000000000012
#0201b:0000000000000013
#02016:23
#02017:0023
#02618:0000130000130013
#02615:0013001300001300
#02612:2300000013000023
#0261b:0000002323000000
#02718:00000000130000000000002300000000
#02715:0013001300000000
#0271b:1300002323000023
#02712:23000000000000002400002400002400
#04912:00130000
#04915:1313
#0491b:1313
#04918:00130000
#00216:00140014
#00218:2200000000140000
#00212:14
#00214:0000001400000000
#0021c:00000022
#0021a:0000002200000000
#0501a:00001200000000000012000000001200
#05016:00000000000000000000001200000000
#05012:22000000000000000000000000120000
#05014:0012000000000000
#05018:22
#05112:0000121200000000
#05118:00000000001200001200000000001200
#05114:0012000000000000
#0511c:22000000000000000000001200000000
#05116:22
#05216:00000000001200001200000000001200
#0521c:0000121200000000
#0521a:0012000000000000
#05212:22000000000000000000001200000000
#05218:22
#00412:00130013
#00419:0012
#00417:00120012
#00414:0013
#0041c:0000002200000000
#00618:00130000
#00615:00000013
#0061c:2200002200000000
#00610:41
#01015:0000000000000013
#01016:00130000
#0101c:2200002200000000
#01018:0000000000220000
#00815:00000013
#0081c:0000002200220000
#00818:22
#01112:0013
#0111c:2200002200000000
#0051b:00130013
#00515:0012
#00517:00120012
#00519:0013
#00512:2200002200000000
#00715:00130000
#00718:00000013
#00712:2200002200000000
#00918:00000013
#00912:0000002200220000
#00916:22
#05612:2c2c262c
#05618:0026
#01952:00140017
#0195a:14
#01957:0017
#0215b:0013
#02152:0013
#02155:63
#02158:63
#02552:0023000013000000
#0255b:0023000013000000
#02558:63000053
#02555:53
#02852:14
#0285a:14
#03052:00140000
#0305a:1414
#03158:0016
#03352:0016
#03252:1414
#0325a:00140000
#03652:16
#03658:0016
#03752:16160000
#03758:00001616
#03955:0016
#03852:1414
#0385a:00140000
#03857:54
#03855:00540000
#01852:6313
#0185b:0013
#0175b:00430063
#01755:00120000
#0155b:0000000000000063
#01657:00000023000000000000000000000000
#01652:0000000000000033
#01659:0000000000000012
#02952:1500000000000000002600260026002600260026002600260000000000000000
#02954:00000000545454545454545400000000
#02958:0000000000000000642664266426642664266426642664260000000000000000
#02959:15
#03552:00533300
#0355b:00534300
#03558:0000002300000000
#03555:0000002300000000
#03456:0000005300000000
#03457:0000000000000063
#03452:0000000000000063
#0345b:0000005300000000
#04155:0000000016000063
#0425b:0053000000000000
#04258:2300005600000000
#0425a:0022
#04252:2326
#04254:0000005200000000
#04458:56
#04454:00260000
#04558:16000016000000000000000000000000
#04553:00000000000000000000000000000054
#04552:0000000000000000000000005500000000000000000000000000000000000024
#04559:0000005500000000
#04653:54545454545454545454545454545454
#04654:0024000000240000002400000024000000240000002400000024000000240000
#04652:0000002400000024000000240000002400000024000000240000002400000024
#0465a:0024000000240000002400000024000000240000002400000024000000240000
#04659:64646464646464646464646464646464
#04658:0000002400000024000000240000002400000024000000240000002400000024
#04759:14
#04753:14
#04752:0014
#0475a:0014
#04852:0000005300000000
#04858:0000005300000000
#05756:0052
#05758:0000000052000016
#05752:5200000000000016
#0575c:52
#05352:13
#0535b:13
#05358:00000053
#05355:00000053
#00356:00240000
#00353:005a000000000000
#00354:0000000000000000000000000058000000000000000000005800000000000000
#00352:0000000000000000002c000000000000
#00355:0000000000000026
#04352:5300000000000023
#04358:0000000000230000
#04355:00000063
#0435b:0063
#04356:00000023000000000000000000000000
#05458:00000046
#05452:13
#0545b:13
#05552:3c000036
#05652:4c16
#05658:0016
#04955:5363
#04952:00000000630000000000001300000000
#0495b:1313
#04958:00130000
#02357:0000001200000000
#02353:0013
#0235a:0013
#0065b:00000013
#00752:00000013
#0275b:13
#02652:0013
#0265b:13
#00855:00000013
#00958:00000013
#0145b:13
#02452:5313
#0245b:5313
#0405a:1414
#04057:00640000
#04055:64
#04052:00140000
#00452:1c
#01252:13
#0013c0:0012
#0013a0:00000000000000000000323232000000
#001380:0000000000000022
#003330:001a000000000000
#003360:00540000
#003340:0000000000000000000000000058000000000000000000005800000000000000
#003320:0000000000000000005c000000000000
#003350:0000000000000056
#004320:2c
#006350:00122200
#006371:0013
#0063b1:00000023
#007391:00122200
#007360:0013
#007320:00000023
#008380:12
#0083a0:0032000000000000
#0083c0:00220000
#008321:0000132300000000
#008351:0000000013230000
#009361:12
#009341:0032000000000000
#009321:00220000
#0093b0:0000132300000000
#009380:0000000013230000
#010360:0013
#010320:00000023
#010381:0000000000120000
#0103a1:00000032
#0103c1:0000000000000022
#011321:13
#011361:00230000
#011371:0013
#0113b1:00000023
#011360:00000013
#012320:23
#012350:0013
#012320:00000023
#012350:0000000000000013
#013320:0023000000000000
#014380:0013
#0143b0:00000023
#014380:0000000000000013
#0153b0:0023000000000000
#0153b0:0000000000000013
#016370:00000053000000000000000000000000
#0163b0:0023
#016350:00000013
#016320:0000000000000023
#016391:0000000000001222
#017381:0013000000000000
#0173b1:00230000
#017350:0012220000000000
#0173b0:00000013
#018370:23
#018321:13
#018361:00230000
#020361:13
#020321:00230000
#0203a0:12220000
#020340:00001222
#020371:0013
#0203b1:00000023
#021351:13
#021321:00230000
#021380:13
#0213b0:00230000
#022370:12
#022390:00220000
#022321:12
#022341:00220000
#022371:0012
#022351:00000022
#0223c0:0012
#0223a0:00000022
#023350:16
#023370:005200530053005300530053005300530053005300530053005300530053005300530052220000000000000000000000000000000000000000000000000000000000000000000000000000000000000000000000000000000000000000000000
#023360:005353535353535353535353535353535353000000000000000000000000000000000000000000000000000000000000
#024320:13
#024350:00230000
#0243b1:13
#024381:00230000
#025351:13230000
#025321:0053000000000000
#025380:13230000
#0253b0:0053000000000000
#025380:00000013
#0263b0:23
#029340:00000000143434343434343424000000
#029320:0000000000000000003600360036003600360036003600360000000000000000
#029381:0000000000000000143634363436343634363436343634362400000000000000
#031381:1323000000000000
#0313b1:00000013000023000000000000000000
#033351:1323000000000000
#033321:00000013000023000000000000000000
#034371:00000013000000000000230000000000
#0343b1:0000003300000000
#034360:0000001300000000
#034320:0000000000230000
#034360:00000013
#034320:0000000000000033
#035360:0023000000000000
#034371:0000000000000013
#0353b1:0023000000000000
#0353b1:00132300
#035381:0000005300000000
#035320:00132300
#035350:0000005300000000
#0363b0:1300002300000000
#036370:00000033000000000000000000000000
#036320:0000000013000023
#036360:00000000000000000000003300000000
#0373b0:13230000
#038370:14
#0383a0:00240000
#038351:00140000
#038321:0024
#039351:13
#039321:0023000000000000
#039321:00000013000000000000000000000000
#039351:0000002300000000
#040351:14
#040321:00240000
#040370:00140000
#0403a0:0024
#041380:13
#0413b0:0023000000000000
#0413b0:00000013000000000000000000000000
#041380:0000002300000000
#041350:0000000000000013
#042320:33
#042350:0023000000000000
#042381:13230000
#0423b1:0033000000000000
#042381:0000001600260000
#0423a1:0052
#042340:0000001200220000
#042320:0056
#043320:1300002300000000
#043360:00000053000000000000000000000000
#0433b0:00001323
#043380:0000000000530000
#043351:00000013
#043321:0000000000000053
#044351:23
#044380:1626
#044340:00560000
#045320:0000001500000000
#045340:0000000000220000
#045391:0000001500000000
#0453a1:0000000000220000
#045331:00000000000000000000000000000014
#045321:0000000000000000000000000000000000000000000000000000000000000054
#046331:54545454545454545454545454545454
#046341:0054000000540000005400000054000000540000005400000054000000540000
#046321:0000005400000054000000540000005400000054000000540000005400000054
#047331:24
#046390:14545454545454545454545454545454
#0463a0:0054000000540000005400000054000000540000005400000054000000540000
#046380:0000005400000054000000540000005400000054000000540000005400000054
#047390:24
#048380:0000001300000000
#0483b0:0000000000230000
#048321:0000001300000000
#048351:0000000000230000
#049351:1333
#049321:00000000330000000000002300000000
#050361:00000000120000220000000000000000
#0503c0:00000000120000220000000000000000
#051320:0000000012000022
#051360:00000000000000000000003200000000
#0523c0:0000000012000022
#052380:00000000000000000000003200000000
#053340:0013
#053350:00000033
#054320:23
#053391:0013
#053381:00000033
#0543b1:23
#057321:1200000000000026
#057361:0032
#0573c0:12
#057380:0000000032000026
