This file was generated by Ched 2.7.0.0.
#TITLE ""
#ARTIST ""
#DESIGNER ""
#DIFFICULTY 0
#PLAYLEVEL
#SONGID ""
#WAVE ""
#WAVEOFFSET 0
#JACKET ""
#REQUEST "ticks_per_beat 480"
#00002: 4
#BPM01: 132
#00008: 01
#TIL00: ""
#HISPEED 00
#MEASUREHS 00
#0001b:13130000
#00018:0000000000130000
#00012:23000023
#00015:0000002300000000
#01219:00130000
#01214:0000001300000000
#0121b:23
#01212:23
#01315:0000001300001300
#01318:0000130000000013
#01812:1313
#0181b:1313
#01814:0000000000000014
#01918:14
#01914:00140000
#01917:0017
#01912:00000017
#02112:0000130000000013
#0211b:00130000
#02118:0000001300000013
#02115:0000001300000000
#02218:2300000000000016
#0221b:0000001323000000
#02215:0000001323000000
#02212:23
#02210:41
#02819:1500000000000025
#02812:15000000000000002300002400002500
#0281b:0023
#0281a:00000000000000000000002400000000
#03015:00000000000000000000001300000000
#03018:26002613
#03012:0000260000000013
#0301f:21
#03318:0013000000000013
#03315:00000013000000000000000000000000
#03312:1300003300000000
#0361a:0000000000000014
#03615:0000001300000000
#03714:0000001414000000
#03718:00000000000000140000000000000000
#0371a:00000014
#03716:0000000000000014
#04513:00001400000014000000000014000014
#04519:00000014000014000000000014000000
#04512:0016
#04518:0016
#0451a:24
#04812:13
#04815:0013000000000000
#04818:00130000
#0481b:0000001300000000
#04814:00000000000000000000000013000013
#04810:41
#05418:0000160000141400
#05412:2616
#05414:00000000000000000000001400000000
#05512:00160000
#05518:26000000000000001600001400000000
#05514:0000000000141400
#0151b:0000000000130013
#01515:00130013
#01518:0000001300000000
#01617:00000013000000000000000000000000
#01618:0000000000001313
#01612:0000000000001313
#03418:13000013000000000000000000000000
#03415:0013000000000000
#0341b:0000001300002300
#03412:0000001300002300
#03419:0000000000000023
#03414:0000000000000023
#03512:0013130000000000
#0351b:0013130000000000
#03515:0000001300000000
#03518:0000001300000013
#04618:15151515151515151515151515151515
#04619:0015000000150000001500000015000000150000001500000015000000150000
#04617:0000001500000015000000150000001500000015000000150000001500000015
#05715:1616161616000000
#05713:001a001a001a001a0000000000000000
#05712:000000000000002c
#00315:0016000000000000
#00317:00000000001200000000000000000000
#00316:0014
#02912:150000000000001c001c001c001c001c001c000000000000
#02919:15
#02914:000000181818181818000000
#00412:00130013
#0041b:00131313
#00415:0013
#01018:0000000000000013
#02615:0000001300000000
#02618:0000000013000013
#02612:0013
#02715:13
#02712:0000001300000025
#0271b:1300001300000000
#02719:00000000000000002300002400002500
#02713:00000000000000000000002400000000
#02714:0023
#02415:0000000000000013
#02418:13
#0241b:0013000000000000
#02417:0000001300000000
#02419:00130000
#0241f:11
#05312:0016
#05318:00160000
#05316:00000016
#00212:13130000
#00215:0000000000130000
#0021b:23000023
#00218:0000002300000000
#0051b:00130013
#00512:00131313
#00518:0013
#01112:0000001300000000
#01712:00000013
#0171b:0013130000001300
#01715:0013130000000000
#02016:00000000000000000000001300000000
#02017:00000013000000000000000000000000
#0201b:13
#02012:0013
#03118:00000013000000000000000000001300
#03115:0013000000001300
#0311b:1300003300000000
#03110:41
#0421a:00001414
#04212:0000002416141600
#04218:0013001600160000
#0421b:00130000
#04215:13
#01414:00130000
#01419:0000001300000000
#0141b:23
#01412:23
#01410:41
#03815:00000000260000000000001300000000
#03818:00002613
#03812:2600000000000013
#03918:00000013000000000000000000000000
#03915:0013000000000000
#0391b:1300001300000000
#03912:00000014
#03916:0000000000000014
#0441a:14
#04416:00140000
#04414:0000000000000024
#04418:00000024
#04412:0000000000240000
#05212:1313
#05215:00130013
#0521b:1313
#05218:00130013
#03218:00000000260000000000001300000000
#03215:00000013
#0321b:0000000000000013
#03212:2626
#04018:26000000000000000000001300000000
#04015:00260013
#0401b:0000000000000013
#04012:0026
#04010:41
#04118:0013000000000000
#04112:1300001300000013
#04115:00000013000000000000000000000000
#0431a:0000002414001400
#04317:0000000000140014
#04312:24
#04316:00000024000000000000000000000000
#04918:15151515151515151515151500000000
#04919:0015000000150000001500000015000000150000001500000000000000000000
#04917:0000001500000015000000150000001500000015000000150000000000000000
#0061b:00130000
#00612:0013
#00618:0013
#00615:00130013
#00610:41
#00712:00130000
#0071b:0013
#00715:0013
#00718:00130013
#02515:13
#02512:0013000000000000
#02516:0000001300000000
#02514:00130000
#00812:00131300
#00815:0000001300130000
#0091b:00131300
#00918:0000001300130000
#04713:0015
#05612:2424
#0561a:2424
#05619:00240024
#05613:00240024
#02312:26
#02313:0000003400000000
#00113:00000000000000000000333333000000
#00452:1c
#01954:00140000
#01958:14
#01957:0017
#01952:00000017
#02852:15
#02859:15
#03052:00160000
#03058:1616
#01852:63
#0185b:63
#0155b:0000000000000063
#01657:00000023000000000000000000000000
#01652:0000000000000013
#01658:0000000000000013
#03552:00533300
#0355b:00534300
#03558:0000002300000000
#03555:0000002300000000
#0345b:0000005300000000
#03452:0000005300000000
#04658:65656565656565656565656565656565
#04659:0025000000250000002500000025000000250000002500000025000000250000
#04657:0000002500000025000000250000002500000025000000250000002500000025
#04758:15
#04753:0015
#0485b:0000006300000000
#05755:5656565656000000
#05752:000000000000001c
#05753:002a002a002a002a0000000000000000
#00355:0066000000000000
#00357:00000000002200000000000000000000
#00356:0054
#0565a:1414
#05652:1414
#02952:150000000000002c002c002c002c002c002c000000000000
#02959:15
#02954:000000686868686868000000
#0455a:14
#04553:0000005400000000
#04559:0000005400000000
#04552:0026
#04558:0026
#05452:16
#05352:1356
#05356:00000026
#0535b:13
#02152:00633300
#0215b:00634300
#02155:0000002300000000
#02158:0000002300000000
#02052:0053
#0205b:53
#02056:00000000000000000000002300000000
#02057:00000023000000000000000000000000
#03158:00000063000000000000000000000000
#0315b:0013
#03858:0016
#03852:16
#03855:00160000
#0425a:00002424
#04252:0000005426642600
#04258:0000005600660000
#02458:63
#0245b:0023000000000000
#02457:0000002300000000
#02459:00630000
#0245a:0043
#01755:00130000
#0175b:00130000
#02353:0014
#02352:56
#03252:1616
#03258:00160000
#03958:00000053000000001300000000000000
#0395b:0000005300000000
#0445a:54
#04456:00240000
#05252:6363
#05255:00630063
#0525b:5353
#05258:00530053
#05558:16
#03355:00000053000000000000000000000000
#03352:0013
#04052:0016
#04058:16
#04055:00160000
#0435a:00005454
#04357:0000000000240024
#04155:00000063000000001300000000000000
#04152:0000006300000000
#04958:65656565656565656565656500000000
#04959:0025000000250000002500000025000000250000002500000000000000000000
#04957:0000002500000025000000250000002500000025000000250000000000000000
#02555:53
#02552:0023000000000000
#02556:0000002300000000
#02554:00530000
#02553:0033
#00852:00636313
#00855:0000002300230000
#0095b:00535313
#00958:0000002300230000
#00655:00000013
#00758:00000013
#001350:0013
#001330:00000000000000000000333333000000
#001320:0000000000000023
#003350:0016000000000000
#003370:00000000005200000000000000000000
#003360:0054
#004320:2c
#008320:00133323
#008350:0000005300530000
#0093b0:00133323
#009380:0000005300530000
#010320:00130023
#010360:0033
#0113b0:13
#011380:00230000
#011350:0013
#011320:00000023
#012370:0013
#0123b0:00000023
#012350:0000000000000013
#013350:0023000000000000
#014360:0013
#014320:00000023
#014380:0000000000000013
#015380:0023000000000000
#0153b0:0000000000000013
#016370:00000053000000000000000000000000
#0163b0:0023
#018320:13
#018350:0000002300000000
#0183b1:13
#018381:0000002300000000
#0203b1:1300002300000000
#020371:00000053000000000000000000000000
#020321:0000000013000023
#020361:00000000000000000000005300000000
#021321:13532300
#021351:0000003300000000
#0213b0:13532300
#021380:0000003300000000
#023320:16
#023330:0000003424000000
#024380:13
#0243b0:0053000000000000
#024390:00530000
#024370:0000003300000000
#0243a0:0023
#025350:13
#025320:0053000000000000
#025340:00530000
#025360:0000003300000000
#025330:0023
#025380:00000013
#0263b0:33
#026380:00230000
#029340:000000183838383838280000
#029320:000000000000003c003c003c003c003c003c000000000000
#031380:00000013000000000000000000000000
#0313b0:0000003323000000
#033350:00000013000000000000000000000000
#033320:0000003323000000
#0343b0:0000001300000000
#034380:0000000000230000
#034321:0000001300000000
#034351:0000000000230000
#0353b1:00132300
#035381:0000005300000000
#035320:00132300
#035350:0000005300000000
#036380:13
#0363b0:00000023000000000000000000000000
#036350:0013
#036320:00000000000000000000002300000000
#0373a0:14
#037360:00240000
#039380:00000013000000002300000000000000
#0393b0:0000003300000000
#041350:00000013000000002300000000000000
#041320:0000003300000000
#042380:0000001600360026
#0423a0:00005434
#042321:0000001456343624
#0433a1:00001434
#043371:0000000000540054
#0443a1:3424
#044361:00540000
#045331:0000001400240000
#045321:0056
#045390:0000001400240000
#045380:0056
#046380:15555555555555555555555555555555
#046390:0055000000550000005500000055000000550000005500000055000000550000
#046370:0000005500000055000000550000005500000055000000550000005500000055
#047380:25
#0483b0:0000001300000000
#048370:0000000000230000
#049380:15555555555555555555555525000000
#049390:0055000000550000005500000055000000550000005500000000000000000000
#049370:0000005500000055000000550000005500000055000000550000000000000000
#0503b0:13
#050380:00230000
#050351:13
#050321:00230000
#050321:0013
#050351:00000023
#050380:0013
#0503b0:00000023
#0513b0:13230000
#051361:13
#051321:00230000
#051321:00001323
#051370:0013
#0513b0:00000023
#052320:1333
#052350:00330033
#053320:23
#0523b1:1333
#052381:00330033
#0533b1:23
#053321:0016
#053361:00000036
#054321:26
#057351:1656565636000000
#057331:005a005a005a005a0000000000000000
#057321:000000000000002c
