This file was generated by Ched 2.7.0.0.
#TITLE ""
#ARTIST ""
#DESIGNER ""
#DIFFICULTY 0
#PLAYLEVEL
#SONGID ""
#WAVE ""
#WAVEOFFSET 0
#JACKET ""
#REQUEST "ticks_per_beat 480"
#00002: 4
#BPM01: 132
#00008: 01
#TIL00: ""
#HISPEED 00
#MEASUREHS 00
#01212:23130013
#01215:00000000000013000000001300000000
#0121b:23001313
#01218:00000000000000130000130000000000
#01219:00001300000000000000000000000013
#01214:0013000000000000
#01216:0000000000000012
#0131b:00130013
#01317:1200120012000013
#01319:00000000000000130000130000000000
#01314:00000013000000000000130000000000
#01318:0012000000000000
#01316:0000001200000000
#01312:1313
#01712:0000000000121800
#0171b:00000013
#01718:0000000000120000
#0171c:0000001200000000
#01714:0000000000000012
#01713:0012000000000000
#01716:0024001218000000
#01715:00000012000000000000000000000000
#01817:13
#0181b:0000000013000013
#01812:1232000000000000000000000000000013000000000000001300000000000000
#01815:0000000000003232000000001200000000000000160000000000000013000000
#01819:0000001200000000
#01818:00000013
#01814:0000000032320000000000000000000000000000000000000000000000000000
#01813:0000323200000000000000000000000000000000000000000000000000000000
#0191a:1400000000142400
#01912:0000140024001814
#01916:0014001418000000
#0211a:12121212121200001400000000000000
#02112:0016001600160016001600160000000014000000000000000000000018001400
#02113:00140014001400140014001400140014001400140014001400000000000000000000000000000000000000000000000000000000000000000000000000000000
#02114:12121212121200000000000000000000
#02119:00140014001400140014001400140014001400140014001400000000000000000000000000000000000000000000000000000000000000000000000000000000
#02118:0016001600160016001600160000000000000000120000000000000000000000
#02116:00000012
#0281a:14
#02812:14000000000000000013002800000000
#0281b:0000001300001300
#02816:00000000000000132800000000132800
#02814:00130000
#02819:00130000
#02817:0000000000130000
#03016:14141400
#03018:00000000000000000000001300001300
#03012:0000240000131313
#03017:0012001200000000
#0301a:2424
#0301f:21
#0311b:00000000000013000000130000000013
#03115:00001300001300001600000013000000
#03112:13000013000000000000130000001300
#03118:00000000000000000000000000130000
#03117:13000013000000000000000000000000
#03110:41
#03216:14141400
#03215:00000000000000000000001300001300
#0321b:0000000000131313
#03217:0012001200000000
#03212:2424
#0321a:00240000
#03315:0016
#0331b:13000013000000000000000000001300
#03314:00000013
#03319:00000013
#03312:0000001300130000
#03316:13000013000000000000000000001300
#03318:00001300001300000000000000000000
#03515:00000016
#03512:0000140000130016
#0351a:00140000
#03516:000000000000000000000000000000000000000000000000000000000000000000000000000000000000000000000000000000000000000000000000000000000000000000000000141400000000000000000000000000000000000000000000000000000000000000000000000000000000000000000000000000000000000000000000000000000000000000000000000000000000000000000000000000000000000000000000000000000000000000000000000000000000000000000000
#03514:0013000000000000
#03519:0000000013000000000000000000000000000000000000000000000000140014
#0351b:0000000000130000
#03518:00000000000000000000000000001616
#03618:00000000000016000000001300001616
#03612:00001300000016160000001300001600
#0361b:00000013000000000000130000000000
#03615:00000013000000000000000000000000
#03613:0000000000000000000000000014001400000000000000000000000000000000
#03619:0000000000000000000000000000000000000000000000000000000000140014
#03718:2600001300000016
#03714:00000000001300132a00000000000000
#03712:0000000000000000001400142c160016
#03716:00120012280000000000140000000000
#0371a:0012000000000000
#03815:00000000000000000000001300000000
#0381b:00000013
#03818:0000000000130013
#03812:2414240000001313
#0381a:0014001424000000
#03816:2400001400000000
#03915:13000000000000001300000000130013
#03912:00001318001813000000130013000000
#03918:0000000000130013
#0391b:00000013
#04412:1500000000260000
#04417:00130000
#04413:0000000000000013
#0441a:00000013
#04416:0000000000000026
#04414:00000026
#04514:0000000000121200
#0451a:0000000000121200
#04518:26000016000000000000000000000026
#04512:26000016000000000000000000000016
#04513:0000001400000000
#04519:0000001400000000
#04812:1400001300000000
#04815:0014000000000000
#04818:00130000140000000000000000000000
#04817:0000001300000000
#04814:00000000000000000000130000000013
#0481b:00000013000000000000000013000000
#04819:0000000000130000
#04816:00000013
#04810:41
#05419:00000000141400000000000000000000
#05416:00000000000000000000001418000000
#0541a:0000000000140000
#05412:2700000000000000000000000000000000160016000000000000000016000000
#05418:0000000000000000001600160000000000000000000000000000000000001600
#05413:00000000000014002414000000000000
#02912:16000000000000000000000000000000001600160016001600160016001600160016001600160016001600160016001600000000000000000000000000000000
#02916:0000000000000000001212121212121212121212121212120000000000000000
#02914:00140000
#02918:16000000000000000000000000000000141612161216121612161216121612161216121612161216121612161216121600000000000000000000000000000000
#03419:1300000000130000
#03414:1300000000130000
#03412:00001813000000000000000000001300
#03416:0000001300002300
#0341b:0000001300002300
#03417:0000000000000023
#04113:00000000000000000000000000001214
#04119:00000000000000000000000000000014
#04118:1313
#0411b:0013001300131322
#04112:00000013
#04116:00000018001800000000000000000000
#04115:0000000000130000
#0421a:00000000000022120000001200000000
#04212:0000000000000000000000000016000000000000000016000000000000000000
#04218:0000000000000000000000000000001600000000160000000000000000000000
#04216:0000000000000013
#0421b:0000000000000013
#04214:00002400000012120000220000000000
#04213:0000000000000000000000000000001400000000000000000000000000000000
#04219:0000000000000000000000000014000000000000000000000000000000000000
#04619:00001500000000000000150000000000000015000000000000001500000000000015000000150000001500000015000000150000001500000015000000150000
#04618:2500150015001500150015001500150015151515151515151515151515151515
#04617:00000000000015000000000000001500000000000000150000000000000015000000001500000015000000150000001500000015000000150000001500000015
#04613:1500150015001500150015001500150015151515151515151515151515151515
#04614:00001500000000000000150000000000000015000000000000001500000000000015000000150000001500000015000000150000001500000015000000150000
#04612:00000000000015000000000000001500000000000000150000000000000015000000001500000015000000150000001500000015000000150000001500000015
#04712:0013000014000000
#0471a:0014
#04715:00130000
#04716:00000014000000000000001400000000
#04714:0000001300000013
#04719:0000001300000013
#04718:00000013
#0471b:0000000000130000
#05312:13130000
#0531b:1300000013131313
#05315:0000000013131313
#05313:00000000000000000013000000130000
#05317:00000000120000000000001300000013
#05319:0012001200000000
#05314:0013001300000000
#04316:00000000001313000000000000000000
#04317:23000013000000001300000013000000
#04312:13000023000000001300000013000000
#0431b:0013002300000013
#0251a:14140014
#02512:00000000001600000015000000000000000000000000000000000000000000000000000000000000000000000000000014000000000000000000000000000000
#02716:14000000180000000014140014140000
#02712:24001800000014000000002400002400
#0271a:0000002424000024
#04916:14140000
#0491a:14000000000000001400001400000000
#04912:00000000140000001400001400000000
#0501a:00000000000000140000001400000000
#05018:00000000000000000012000000000000
#05015:00120000000000000000000000001200
#05019:00001200000000000000000000120000
#05012:23000000000000000014000000000000
#05016:00000000000000120000001200000000
#0501b:23
#00412:00130013
#0041a:0012
#00417:00000000000000000000000000000000120000000000000000000000000000000000000000000000000000000000000000140014001400140014001400140014
#00415:00000000000000131300000000000000
#00418:00000000000000000000120012121212
#00416:0000000000000000000000000000000000000000000000000016001600160016
#0041c:0000002200000000
#01016:0000130013000013
#01018:0013000000000000
#01012:13000013
#0101c:2200002200220000
#00812:13000013
#00818:22000000000000130000000013000000
#0081c:0000002200220000
#01112:13001313
#01117:00131300
#0111b:0000000000130000
#01116:0013000000000013
#01119:0013000000000000
#01115:0000001300000000
#0111c:2200002200000000
#0091b:13000013
#00915:00000000000000130000000013000000
#00912:0000002200220000
#00916:22
#0511b:23000000001200000000000000000000
#05114:0012000000000000
#05119:0012000000000000
#05117:0000121212000012
#0511c:00000000000000000000001200000000
#05112:00120000
#05116:23
#02612:2418001400001824
#0261a:0000002424000014
#02616:0000180014180000
#00112:0012
#00116:0000000000000012
#00017:2200001400000000
#00016:00000013
#00019:15
#00015:00170000
#00013:0000000000170000
#00014:0000002300000000
#00012:00000024
#00312:0016161616161616
#00316:00000012001200120012001200120012
#00318:00001612161216121612161216121612
#02216:2400001824000000
#02213:00000000000000000000000000001a15
#0221a:00000000000000142400000000000000
#02212:24
#02210:41
#02313:2512
#0231b:0012
#02316:00000012
#02318:2500000000120000
#0051b:00130013
#00514:0000000000000000000000000000000012000000000000000016001600160016
#00517:00120000
#00518:00000000000000131300000000000000
#00516:00000000000000000000120012121212
#00515:00000000000000000000000000000000000000000000000000000000000000000000000000000000000000000000000000140014001400140014001400140014
#00512:2200002200000000
#02018:0000000013000000000000001300000000160016001600160000000000001300
#02015:00000000000000130000130000001300
#0201b:23000000130000001313131300000000
#02012:1316131613161316000000000000000023000000000000001300000000000000
#02412:24000000000000000000000000000000140000000000000000000000000000000000000000000000000000000000000000000000000000000000000000000012
#02416:0000000000000014
#0241c:00000000000000000000000000000012000000000000000000000000000000000000000000000000000000000000000000000000000000000000000000000000
#02418:00000000000000000000000000000000000000000016000000000000000000000000000000000000000000000000000000000000000000000000000000000000
#02419:00000000000000000000000000000000000000000000000000150000000000000000000000000000000000000000000000000000000000000000000000000000
#0241f:11
#0161b:00000012
#01619:000000000000000000000000000000140000000000001400000000000000000000000000120000000000000000000000000000000000000000000000000000140000000000001400000000000000000000000000120000000000000000000000000000000000000000000000000000140000000000001400000000000000000000000000000000000000000000000000000000000000000000000000120000000000000000000000000000000000000000000000000000000000000000000000
#01613:000000140000000000001400000000000000000000000000000000000000160000000000000000000000000000000000000000140000000000001400000000000000000000000000000000000000160000000000000000000000000000000000000000140000000000001400000000000000000000000000000000000000000000000000000000000000000000000000000000000000000000000000000000000000000000000000000000000000000000000000000000000000000000000000
#01612:0016000000000000001600000000000000160000000000000000000000000000
#01618:000000000000000000000000000000000000160000000000000000000000000000000000000000140000000000001400000000000000000000000000000000000000160000000000000000000000000000000000000000140000000000001400000000000000000000000000000000000000160000000000000000000000000000000000000000000000000000000000000000000000000000000000000000000000000000000000000000000000000000000000000000000000000000000000
#01614:220000000000000000000000000000000000000000000000000000140000000000001400000000000000000000000000220000000000000000000000000000000000000000000000000000140000000000001400000000000000000000000000220000000000000000000000000000000000000000000000000000000000000000000000000000000000000000000000000000000000000000000000000000000000000000000000000000000000000000000000000000000000000000000000
#01615:0012001200000000
#01617:0000000000000016000000000000001600000000000000000000000000000000
#0161a:00220000002200000022000000000000
#01616:00000024
#04018:00000000000000000000001300000000
#04012:0014001424001300
#04015:0000000000130013
#0401b:0000000000001313
#0401a:2414240000000000
#04016:2400001400000000
#04010:41
#05518:0000000000000000000000000000000000160016000000000000000016000000
#05512:2c00000000000000001600160000000000000000140000001800000000001600
#05516:00000000000000000000001400000000
#05513:00000000141400000000000000000000
#05519:00000000000014002414000000000000
#05612:2c001c1c2c001c0026001c1c2c001c00
#05618:0026
#01414:000000001300000000000000000000000000000000130000000000000000000000000000000000000000000000000000000000000000000015000000000000001500000000000000000000000000000000000000000000000000000000000000000000001300000000000000000000000000000000130000000000000000000000000000000000000000000000000000000000000000000015000000000000001500000000000000000000000000000000000000000000000000000000000000
#01412:001515000000000000000000001515000000000000000000
#01413:00140000000000000014000000000000
#01417:220000001300000015000000140000001500000000130000000000000000000000000000000000000000000000000000120000000000000000000000000000000000000000000000000000000000000000000000000000000000000000000000220000001300000015000000140000001500000000130000000000000000000000000000000000000000000000000000120000000000000000000000000000000000000000000000000000000000000000000000000000000000000000000000
#01416:000000000000000000000000000000000000000000000000000000000000000000000000000000000000000000000000000000001300000000000000000000000000000000130000000000000000000000000000000000000000000000000000000000000000000000000000000000000000000000000000000000000000000000000000000000000000000000000000000000001300000000000000000000000000000000130000000000000000000000000000000000000000000000000000
#01415:22000000001400002200000000140000
#01419:000000000000000000000000000000000000000000000000000000000000000000000000000000000000000000000000120000001300000015000000140000001500000000130000000000000000000000000000000000000000000000000000000000000000000000000000000000000000000000000000000000000000000000000000000000000000000000000000120000001300000015000000140000001500000000130000000000000000000000000000000000000000000000000000
#01410:41
#0151a:1224000014000024
#01516:00001200240000140000000024000000
#01512:1400122400240000
#01514:0012
#01518:0000000000120000
#0151c:00000012
#0061c:22000000000022120000000000000000
#00612:00260000
#00615:0026
#00618:00000026
#00610:41
#00712:22000000000022120000000000000000
#05712:0016001600160016001600160016001600160000000000000000000000000000000000000000000000002c0000000000
#05713:001400140014001400140014001400140014001400140014001400140014001400140014000000000000000000000000000000000000000000000000000000000000000000000000000000000000000000000000000000000000000000000000
#05714:121212121212121212000000000000000000000000000000
#05718:001600160016001600160016001600160016000000000000000000000000000000000000000000000000000000000000
#05719:001400140014001400140014001400140014001400140014001400140014001400140014000000000000000000000000000000000000000000000000000000000000000000000000000000000000000000000000000000000000000000000000
#0571a:121212121212121212000000000000000000000000000000
#05716:0014
#05213:00000000001200000000000000000000
#0521a:0012000000000000
#05215:0012000000000000
#05217:2300121212000012
#05212:23000000000000000000001200000000
#0521c:00120000
#00215:0000001400000000
#00217:22000013
#00212:15
#00214:00170000
#00216:0000000000170000
#00219:0000002300000000
#0021a:00000024
#01952:00140018
#0195a:14
#01956:0018
#0215a:22222222222212001400000000000000
#02152:0026002600260026002600260000000014000000000000000000000000000000
#02153:00540054005400540054005400540054005400540054005400000000000000000000000000000000000000000000000000000000000000000000000000000000
#02154:22222222222212000000000000000000
#02159:00640064006400640064006400640064006400640064006400000000000000000000000000000000000000000000000000000000000000000000000000000000
#02158:0026002600260026002600260000000000000000000000000000000000000000
#02852:14
#0285a:14
#03052:00140000
#0305a:1414
#03155:0016
#03157:53000053000000000000000000000000
#03355:0016
#03356:63000063000000000000000000000000
#03252:1414
#0325a:00140000
#03758:16
#03756:00180000
#03752:0000001c
#03754:001a
#03852:14543400
#03856:5400342400000000
#0385a:0024000000000000
#01857:63
#01852:6213
#0185b:0013
#0175b:00000063
#01753:0052320000000000
#0175a:00440000
#01755:00000022000000000000000000000000
#02952:16000000000000000000000000000000002600260026002600260026002600260026002600260026002600260026002600000000000000000000000000000000
#02956:0000000000000000005252525252525252525252525252520000000000000000
#02954:00540000
#02958:16000000000000000000000000000000642662266226622662266226622662266226622662266226622662266226622600000000000000000000000000000000
#03552:0000540034000016
#0355a:00544400
#03556:000000000000000000000000000000000000000000000000000000000000000000000000000000000000000000000000000000000000000000000000000000000000000000000000242400000000000000000000000000000000000000000000000000000000000000000000000000000000000000000000000000000000000000000000000000000000000000000000000000000000000000000000000000000000000000000000000000000000000000000000000000000000000000000000
#03559:0000000000000000000000000000000000000000000000000000000000540054
#03558:00000000000000000000000000002626
#03456:0000005300000000
#03457:0000000000000063
#03452:0000000000000063
#0345b:0000005300000000
#04153:00000000000000000000000000005224
#04159:00000000000000000000000000000054
#0415b:0000000000000022
#04152:0033
#04258:0000000000000000000000000000005600000000560000000000000000000000
#0425a:00000000000022220000002200000000
#04252:0000000000000000000000000026000000000000000026000000000000000000
#04254:00000000000052520000520000000000
#04253:0000000000000000000000000000002400000000000000000000000000000000
#04259:0000000000000000000000000054000000000000000000000000000000000000
#04452:65
#04457:00230000
#04558:16000016000000000000000000000000
#04553:0000005400000000
#04554:00000012
#0455a:00000012
#04559:0000006400000000
#04659:00002500000000000000250000000000000025000000000000002500000000000025000000250000002500000025000000250000002500000025000000250000
#04658:5500650065006500650065006500650065656565656565656565656565656565
#04657:00000000000025000000000000002500000000000000250000000000000025000000002500000025000000250000002500000025000000250000002500000025
#04653:6500650065006500650065006500650065656565656565656565656565656565
#04654:00002500000000000000250000000000000025000000000000002500000000000025000000250000002500000025000000250000002500000025000000250000
#04652:00000000000025000000000000002500000000000000250000000000000025000000002500000025000000250000002500000025000000250000002500000025
#04758:15
#04752:0014
#0475a:0014
#04753:15
#04852:0000005300000000
#04857:0000005300000000
#0485b:00000063
#04856:00000063
#05352:13
#0535b:1313
#05355:0000000053535353
#05357:00000000000000000000002300000023
#05353:00000000000000000023000000230000
#0435b:0000000000000023
#04352:53002353
#04357:00000053000000002300000053000000
#04356:0000006300000000
#05456:00000048
#05452:3700000000000000000000000000000000260026000000000000000000000000
#05459:00000000645400000000000000000000
#05458:0000000000000000002600260000000000000000000000000000000000000000
#05453:00000000000000005464000000000000
#05552:3c00000000000000002600260000000000000000000000003800000000000000
#05553:00000000546400000000000000000000
#05558:0000000000000000000000000000000000260026000000000000000000000000
#05559:00000000000000006454000000000000
#0255a:00001454
#02552:00000000002600000065000000000000000000000000000000000000000000000000000000000000000000000000000000000000000000000000000000000000
#05652:4c16
#05658:0016
#04956:54640000
#0495a:14000000000000001400005400000000
#04952:00000000140000005400001400000000
#02756:14
#02656:1414
#02652:0000001400000000
#0265a:0000000000000014
#00852:00000013
#0095b:00000013
#00352:0066666666666666
#00356:00000052005200520052005200520052
#00358:00005662566256625662566256625662
#00452:16
#00458:16000000000000000000000022222222
#00457:00000000000000000000000000000000000000000000000000000000000000000000000000000000000000000000000000640064006400640064006400640064
#00456:0000000000000000000000000000000000000000000000000026002600260026
#01056:00535300
#01152:53000053
#01157:0053
#01156:0023000000000023
#0115b:0000000000230000
#01252:33
#0235a:0000001100000000
#02353:0012
#0235b:0012
#02355:0000001100000000
#0165b:0000000000005242
#01652:0026000000000000002600000000000000260000000000000000000034000000
#01659:000000000000000000000000000000640000000000002400000000000000000000000000620000000000000000000000000000000000000000000000000000640000000000002400000000000000000000000000620000000000000000000000000000000000000000000000000000640000000000002400000000000000000000000000000000000000000000000000000000000000000000000000220000000000000000000000000000000000000000000000000000000000000000000000
#01653:000000540000000000002400000000000000000000000000000000000000260000000000000000000000000000000000000000540000000000002400000000000000000000000000000000000000260000000000000000000000000000000000000000540000000000002400000000000000000000000000000000000000000000000000000000000000000000000000000000000000000000000000000000000000000000000000000000000000000000000000000000000000000000000000
#01654:620000000000000000000000000000000000000000000000000000540000000000002400000000000000000000000000620000000000000000000000000000000000000000000000000000540000000000002400000000000000000000000000620000000000000000000000000000000000000000000000000000000000000000000000000000000000000000000000000000000000000000000000000000000000000000000000000000000000000000000000000000000000000000000000
#01658:000000000000000000000000000000000000260000000000000000000000000000000000000000640000000000002400000000000000000000000000000000000000260000000000000000000000000000000000000000640000000000002400000000000000000000000000000000000000260000000000000000000000000000000000000000000000000000000000000000000000000000000000000000000000000000000000000000000000000000000000000000000000000000000000
#0165a:00520000005200000052000000000000
#01655:0052005200000000
#01657:0000000000000026000000000000002600000000000000000000000000000000
#03658:16000000000016000000000000002626
#03652:00000000000026261600000000001600
#03653:0000000000000000000000000064006400000000000000000000000000000000
#03659:0000000000000000000000000000000000000000000000000000000000540054
#0395b:0043
#04052:0024000000000000
#04056:6400442400000000
#0405a:14644400
#01454:000000005300000000000000000000000000000000230000000000000000000000000000000000000000000000000000000000000000000025000000000000002500000000000000000000000000000000000000000000000000000000000000000000005300000000000000000000000000000000230000000000000000000000000000000000000000000000000000000000000000000025000000000000002500000000000000000000000000000000000000000000000000000000000000
#01452:002525000000000000000000002525000000000000000000
#01453:00540000000000000054000000000000
#01457:520000006300000025000000640000002500000000230000000000000000000000000000000000000000000000000000520000000000000000000000000000000000000000000000000000000000000000000000000000000000000000000000520000006300000025000000640000002500000000230000000000000000000000000000000000000000000000000000520000000000000000000000000000000000000000000000000000000000000000000000000000000000000000000000
#01456:000000000000000000000000000000000000000000000000000000000000000000000000000000000000000000000000000000005300000000000000000000000000000000230000000000000000000000000000000000000000000000000000000000000000000000000000000000000000000000000000000000000000000000000000000000000000000000000000000000005300000000000000000000000000000000230000000000000000000000000000000000000000000000000000
#01455:52000000005400005200000000540000
#01459:000000000000000000000000000000000000000000000000000000000000000000000000000000000000000000000000620000006300000025000000640000002500000000230000000000000000000000000000000000000000000000000000000000000000000000000000000000000000000000000000000000000000000000000000000000000000000000000000620000006300000025000000640000002500000000230000000000000000000000000000000000000000000000000000
#02452:00000000000000000000000000000000000000000000000000000000000000001400000000000000000000000000000000000000000000000000000000000062
#0245c:00000000000000000000000000000052000000000000000000000000000000000000000000000000000000000000000000000000000000000000000000000000
#02458:00000000000000000000000000000000000000000026000000000000000000000000000000000000000000000000000000000000000000000000000000000000
#02459:00000000000000000000000000000000000000000000000000550000000000000000000000000000000000000000000000000000000000000000000000000000
#05752:0026002600260026002600260026002600260000000000000000000000000000000000000000000000001c0000000000
#05753:005400540054005400540054005400540054005400540054005400540054005400540054000000000000000000000000000000000000000000000000000000000000000000000000000000000000000000000000000000000000000000000000
#05754:222222222222222222000000000000000000000000000000
#05758:002600260026002600260026002600260026000000000000000000000000000000000000000000000000000000000000
#05759:005400540054005400540054005400540054005400540054005400540054005400540054000000000000000000000000000000000000000000000000000000000000000000000000000000000000000000000000000000000000000000000000
#0575a:222222222222222222000000000000000000000000000000
#05756:0054
#00555:00000000000000000000000000000000000000000000000000000000000000000000000000000000000000000000000000540054005400540054005400540054
#00554:0000000000000000000000000000000000000000000000000026002600260026
#00556:00000000000000000000000022222222
#02052:5326532653265326000000000000000000000000000000000000000000000000
#0205b:00000000000000006363636300000000
#02058:0000000000000000000000000000000000260026002600260000000000000000
#05157:0042
#0515c:00000000000000000000004200000000
#05257:0032
#05252:00000000000000000000003200000000
#0013c0:0012
#001380:0000000000220000
#001361:0000000000120000
#001341:00000000000000000000003200000000
#001321:00000022
#0013c0:00000012
#001380:0000000000000022
#003320:0016565656565656
#003360:00000052005200520052005200520052
#004320:26
#003381:00001652565256525652565256525652
#004381:26
#004381:00000000000000000000000012525252
#004371:00000000000000000000000000000000000000000000000000000000000000000000000000000000000000000000000000540054005400540054005400540054
#004361:0000000000000000000000000000000000000000000000000056005600560056
#005381:22
#005361:00000000000000000000000012525252
#005351:00000000000000000000000000000000000000000000000000000000000000000000000000000000000000000000000000540054005400540054005400540054
#005341:0000000000000000000000000000000000000000000000000056005600560056
#006361:22
#006321:000000000000000000000000000000000000000000000000000000000000000000000000000000000000000000000000000000000000000000000000000000000000000000000000000000000000000000000000000000000000000000000000000000000000000000000000000000000000000000000000000000000000000000000000000000000000000000000000000000000000000000000000000000000000000000000000000000000000000000000000000000000000000000000000000000000000000000000000000000000000000000000000000000000000000000000000000000000000000000000000160000000000000000000000000000000000000000000000000056520000000000000000000000000000000000000000000000000000000000000000000000000000000000000000000000000000000000000000000000000000000056000000000000000000000000000000000000000000000000000000260000000000000000000000000000000000000000000000000000000000000000000000000000000000000000000000000000000000000000000000000000000000000000000000000000000000000000000000000000000000000000000000000000000000000000000000000000000000000000000000000000000000000000000000000000000000000000000000000000000000000000000000000000000000000000000000000000000000000000000000000000000000000000000000000000000000000000000000000000000000000000000000000000000000000000000000000000000000000000000000000000000000000000000000000000000000000000000000000000000000000000000000000000000000000000000000000000000000000000000000000000000000000000000000000000000000000000000000000000000000000000000000000000000000000000000000000000000000000000000000000000000000000000000000000000000000000000000000000000000000000000000000000000000000000000000000000000000000000000000000000000000000000000000000000000000000000000000000000000000000000000000000000000000000000000000000000000000000000000000000000000000000000000000000000000000000000000000000000000000000000000000000000000000000000000000000000000000000000000000000000000000000000000000000000000000000000000000000000000000000000000000000000000000000000000000000000000000000000000000000
#006341:000000000000000000000000000000000000000000000000000000000000000000000000000000000000000000000000000000000000000000000000000000000000000000000000000000000000000000000000000000000000000000000000000000000000000000000000000000000000000000000000000000000000000000000000000000000000000000000000000000000000000000000000000000000000000000000000000000000000000000000000000000000000000000000000000000000000000000000000000000000000000000000000000000000000000000000000000000000000000000000000000000000000000000000000000000000000000000000000000000000000000000000000000000000000000000000000000000000000000000000000000000000000000000000000000000000000000000000000000000000000000000000000000000000000000000000000000000000000000000000000000000000000000000000000000000000000000000000000000000000000000000000000000000000000000000000000000000000000000000000000000000000000000000000000000000000000000000000000000000000000000000000000000000000000000000000000000000000000000000000000000000000000000000000000000000000000000000000000000000000000000000000000000000000000000000000000000000000000000000000000000000000000000000000000000000000000000000000000000000000000000000000000000000000052000000000000000000000000000000000000000000000000000000005200000000000000000000000000000000000000000000000000000000000000000000000000000000000000000000000000000000000000000000000000000000000000000000000000000000000000000000000000000000000000000000000000000000000000000000000000000000000000000000000000000000000000000000000000000000000000000000000000000000000000000000000000000000000000000000000000000000000000000000000000000000000000000000000000000000000000000000000000000000000000000000000000000000000000000000000000000000000000000000000000000000000000000000000000000000000000000000000000000000000000000000000000000000000000000000000000000000000000000000000000000000000000000000000000000000000000000000000000000000000000000000000000000000000000000000000000000000000000000000000000000000000000000000000000000000000000000000000000000000000000000000000000000000000000000000000000000000000000000000000000000000000000000000000000000000000000000000000000000000000000000000000000000000000000000000000000000000000000000000000000000000000000000000000000000000000000000000000000000000000000000000000000000000000000000000000000000000000000000000000000000000000000000000000000000000000000000000000000000000000000000000000000000000000000000000000000000000000000000000000000000000000000000000000000000000000000000000000000000000000000000000000000000000000000000000000000000000000000000000000000000000000000000000000000000000000000000000000000000000000000000000000000000000000000000000000000000000000000000000000000000000000000000000000000000000000000000000000000000000000000000000000000000000000000000000000000000000000000000000000000000000000000000000000000000000000000000000000000000000000000000000000000000000000000000000000000000000000000000000000000000000000000000000000000000000000000000000000000000000000000000000000000000000000000000000000000000000000000000000000000000000000000000000000000000000000000000000000000000000000000000000000000000000000000000000000000000000000000000000000000000000000000000000000000000000000000000000000000000000000000000000000000000000000000000000000000000000000000000000000000000000000000000000000000000000000000000000000000000000000000000000000000000000000000000000000000000000000000000000000000000000000000000000000000000000000000000000000000000000000000000000000000000000000000000000000000000000000000000000000000000000000000000000000000000000000000000000000000000000000000000000000000000000000000000000000000000000000000000000000000000000000000000000000000000000000000000000000000000000000000000000000000000000000000000000000000000000000000000000000000000000000000000000000000000000000000000000000000000000000000000000000000000000000000000000000000
#006331:00000000000000000000000000000000000000000000000000000000000000000000000000000000000000000000000000000000000000000000000000000000000000000000000000000000000000000000000000000000000000000000000000000000000000000000000000000000000000000000000000000000000000000000000000000000000000000000000000000000000000000000000000000000000000000000000000000000000000000000000000000000000000000000000000005400000000000000005400000000000000000000000000000000000000000000000000000000000000000000000000000000000000000000000000000000000000000000000000000000000000000000000000000000000000000000000000000000000000000000000000000000000000000000000000000000000000000000000000000000000000000000000000000000000000000000000000000000000000000000000000000000000000000000000000000000000000000000000000000000000000000000000000000000000000000000000000000000000000000000000000000000000000000000000000000000000000000000000000000000000000000000000000000000000000000000000000000000000000000000000000000000000000000000000000000000000000000000000000000000000000000000000000000000000000000000000000000000000000000000000000000000000000000000000000000000000000000000000000000000000000000000000000000000000000000000000000000000000000000000000000000000000000000000000000000000000000000000000000000000000000000000000000000000
#006361:00000000000000000000000000000000000000000000000000000000000000000000000000000000000000000000000000000000000000000000000000000000000000000000000000000000000000000000000000000000000000000000000000000000000000000000000000000000000000000000000000000000000000000000000000000000000000000000000000000000000000000000000000000000000000000000000000000000000000000000000000000000000000000000000000000000000000000000000000000000000000000000000000000000005200000000000000000000000000000000000000000000000000000000000000000000000000000000000000000000000000000000000000000000000000000000000000000000000000000000000000000000000000000000000000000000000000000000000000000000000000000000000000000000000000000000000000000000000000000000000000000000000000000000000000000000000000000000000000000000000000000000000000000000000000000000000000000000000000000000000000000000000000000000000000000000000000000000000000000000000000000000000000000000000000000000000000000000000000000000000000000000000000000000000000000000000000000000000000000000000000000000000000000000000000000000000000000000000000000000000000000000000000000000000000000000000000000000000000000000000000000000000000000000000000000000000000000000000000000000000000000000000000000000000000000000000000000000000000000000000000000000000000000000
#006351:000000000000000000000000000000000000000000000000000000000000000000000000000000000000000000000000000000000000000000000000000000000000000000000000000000000000000000000000000000000000000000000000000000000000000000000000000000000000000000000000000000000000000000000000000000000000000000000000000000000000000000000000000000000000000000000000000000000000000000000000000000000000000000000000000000000000000000000000000000000000000000000000000000000000000000000000000000000000000000000000000000000000000000000000000000000000000000000000000000000000000000000000000000000000000000000000000000000000000000000000000000000000000000000000000000000000000000000000000000000000000000000000000000000000000000000000000000000000000000000000000000000000000000000000000000000000000000000000000000000000000000000000000000000000000000000000000000000000000000000000000000000000000000000000000000000000000000000000000000000000000000000000000000000000000000000000000000000000000000000000160000000000000000000000000000000000000000000000000056520000000000000000000000000000000000000000000000000000000000000000000000000000000000000000000000000000000000000000000000000000000056000000000000000000000000000000000000000000000000000000260000000000000000000000000000000000000000000000000000000000000000000000000000000000000000000000000000000000000000000000000000000000000000000000000000000000000000000000000000000000000000000000000000000000000000000000000000000000000000000000000000000000000000000000000000000000000000000000000000000000000000000000000000000000000000000000000000000000000000000000000000000000000000000000000000000000000000000000000000000000000000000000000000000000000000000000000000000000000000000000000000000000000000000000000000000000000000000000000000000000000000000000000000000000000000000000000000000000000000000000000000000000000000000000000000000000000000000000000000000000000000000000000000000000000000000000000000000000000000000000
#006371:000000000000000000000000000000000000000000000000000000000000000000000000000000000000000000000000000000000000000000000000000000000000000000000000000000000000000000000000000000000000000000000000000000000000000000000000000000000000000000000000000000000000000000000000000000000000000000000000000000000000000000000000000000000000000000000000000000000000000000000000000000000000000000000000000000000000000000000000000000000000000000000000000000000000000000000000000000000000000000000000000000000000000000000000000000000000000000000000000000000000000000000000000000000000000000000000000000000000000000000000000000000000000000000000000000000000000000000000000000000000000000000000000000000000000000000000000000000000000000000000000000000000000000000000000000000000000000000000000000000000000000000000000000000000000000000000000000000000000000000000000000000000000000000000000000000000000000000000000000000000000000000000000000000000000000000000000000000000000000000000000000000000000000000000000000000000000000000000000000000000000000000000000000000000000000000000000000000000000000000000000000000000000000000000000000000000000000000000000000000000000000000000000000000000000000000000000000000000000000000000000000000000000000000000000000000000000000000000000000000000000000000000000000000000000000000000000000000000000000000000000000000000000000000000000000000000000000000000000000000000000000000000000000000000000000000000000000000000000000000000000000000000000000000000000000000000000000000000000000000000000000000000000000000000000000000000000000000000000000000000000000000000000000000000000000000000000000000000000000000000000000000000000000000000000000000000000000000000000000000000000000000000000000000000000000000000000000000000000000000000000000000000000000000000000000000000000000000000000000000000000000000000000000000000000000000000000000000000000000000000000000000000000000000000000000000000000000000000000000000000000000000000000000000000000000000000000000000000000000000000000000000000000000000000000000000000000000000000000000000000000000000000000000000000000000000000000000000000000000000000000000000000000000000052000000000000000000000000000000000000000000000000000000005200000000000000000000000000000000000000000000000000000000000000000000000000000000000000000000000000000000000000000000000000000000000000000000000000000000000000000000000000000000000000000000000000000000000000000000000000000000000000000000000000000000000000000000000000000000000000000000000000000000000000000000000000000000000000000000000000000000000000000000000000000000000000000000000000000000000000000000000000000000000000000000000000000000000000000000000000000000000000000000000000000000000000000000000000000000000000000000000000000000000000000000000000000000000000000000000000000000000000000000000000000000000000000000000000000000000000000000000000000000000000000000000000000000000000000000000000000000000000000000000000000000000000000000000000000000000000000000000000000000000000000000000000000000000000000000000000000000000000000000000000000000000000000000000000000000000000000000000000000000000000000000000000000000000000000000000000000000000000000000000000000000000000000000000000000000000000000000000000000000000000000000000000000000000000000000000000000000000000000000000000000000000000000000000000000000000000000000000000000000000000000000000000000000000000000000000000000000000000000000000000000000000000000000000000000000000000000000000000000000000000000000000000000000000000000000000000000000000000000000000000000000000000000000000000000000000000000000000000000000000000000000000000000000000000000000000000000000000000000000000000000000000000000000000000000000000000000000000000000000000000000000000000000000000000000000000000000000000000000000000000000000000000000000000000000000000000000000000000000000000000000000000000000000000000000000000000
#006361:00000000000000000000000000000000000000000000000000000000000000000000000000000000000000000000000000000000000000000000000000000000000000000000000000000000000000000000000000000000000000000000000000000000000000000000000000000000000000000000000000000000000000000000000000000000000000000000000000000000000000000000000000000000000000000000000000000000000000000000000000000000000000000000000000000000000000000000000000000000000000000000000000000000000000000000000000000000000000000000000000000000000000000000000000000000000000000000000000000000000000000000000000000000000000000000000000000000000000000000000000000000000000000000000000000000000000000000000000000000000000000000000000000000000000000000000000000000000054000000000000000054000000000000000000000000000000000000000000000000000000000000000000000000000000000000000000000000000000000000000000000000000000000000000000000000000000000000000000000000000000000000000000000000000000000000000000000000000000000000000000000000000000000000000000000000000000000000000000000000000000000000000000000000000000000000000000000000000000000000000000000000000000000000000000000000000000000000000000000000000000000000000000000000000000000000000000000000000000000000000000000000000000000000000000000000000000000000000000000000000000000000000000000000
#006391:00000000000000000000000000000000000000000000000000000000000000000000000000000000000000000000000000000000000000000000000000000000000000000000000000000000000000000000000000000000000000000000000000000000000000000000000000000000000000000000000000000000000000000000000000000000000000000000000000000000000000000000000000000000000000000000000000000000000000000000000000000000000000000000000000000000000000000000000000000000000000000000000000000000000000000000000000000000000000000000000000000000000000000000000000000000000000000000000000000000000000000000000000000000000000000000000000000000000000000000000000000000000000000000000000000000000000000000000000000000000000000000000000000000000000000000000000000000000000000000000000000000000000000000000000000000000000000052000000000000000000000000000000000000000000000000000000000000000000000000000000000000000000000000000000000000000000000000000000000000000000000000000000000000000000000000000000000000000000000000000000000000000000000000000000000000000000000000000000000000000000000000000000000000000000000000000000000000000000000000000000000000000000000000000000000000000000000000000000000000000000000000000000000000000000000000000000000000000000000000000000000000000000000000000000000000000000000000000000000000000000000000000000000000
#006381:000000000000000000000000000000000000000000000000000000000000000000000000000000000000000000000000000000000000000000000000000000000000000000000000000000000000000000000000000000000000000000000000000000000000000000000000000000000000000000000000000000000000000000000000000000000000000000000000000000000000000000000000000000000000000000000000000000000000000000000000000000000000000000000000000000000000000000000000000000000000000000000000000000000000000000000000000000000000000000000000000000000000000000000000000000000000000000000000000000000000000000000000000000000000000000000000000000000000000000000000000000000000000000000000000000000000000000000000000000000000000000000000000000000000000000000000000000000000000000000000000000000000000000000000000000000000000000000000000000000000000000000000000000000000000000000000000000000000000000000000000000000000000000000000000000000000000000000000000000000000000000000000000000000000000000000000000000000000000000000000000000000000000000000000000000000000000000000000000000000000000000000000000000000000000000000000000000000000000000000000000000000000000000000000000000000000000000000000000000000000000000000000000000000000000000000000000000000000000000000000000000000000000000000000000000000000000000000000000000000000000000000000000000000000000000000000000000000000000000000000000000000000000000000000000000000000000000000000000000000000000000000000000000000000000000000000000000000000000000000000160000000000000000000000000000000000000000000000000056520000000000000000000000000000000000000000000000000000000000000000000000000000000000000000000000000000000000000000000000000000000056000000000000000000000000000000000000000000000000000000260000000000000000000000000000000000000000000000000000000000000000000000000000000000000000000000000000000000000000000000000000000000000000000000000000000000000000000000000000000000000000000000000000000000000000000000000000000000000000000000
#0063a1:000000000000000000000000000000000000000000000000000000000000000000000000000000000000000000000000000000000000000000000000000000000000000000000000000000000000000000000000000000000000000000000000000000000000000000000000000000000000000000000000000000000000000000000000000000000000000000000000000000000000000000000000000000000000000000000000000000000000000000000000000000000000000000000000000000000000000000000000000000000000000000000000000000000000000000000000000000000000000000000000000000000000000000000000000000000000000000000000000000000000000000000000000000000000000000000000000000000000000000000000000000000000000000000000000000000000000000000000000000000000000000000000000000000000000000000000000000000000000000000000000000000000000000000000000000000000000000000000000000000000000000000000000000000000000000000000000000000000000000000000000000000000000000000000000000000000000000000000000000000000000000000000000000000000000000000000000000000000000000000000000000000000000000000000000000000000000000000000000000000000000000000000000000000000000000000000000000000000000000000000000000000000000000000000000000000000000000000000000000000000000000000000000000000000000000000000000000000000000000000000000000000000000000000000000000000000000000000000000000000000000000000000000000000000000000000000000000000000000000000000000000000000000000000000000000000000000000000000000000000000000000000000000000000000000000000000000000000000000000000000000000000000000000000000000000000000000000000000000000000000000000000000000000000000000000000000000000000000000000000000000000000000000000000000000000000000000000000000000000000000000000000000000000000000000000000000000000000000000000000000000000000000000000000000000000000000000000000000000000000000000000000000000000000000000000000000000000000000000000000000000000000000000000000000000000000000000000000000000000000000000000000000000000000000000000000000000000000000000000000000000000000000000000000000000000000000000000000000000000000000000000000000000000000000000000000000000000000000000000000000000000000000000000000000000000000000000000000000000000000000000000000000000000000000000000000000000000000000000000000000000000000000000000000000000000000000000000000000000000000000000000000000000000000000000000000000000000000000000000000000000000000000000000000000000000000000000000000000000000000000000000000000000000000000000000000000000000000000000000000000000000000000000000000000000000000000000000000000000000000000000000000000000000000000000000000000000000000000000000000000000000000000000000000000000000000000000000000000000000000000000000000000000000000000000000000000000000000000000000000000000000000000000000000000000000000000000000000000000000000000000000000000000000000000000000000000000000000000000000000000000000000000000000000000000000000000000000000000000000000000000000000000000000000000000000000000000000000000000000000000000000000000000000000000000000000000000000000000000000000000000000000000000000000000000000000000000000000000000000000000000000000000000000000000000000000000000000000000000000000000000000000000000000000052000000000000000000000000000000000000000000000000000000005200000000000000000000000000000000000000000000000000000000000000000000000000000000000000000000000000000000000000000000000000000000000000000000000000000000000000000000000000000000000000000000000000000000000000000000000000000000000000000000000000000000000000000000000000000000000000000000000000000000000000000000000000000000000000000000000000000000000000000000000000000000000000000000000000000000000000000000000000000000000000000000000000000000000000000000000000000000000000000000000000000000000000000000000000000000000000000000000000000000000000000000000000000000000000000000000000000000000000000000000000000000000000000000000000000000000000000000000000000000000000000000000000000000000000000000000000
#006391:00000000000000000000000000000000000000000000000000000000000000000000000000000000000000000000000000000000000000000000000000000000000000000000000000000000000000000000000000000000000000000000000000000000000000000000000000000000000000000000000000000000000000000000000000000000000000000000000000000000000000000000000000000000000000000000000000000000000000000000000000000000000000000000000000000000000000000000000000000000000000000000000000000000000000000000000000000000000000000000000000000000000000000000000000000000000000000000000000000000000000000000000000000000000000000000000000000000000000000000000000000000000000000000000000000000000000000000000000000000000000000000000000000000000000000000000000000000000000000000000000000000000000000000000000000000000000000000000000000000000000000000000000000000000000000000000000000000000000000000000000000000000000000000000000000000000000000000000000000000000000000000000000000000000000000000000000000000000000000000000000000000000000000000000000000000000000000000000000000000000000000000540000000000000000540000000000000000000000000000000000000000000000000000000000000000000000000000000000000000000000000000000000000000000000000000000000000000000000000000000000000000000000000000000000000000000000000000000000000000000000000000000000000000
#0063c1:00000000000000000000000000000000000000000000000000000000000000000000000000000000000000000000000000000000000000000000000000000000000000000000000000000000000000000000000000000000000000000000000000000000000000000000000000000000000000000000000000000000000000000000000000000000000000000000000000000000000000000000000000000000000000000000000000000000000000000000000000000000000000000000000000000000000000000000000000000000000000000000000000000000000000000000000000000000000000000000000000000000000000000000000000000000000000000000000000000000000000000000000000000000000000000000000000000000000000000000000000000000000000000000000000000000000000000000000000000000000000000000000000000000000000000000000000000000000000000000000000000000000000000000000000000000000000000000000000000000000000000000000000000000000000000000000000000000000000000000000000000000000000000000000000000000000000000000000000000000000000000000000000000000000000000000000000000000000000000000000000000000000000000000000000000000000000000000000000000000000000000000000000000000000000000000000000000000000000000000000000520000000000000000000000000000000000000000000000000000000000000000000000000000000000000000000000000000000000000000000000000000000000000000000000000000000000000000000000000000000000000000000000000000
#007381:000000000000000000000000000000000000000000000000000000000000000000000000000000000000000000000000000000000000000000000000000000000000000000000000000000000000000000000000000000000000000000000000000000000000000000000000000000000000000000000000000000000000000000000000000000000000000000000000000000000000000000000000000000000000000000000000000000000000000000000000000000000000000000000000000000000000000000000000000000000000000000000000000000000000000000000000000000000000000000000000160000000000000000000000000000000000000000000000000056520000000000000000000000000000000000000000000000000000000000000000000000000000000000000000000000000000000000000000000000000000000056000000000000000000000000000000000000000000000000000000260000000000000000000000000000000000000000000000000000000000000000000000000000000000000000000000000000000000000000000000000000000000000000000000000000000000000000000000000000000000000000000000000000000000000000000000000000000000000000000000000000000000000000000000000000000000000000000000000000000000000000000000000000000000000000000000000000000000000000000000000000000000000000000000000000000000000000000000000000000000000000000000000000000000000000000000000000000000000000000000000000000000000000000000000000000000000000000000000000000000000000000000000000000000000000000000000000000000000000000000000000000000000000000000000000000000000000000000000000000000000000000000000000000000000000000000000000000000000000000000000000000000000000000000000000000000000000000000000000000000000000000000000000000000000000000000000000000000000000000000000000000000000000000000000000000000000000000000000000000000000000000000000000000000000000000000000000000000000000000000000000000000000000000000000000000000000000000000000000000000000000000000000000000000000000000000000000000000000000000000000000000000000000000000000000000000000000000000000000000000000000000000000000000000000000000000000000000000000000000000
#0073a1:000000000000000000000000000000000000000000000000000000000000000000000000000000000000000000000000000000000000000000000000000000000000000000000000000000000000000000000000000000000000000000000000000000000000000000000000000000000000000000000000000000000000000000000000000000000000000000000000000000000000000000000000000000000000000000000000000000000000000000000000000000000000000000000000000000000000000000000000000000000000000000000000000000000000000000000000000000000000000000000000000000000000000000000000000000000000000000000000000000000000000000000000000000000000000000000000000000000000000000000000000000000000000000000000000000000000000000000000000000000000000000000000000000000000000000000000000000000000000000000000000000000000000000000000000000000000000000000000000000000000000000000000000000000000000000000000000000000000000000000000000000000000000000000000000000000000000000000000000000000000000000000000000000000000000000000000000000000000000000000000000000000000000000000000000000000000000000000000000000000000000000000000000000000000000000000000000000000000000000000000000000000000000000000000000000000000000000000000000000000000000000000000000000000052000000000000000000000000000000000000000000000000000000005200000000000000000000000000000000000000000000000000000000000000000000000000000000000000000000000000000000000000000000000000000000000000000000000000000000000000000000000000000000000000000000000000000000000000000000000000000000000000000000000000000000000000000000000000000000000000000000000000000000000000000000000000000000000000000000000000000000000000000000000000000000000000000000000000000000000000000000000000000000000000000000000000000000000000000000000000000000000000000000000000000000000000000000000000000000000000000000000000000000000000000000000000000000000000000000000000000000000000000000000000000000000000000000000000000000000000000000000000000000000000000000000000000000000000000000000000000000000000000000000000000000000000000000000000000000000000000000000000000000000000000000000000000000000000000000000000000000000000000000000000000000000000000000000000000000000000000000000000000000000000000000000000000000000000000000000000000000000000000000000000000000000000000000000000000000000000000000000000000000000000000000000000000000000000000000000000000000000000000000000000000000000000000000000000000000000000000000000000000000000000000000000000000000000000000000000000000000000000000000000000000000000000000000000000000000000000000000000000000000000000000000000000000000000000000000000000000000000000000000000000000000000000000000000000000000000000000000000000000000000000000000000000000000000000000000000000000000000000000000000000000000000000000000000000000000000000000000000000000000000000000000000000000000000000000000000000000000000000000000000000000000000000000000000000000000000000000000000000000000000000000000000000000000000000000000000000000000000000000000000000000000000000000000000000000000000000000000000000000000000000000000000000000000000000000000000000000000000000000000000000000000000000000000000000000000000000000000000000000000000000000000000000000000000000000000000000000000000000000000000000000000000000000000000000000000000000000000000000000000000000000000000000000000000000000000000000000000000000000000000000000000000000000000000000000000000000000000000000000000000000000000000000000000000000000000000000000000000000000000000000000000000000000000000000000000000000000000000000000000000000000000000000000000000000000000000000000000000000000000000000000000000000000000000000000000000000000000000000000000000000000000000000000000000000000000000000000000000000000000000000000000000000000000000000000000000000000000000000000000000000000000000000000000000000000000000000000000000000000000000000000000000000000000000000000000000000000000000000000000000000000000000000000000000000000000000000
#007391:00000000000000000000000000000000000000000000000000000000000000000000000000000000000000000000000000000000000000000000000000000000000000000000000000000000000000000000000000000000000000000000000000000000000000000000000000000000000000000000000000000000000000000000000000000000000000000000000000000000000000000000000000000000000000000000000000000000000000000000000000000000000000000000000000005400000000000000005400000000000000000000000000000000000000000000000000000000000000000000000000000000000000000000000000000000000000000000000000000000000000000000000000000000000000000000000000000000000000000000000000000000000000000000000000000000000000000000000000000000000000000000000000000000000000000000000000000000000000000000000000000000000000000000000000000000000000000000000000000000000000000000000000000000000000000000000000000000000000000000000000000000000000000000000000000000000000000000000000000000000000000000000000000000000000000000000000000000000000000000000000000000000000000000000000000000000000000000000000000000000000000000000000000000000000000000000000000000000000000000000000000000000000000000000000000000000000000000000000000000000000000000000000000000000000000000000000000000000000000000000000000000000000000000000000000000000000000000000000000000000000000000000000000000
#0073c1:00000000000000000000000000000000000000000000000000000000000000000000000000000000000000000000000000000000000000000000000000000000000000000000000000000000000000000000000000000000000000000000000000000000000000000000000000000000000000000000000000000000000000000000000000000000000000000000000000000000000000000000000000000000000000000000000000000000000000000000000000000000000000000000000000000000000000000000000000000000000000000000000000000000005200000000000000000000000000000000000000000000000000000000000000000000000000000000000000000000000000000000000000000000000000000000000000000000000000000000000000000000000000000000000000000000000000000000000000000000000000000000000000000000000000000000000000000000000000000000000000000000000000000000000000000000000000000000000000000000000000000000000000000000000000000000000000000000000000000000000000000000000000000000000000000000000000000000000000000000000000000000000000000000000000000000000000000000000000000000000000000000000000000000000000000000000000000000000000000000000000000000000000000000000000000000000000000000000000000000000000000000000000000000000000000000000000000000000000000000000000000000000000000000000000000000000000000000000000000000000000000000000000000000000000000000000000000000000000000000000000000000000000000000
#007351:000000000000000000000000000000000000000000000000000000000000000000000000000000000000000000000000000000000000000000000000000000000000000000000000000000000000000000000000000000000000000000000000000000000000000000000000000000000000000000000000000000000000000000000000000000000000000000000000000000000000000000000000000000000000000000000000000000000000000000000000000000000000000000000000000000000000000000000000000000000000000000000000000000000000000000000000000000000000000000000000000000000000000000000000000000000000000000000000000000000000000000000000000000000000000000000000000000000000000000000000000000000000000000000000000000000000000000000000000000000000000000000000000000000000000000000000000000000000000000000000000000000000000000000000000000000000000000000000000000000000000000000000000000000000000000000000000000000000000000000000000000000000000000000000000000000000000000000000000000000000000000000000000000000000000000000000000000000000000000000000160000000000000000000000000000000000000000000000000056520000000000000000000000000000000000000000000000000000000000000000000000000000000000000000000000000000000000000000000000000000000056000000000000000000000000000000000000000000000000000000260000000000000000000000000000000000000000000000000000000000000000000000000000000000000000000000000000000000000000000000000000000000000000000000000000000000000000000000000000000000000000000000000000000000000000000000000000000000000000000000000000000000000000000000000000000000000000000000000000000000000000000000000000000000000000000000000000000000000000000000000000000000000000000000000000000000000000000000000000000000000000000000000000000000000000000000000000000000000000000000000000000000000000000000000000000000000000000000000000000000000000000000000000000000000000000000000000000000000000000000000000000000000000000000000000000000000000000000000000000000000000000000000000000000000000000000000000000000000000000000
#007371:000000000000000000000000000000000000000000000000000000000000000000000000000000000000000000000000000000000000000000000000000000000000000000000000000000000000000000000000000000000000000000000000000000000000000000000000000000000000000000000000000000000000000000000000000000000000000000000000000000000000000000000000000000000000000000000000000000000000000000000000000000000000000000000000000000000000000000000000000000000000000000000000000000000000000000000000000000000000000000000000000000000000000000000000000000000000000000000000000000000000000000000000000000000000000000000000000000000000000000000000000000000000000000000000000000000000000000000000000000000000000000000000000000000000000000000000000000000000000000000000000000000000000000000000000000000000000000000000000000000000000000000000000000000000000000000000000000000000000000000000000000000000000000000000000000000000000000000000000000000000000000000000000000000000000000000000000000000000000000000000000000000000000000000000000000000000000000000000000000000000000000000000000000000000000000000000000000000000000000000000000000000000000000000000000000000000000000000000000000000000000000000000000000000000000000000000000000000000000000000000000000000000000000000000000000000000000000000000000000000000000000000000000000000000000000000000000000000000000000000000000000000000000000000000000000000000000000000000000000000000000000000000000000000000000000000000000000000000000000000000000000000000000000000000000000000000000000000000000000000000000000000000000000000000000000000000000000000000000000000000000000000000000000000000000000000000000000000000000000000000000000000000000000000000000000000000000000000000000000000000000000000000000000000000000000000000000000000000000000000000000000000000000000000000000000000000000000000000000000000000000000000000000000000000000000000000000000000000000000000000000000000000000000000000000000000000000000000000000000000000000000000000000000000000000000000000000000000000000000000000000000000000000000000000000000000000000000000000000000000000000000000000000000000000000000000000000000000000000000000000000000000000000000000052000000000000000000000000000000000000000000000000000000005200000000000000000000000000000000000000000000000000000000000000000000000000000000000000000000000000000000000000000000000000000000000000000000000000000000000000000000000000000000000000000000000000000000000000000000000000000000000000000000000000000000000000000000000000000000000000000000000000000000000000000000000000000000000000000000000000000000000000000000000000000000000000000000000000000000000000000000000000000000000000000000000000000000000000000000000000000000000000000000000000000000000000000000000000000000000000000000000000000000000000000000000000000000000000000000000000000000000000000000000000000000000000000000000000000000000000000000000000000000000000000000000000000000000000000000000000000000000000000000000000000000000000000000000000000000000000000000000000000000000000000000000000000000000000000000000000000000000000000000000000000000000000000000000000000000000000000000000000000000000000000000000000000000000000000000000000000000000000000000000000000000000000000000000000000000000000000000000000000000000000000000000000000000000000000000000000000000000000000000000000000000000000000000000000000000000000000000000000000000000000000000000000000000000000000000000000000000000000000000000000000000000000000000000000000000000000000000000000000000000000000000000000000000000000000000000000000000000000000000000000000000000000000000000000000000000000000000000000000000000000000000000000000000000000000000000000000000000000000000000000000000000000000000000000000000000000000000000000000000000000000000000000000000000000000000000000000000000000000000000000000000000000000000000000000000000000000000000000000000000000000000000000000000000000000000000000
#007361:00000000000000000000000000000000000000000000000000000000000000000000000000000000000000000000000000000000000000000000000000000000000000000000000000000000000000000000000000000000000000000000000000000000000000000000000000000000000000000000000000000000000000000000000000000000000000000000000000000000000000000000000000000000000000000000000000000000000000000000000000000000000000000000000000000000000000000000000000000000000000000000000000000000000000000000000000000000000000000000000000000000000000000000000000000000000000000000000000000000000000000000000000000000000000000000000000000000000000000000000000000000000000000000000000000000000000000000000000000000000000000000000000000000000000000000000000000000000054000000000000000054000000000000000000000000000000000000000000000000000000000000000000000000000000000000000000000000000000000000000000000000000000000000000000000000000000000000000000000000000000000000000000000000000000000000000000000000000000000000000000000000000000000000000000000000000000000000000000000000000000000000000000000000000000000000000000000000000000000000000000000000000000000000000000000000000000000000000000000000000000000000000000000000000000000000000000000000000000000000000000000000000000000000000000000000000000000000000000000000000000000000000000000000
#007391:00000000000000000000000000000000000000000000000000000000000000000000000000000000000000000000000000000000000000000000000000000000000000000000000000000000000000000000000000000000000000000000000000000000000000000000000000000000000000000000000000000000000000000000000000000000000000000000000000000000000000000000000000000000000000000000000000000000000000000000000000000000000000000000000000000000000000000000000000000000000000000000000000000000000000000000000000000000000000000000000000000000000000000000000000000000000000000000000000000000000000000000000000000000000000000000000000000000000000000000000000000000000000000000000000000000000000000000000000000000000000000000000000000000000000000000000000000000000000000000000000000000000000000000000000000000000000000052000000000000000000000000000000000000000000000000000000000000000000000000000000000000000000000000000000000000000000000000000000000000000000000000000000000000000000000000000000000000000000000000000000000000000000000000000000000000000000000000000000000000000000000000000000000000000000000000000000000000000000000000000000000000000000000000000000000000000000000000000000000000000000000000000000000000000000000000000000000000000000000000000000000000000000000000000000000000000000000000000000000000000000000000000000000000
#007321:000000000000000000000000000000000000000000000000000000000000000000000000000000000000000000000000000000000000000000000000000000000000000000000000000000000000000000000000000000000000000000000000000000000000000000000000000000000000000000000000000000000000000000000000000000000000000000000000000000000000000000000000000000000000000000000000000000000000000000000000000000000000000000000000000000000000000000000000000000000000000000000000000000000000000000000000000000000000000000000000000000000000000000000000000000000000000000000000000000000000000000000000000000000000000000000000000000000000000000000000000000000000000000000000000000000000000000000000000000000000000000000000000000000000000000000000000000000000000000000000000000000000000000000000000000000000000000000000000000000000000000000000000000000000000000000000000000000000000000000000000000000000000000000000000000000000000000000000000000000000000000000000000000000000000000000000000000000000000000000000000000000000000000000000000000000000000000000000000000000000000000000000000000000000000000000000000000000000000000000000000000000000000000000000000000000000000000000000000000000000000000000000000000000000000000000000000000000000000000000000000000000000000000000000000000000000000000000000000000000000000000000000000000000000000000000000000000000000000000000000000000000000000000000000000000000000000000000000000000000000000000000000000000000000000000000000000000000000000000000000160000000000000000000000000000000000000000000000000056520000000000000000000000000000000000000000000000000000000000000000000000000000000000000000000000000000000000000000000000000000000056000000000000000000000000000000000000000000000000000000260000000000000000000000000000000000000000000000000000000000000000000000000000000000000000000000000000000000000000000000000000000000000000000000000000000000000000000000000000000000000000000000000000000000000000000000000000000000000000000000
#007341:000000000000000000000000000000000000000000000000000000000000000000000000000000000000000000000000000000000000000000000000000000000000000000000000000000000000000000000000000000000000000000000000000000000000000000000000000000000000000000000000000000000000000000000000000000000000000000000000000000000000000000000000000000000000000000000000000000000000000000000000000000000000000000000000000000000000000000000000000000000000000000000000000000000000000000000000000000000000000000000000000000000000000000000000000000000000000000000000000000000000000000000000000000000000000000000000000000000000000000000000000000000000000000000000000000000000000000000000000000000000000000000000000000000000000000000000000000000000000000000000000000000000000000000000000000000000000000000000000000000000000000000000000000000000000000000000000000000000000000000000000000000000000000000000000000000000000000000000000000000000000000000000000000000000000000000000000000000000000000000000000000000000000000000000000000000000000000000000000000000000000000000000000000000000000000000000000000000000000000000000000000000000000000000000000000000000000000000000000000000000000000000000000000000000000000000000000000000000000000000000000000000000000000000000000000000000000000000000000000000000000000000000000000000000000000000000000000000000000000000000000000000000000000000000000000000000000000000000000000000000000000000000000000000000000000000000000000000000000000000000000000000000000000000000000000000000000000000000000000000000000000000000000000000000000000000000000000000000000000000000000000000000000000000000000000000000000000000000000000000000000000000000000000000000000000000000000000000000000000000000000000000000000000000000000000000000000000000000000000000000000000000000000000000000000000000000000000000000000000000000000000000000000000000000000000000000000000000000000000000000000000000000000000000000000000000000000000000000000000000000000000000000000000000000000000000000000000000000000000000000000000000000000000000000000000000000000000000000000000000000000000000000000000000000000000000000000000000000000000000000000000000000000000000000000000000000000000000000000000000000000000000000000000000000000000000000000000000000000000000000000000000000000000000000000000000000000000000000000000000000000000000000000000000000000000000000000000000000000000000000000000000000000000000000000000000000000000000000000000000000000000000000000000000000000000000000000000000000000000000000000000000000000000000000000000000000000000000000000000000000000000000000000000000000000000000000000000000000000000000000000000000000000000000000000000000000000000000000000000000000000000000000000000000000000000000000000000000000000000000000000000000000000000000000000000000000000000000000000000000000000000000000000000000000000000000000000000000000000000000000000000000000000000000000000000000000000000000000000000000000000000000000000000000000000000000000000000000000000000000000000000000000000000000000000000000000000000000000000000000000000000000000000000000000000000000000000000000000000000000000000000000000000000000052000000000000000000000000000000000000000000000000000000005200000000000000000000000000000000000000000000000000000000000000000000000000000000000000000000000000000000000000000000000000000000000000000000000000000000000000000000000000000000000000000000000000000000000000000000000000000000000000000000000000000000000000000000000000000000000000000000000000000000000000000000000000000000000000000000000000000000000000000000000000000000000000000000000000000000000000000000000000000000000000000000000000000000000000000000000000000000000000000000000000000000000000000000000000000000000000000000000000000000000000000000000000000000000000000000000000000000000000000000000000000000000000000000000000000000000000000000000000000000000000000000000000000000000000000000000000
#007331:00000000000000000000000000000000000000000000000000000000000000000000000000000000000000000000000000000000000000000000000000000000000000000000000000000000000000000000000000000000000000000000000000000000000000000000000000000000000000000000000000000000000000000000000000000000000000000000000000000000000000000000000000000000000000000000000000000000000000000000000000000000000000000000000000000000000000000000000000000000000000000000000000000000000000000000000000000000000000000000000000000000000000000000000000000000000000000000000000000000000000000000000000000000000000000000000000000000000000000000000000000000000000000000000000000000000000000000000000000000000000000000000000000000000000000000000000000000000000000000000000000000000000000000000000000000000000000000000000000000000000000000000000000000000000000000000000000000000000000000000000000000000000000000000000000000000000000000000000000000000000000000000000000000000000000000000000000000000000000000000000000000000000000000000000000000000000000000000000000000000000000000540000000000000000540000000000000000000000000000000000000000000000000000000000000000000000000000000000000000000000000000000000000000000000000000000000000000000000000000000000000000000000000000000000000000000000000000000000000000000000000000000000000000
#007361:00000000000000000000000000000000000000000000000000000000000000000000000000000000000000000000000000000000000000000000000000000000000000000000000000000000000000000000000000000000000000000000000000000000000000000000000000000000000000000000000000000000000000000000000000000000000000000000000000000000000000000000000000000000000000000000000000000000000000000000000000000000000000000000000000000000000000000000000000000000000000000000000000000000000000000000000000000000000000000000000000000000000000000000000000000000000000000000000000000000000000000000000000000000000000000000000000000000000000000000000000000000000000000000000000000000000000000000000000000000000000000000000000000000000000000000000000000000000000000000000000000000000000000000000000000000000000000000000000000000000000000000000000000000000000000000000000000000000000000000000000000000000000000000000000000000000000000000000000000000000000000000000000000000000000000000000000000000000000000000000000000000000000000000000000000000000000000000000000000000000000000000000000000000000000000000000000000000000000000000000000520000000000000000000000000000000000000000000000000000000000000000000000000000000000000000000000000000000000000000000000000000000000000000000000000000000000000000000000000000000000000000000000000000
#008381:12220000
#0083c1:0032000000000000
#008320:00130000
#008350:0000002300000000
#008350:0013
#008320:0000000000230000
#009360:12220000
#009320:0032000000000000
#0093b1:00130000
#009381:0000002300000000
#009381:0013
#0093b1:0000000000230000
#010361:00130000
#010321:0000002300000000
#010361:0013
#010321:0000000000230000
#0103c0:0000000000120022
#010380:00000032
#011320:13230000
#011360:0053000000000000
#011370:00001323
#0113b0:0000000000530000
#011321:00000013
#011361:0000000000000053
#012321:23
#012371:00130000
#0123b1:0000002300000000
#012361:0013
#012321:0000000000230000
#013361:00000013
#013321:0000000000000023
#014351:1222000000000000
#014341:000000535300000000000000000000000000000053530000000000000000000000000000000000000000000000000000000000000000000000000000000000000000000000000000000000000000000000000000000000000000000000000000000000000000000000000000000000000000000000000000000000000000000000000000000000000000000000000000000000000000000000000000000000000000000000000000000000000000000000000000000000000000000000000000
#014321:005555000000000000000000000000000000000000000000
#014331:00540000000000000000000000000000
#014370:120000535300000055000000540000005500000053530000220000000000000000000000000000000000000000000000000000000000000000000000000000000000000000000000000000000000000000000000000000000000000000000000000000000000000000000000000000000000000000000000000000000000000000000000000000000000000000000000000000000000000000000000000000000000000000000000000000000000000000000000000000000000000000000000
#014370:0000122200000000
#014360:000000000000000000000000000000000000000000000000000000000000000000000000000000000000000000000000000000535300000000000000000000000000000053530000000000000000000000000000000000000000000000000000000000000000000000000000000000000000000000000000000000000000000000000000000000000000000000000000000000000000000000000000000000000000000000000000000000000000000000000000000000000000000000000000
#014340:000000000000005555000000000000000000000000000000
#014350:00000000005400000000000000000000
#014391:000000000000000000000000000000000000000000000000000000000000000000000000000000000000000000000000120000535300000055000000540000005500000053530000220000000000000000000000000000000000000000000000000000000000000000000000000000000000000000000000000000000000000000000000000000000000000000000000000000000000000000000000000000000000000000000000000000000000000000000000000000000000000000000000
#014351:0000000012220000
#014341:000000000000000000000000000000000000000000000000000000000000000000000000000000000000000000000000000000000000000000000000000000000000000000000000000000000000000000000000000000000000000000000000000000535300000000000000000000000000000053530000000000000000000000000000000000000000000000000000000000000000000000000000000000000000000000000000000000000000000000000000000000000000000000000000
#014321:000000000000000000000000005555000000000000000000
#014331:00000000000000000054000000000000
#014370:000000000000000000000000000000000000000000000000000000000000000000000000000000000000000000000000000000000000000000000000000000000000000000000000000000000000000000000000000000000000000000000000120000535300000055000000540000005500000053530000220000000000000000000000000000000000000000000000000000000000000000000000000000000000000000000000000000000000000000000000000000000000000000000000
#014370:0000000000001222
#014360:000000000000000000000000000000000000000000000000000000000000000000000000000000000000000000000000000000000000000000000000000000000000000000000000000000000000000000000000000000000000000000000000000000000000000000000000000000000000000000000000000000000000000000000000000000000000000000000000000000535300000000000000000000000000000053530000000000000000000000000000000000000000000000000000
#014340:000000000000000000000000000000000000005555000000
#014350:00000000000000000000000000540000
#014391:000000000000000000000000000000000000000000000000000000000000000000000000000000000000000000000000000000000000000000000000000000000000000000000000000000000000000000000000000000000000000000000000000000000000000000000000000000000000000000000000000000000000000000000000000000000000000000000000120000535300000055000000540000005500000053530000220000000000000000000000000000000000000000000000
#016341:12220000000000000000000000000000
#016331:000054540000000000545400000000000000000000000000000000000000000000000000000000000000000000000000000000000000000000000000000000000000000000000000000000000000000000000000000000000000000000000000000000000000000000000000000000000000000000000000000000000000000000000000000000000000000000000000000000000000000000000000000000000000000000000000000000000000000000000000000000000000000000000000
#016321:0056000000000000000000000000000000000000000000000000000000000000
#0163a0:00122200000000000000000000000000
#016390:000000000000000000000000000054540000000000545400000000000000000000000000000000000000000000000000000000000000000000000000000000000000000000000000000000000000000000000000000000000000000000000000000000000000000000000000000000000000000000000000000000000000000000000000000000000000000000000000000000000000000000000000000000000000000000000000000000000000000000000000000000000000000000000000
#016380:0000005600000000000000000000000000000000000000000000000000000000
#016351:00001222000000000000000000000000
#016341:000000000000000000000000000000000000000000000000000054540000000000545400000000000000000000000000000000000000000000000000000000000000000000000000000000000000000000000000000000000000000000000000000000000000000000000000000000000000000000000000000000000000000000000000000000000000000000000000000000000000000000000000000000000000000000000000000000000000000000000000000000000000000000000000
#016331:0000000000560000000000000000000000000000000000000000000000000000
#016390:00000012220000000000000000000000
#016380:000000000000000000000000000000000000000000000000000000000000000000000000000054540000000000545400000000000000000000000000000000000000000000000000000000000000000000000000000000000000000000000000000000000000000000000000000000000000000000000000000000000000000000000000000000000000000000000000000000000000000000000000000000000000000000000000000000000000000000000000000000000000000000000000
#016370:0000000000000056000000000000000000000000000000000000000000000000
#016341:00000000122200000000000000000000
#016331:000000000000000000000000000000000000000000000000000000000000000000000000000000000000000000000000000054540000000000545400000000000000000000000000000000000000000000000000000000000000000000000000000000000000000000000000000000000000000000000000000000000000000000000000000000000000000000000000000000000000000000000000000000000000000000000000000000000000000000000000000000000000000000000000
#016321:0000000000000000005600000000000000000000000000000000000000000000
#0163a0:00000000001222000000000000000000
#016390:000000000000000000000000000000000000000000000000000000000000000000000000000000000000000000000000000000000000000000000000000054540000000000545400000000000000000000000000000000000000000000000000000000000000000000000000000000000000000000000000000000000000000000000000000000000000000000000000000000000000000000000000000000000000000000000000000000000000000000000000000000000000000000000000
#016380:0000000000000000000000560000000000000000000000000000000000000000
#016351:00000000000012220000000000000000
#016341:000000000000000000000000000000000000000000000000000000000000000000000000000000000000000000000000000000000000000000000000000000000000000000000000000054540000000000545400000000000000000000000000000000000000000000000000000000000000000000000000000000000000000000000000000000000000000000000000000000000000000000000000000000000000000000000000000000000000000000000000000000000000000000000000
#016331:0000000000000000000000000056000000000000000000000000000000000000
#016390:00000000000000122200000000000000
#016380:000000000000000000000000000000000000000000000000000000000000000000000000000000000000000000000000000000000000000000000000000000000000000000000000000000000000000000000000000054540000000000545400000000000000000000000000000000000000000000000000000000000000000000000000000000000000000000000000000000000000000000000000000000000000000000000000000000000000000000000000000000000000000000000000
#016370:0000000000000000000000000000005600000000000000000000000000000000
#016341:00000000000000001222000000000000
#016331:000000000000000000000000000000000000000000000000000000000000000000000000000000000000000000000000000000000000000000000000000000000000000000000000000000000000000000000000000000000000000000000000000054540000000000545400000000000000000000000000000000000000000000000000000000000000000000000000000000000000000000000000000000000000000000000000000000000000000000000000000000000000000000000000
#016321:0000000000000000000000000000000000560000000000000000000000000000
#0163a0:00000000000000000012220000000000
#016390:000000000000000000000000000000000000000000000000000000000000000000000000000000000000000000000000000000000000000000000000000000000000000000000000000000000000000000000000000000000000000000000000000000000000000000000000000054540000000000545400000000000000000000000000000000000000000000000000000000000000000000000000000000000000000000000000000000000000000000000000000000000000000000000000
#016380:0000000000000000000000000000000000000056000000000000000000000000
#016360:00000014
#016320:0000000000000024
#0163b1:0000000000001222
#016391:00000000000000000000000000520000
#017361:0014000000000000
#0173a1:00240000
#017330:0012220000000000
#017350:00000052000000000000000000000000
#0173b0:00000013
#018370:33
#0183b0:00230000
#018321:1232000000000000000000000000000000000000000000000000000000000000
#018331:0000323200000000000000000000000000000000000000000000000000000000
#018341:0000000032320000000000000000000000000000000000000000000000000000
#018351:0000000000003232000000000000000000000000000000000000000000000000
#018361:00220000
#019361:14
#019341:00340000000000000000000000000000
#019321:0024000000000000
#019361:00140000
#019381:00000000003400000000000000000000
#0193a1:0000002400000000
#019321:0014
#019341:00000000000000000034000000000000
#019361:0000000000240000
#0193a1:00000014
#019381:00000000000000000000000000340000
#019361:0000000000000024
#020321:1356535633565356230000000000000000000000000000000000000000000000
#0203b1:00000000000000001353335323000000
#020381:0000000000000000000000000000000000560056005600560000000000000000
#021341:12525252525222000000000000000000
#021331:00540054005400540054005400540054005400540054005400000000000000000000000000000000000000000000000000000000000000000000000000000000
#021321:0056005600560056005600560000000000000000000000000000000000000000
#0213a0:12525252525222000000000000000000
#021390:00540054005400540054005400540054005400540054005400000000000000000000000000000000000000000000000000000000000000000000000000000000
#021380:0056005600560056005600560000000000000000000000000000000000000000
#022360:14000052000000000000000000000000
#022370:000052000000000000000000000000000000000000000000000000000000000000000000000000000000000000000000000000000000000000000000000000000000000000000000000000000000000000000000000000000000000000000000000000000000000000000000000000000000000000000000000000000000000000000000000000000000000000000000000000000000000000000000000000000000000000520000000000000000000000000000000000000000000000000000000000000000000000000000000000000000520000000000000000000000000000000000000000000000000000000000220000000000000000000000000000000000000000000000000000000000000000000000000000000000000000000000000000000000000000000000000000000000000000000000000000000000000000000000000000000000000000000000000000000000000000000000000000000000000000000000000000000000000000000000000000000000000000000000000000000000000000000000000000000000000000000000000000000000000000000000000000000000000000000000000000000000000000000000000000000000000000000000000000000000000000000000000000000000000000000000000000000000000000000000000000000000000000000000000000000000000000000000000000000000000000000000000000000000000000000000000000000000000000000000000000000000000000000000000000000000000000000000000000000000000000000000000000000000000000000000000000000000000000000000000000000000000000000000000000000000000000000000000000000000000000000000000000000000000000000000000000000000000000000000000000000000000000000000000000000000000000000000000000000000000000000000000000000000000000000000000000000000000000000000000000000000000000000000000000000000000000000000000000000000000000000000000000000000000000000000000000000000000000000000000000000000000000000000000000000000000000000000000000000000000000000000000000000000000000000000000000000000000000000000000000000000000000000000000000000000000000000000000000000000000000000000000000000000000000000000000000000000000000000000000000000000000000000000000000000000000000000000000000000000000000000000000000000000000000000000
#022380:00000000000000000000000000520000000000000000000000000000000000000000000000000000000000000000000000000000000000000000000000000000
#022321:14000052000000000000000000000000
#022331:000052000000000000000000000000000000000000000000000000000000000000000000000000000000000000000000000000000000000000000000000000000000000000000000000000000000000000000000000000000000000000000000000000000000000000000000000000000000000000000000000000000000000000000000000000000000000000000000000000000000000000000000000000000000000000520000000000000000000000000000000000000000000000000000000000000000000000000000000000000000520000000000000000000000000000000000000000000000000000000000220000000000000000000000000000000000000000000000000000000000000000000000000000000000000000000000000000000000000000000000000000000000000000000000000000000000000000000000000000000000000000000000000000000000000000000000000000000000000000000000000000000000000000000000000000000000000000000000000000000000000000000000000000000000000000000000000000000000000000000000000000000000000000000000000000000000000000000000000000000000000000000000000000000000000000000000000000000000000000000000000000000000000000000000000000000000000000000000000000000000000000000000000000000000000000000000000000000000000000000000000000000000000000000000000000000000000000000000000000000000000000000000000000000000000000000000000000000000000000000000000000000000000000000000000000000000000000000000000000000000000000000000000000000000000000000000000000000000000000000000000000000000000000000000000000000000000000000000000000000000000000000000000000000000000000000000000000000000000000000000000000000000000000000000000000000000000000000000000000000000000000000000000000000000000000000000000000000000000000000000000000000000000000000000000000000000000000000000000000000000000000000000000000000000000000000000000000000000000000000000000000000000000000000000000000000000000000000000000000000000000000000000000000000000000000000000000000000000000000000000000000000000000000000000000000000000000000000000000000000000000000000000000000000000000000000000000000000000000000000000
#022341:00000000000000000000000000520000000000000000000000000000000000000000000000000000000000000000000000000000000000000000000000000000
#022361:00000000000000000000000000000000000000000000000000000000000000001400000000000000000000000052000000000000000000000000000000000000
#022371:000000000000000000000000000000000000000000000000000000000000000000000000000000000000000000000000000000000000000000000000000000000000000000000000000000000000000000000000000000000000000000000000000000000000000000000000000000000000000000000000000000000000000000000000000000000000000000000000000000000000000000000000000000000000000000000000000000000000000000000000000000000000000000000000000000000000000000000000000000000000000000000000000000000000000000000000000000000000000000000000000000000000000000000000000000000000000000000000000000000000000000000000000000000000000000000000000000000000000000000000000000000000000000000000000000000000000000000000000000000000000000000000000000000000000000000000000000000000000000000000000000000000000000000000000000000000000000000000000000000000000000000000000000000000000000000000000000000000000000000000000000000000000000000000000000000000000000000000000000000000000000000000000000000000000000000000000000000000000000000000000052000000000000000000000000000000000000000000000000000000000000000000000000000000000000000000000000000000000000000000000000000000000000000000000000000000000000000000000000000000000000000000000000000000000000000000000000000000000000000000000000000000000000000000000000000000000000000000000000000000000000000000000000000000000000520000000000000000000000000000000000000000000000000000000000000000000000000000000000000000520000000000000000000000000000000000000000000000000000000000220000000000000000000000000000000000000000000000000000000000000000000000000000000000000000000000000000000000000000000000000000000000000000000000000000000000000000000000000000000000000000000000000000000000000000000000000000000000000000000000000000000000000000000000000000000000000000000000000000000000000000000000000000000000000000000000000000000000000000000000000000000000000000000000000000000000000000000000000000000000000000000000000000000000000000000000000000000000000000000000
#022381:00000000000000000000005200000000
#0223a0:00000000000000000000000000000000000000000000000000000000000000001400000000000000000000000052000000000000000000000000000000000000
#0223b0:000000000000000000000000000000000000000000000000000000000000000000000000000000000000000000000000000000000000000000000000000000000000000000000000000000000000000000000000000000000000000000000000000000000000000000000000000000000000000000000000000000000000000000000000000000000000000000000000000000000000000000000000000000000000000000000000000000000000000000000000000000000000000000000000000000000000000000000000000000000000000000000000000000000000000000000000000000000000000000000000000000000000000000000000000000000000000000000000000000000000000000000000000000000000000000000000000000000000000000000000000000000000000000000000000000000000000000000000000000000000000000000000000000000000000000000000000000000000000000000000000000000000000000000000000000000000000000000000000000000000000000000000000000000000000000000000000000000000000000000000000000000000000000000000000000000000000000000000000000000000000000000000000000000000000000000000000000000000000000000000000052000000000000000000000000000000000000000000000000000000000000000000000000000000000000000000000000000000000000000000000000000000000000000000000000000000000000000000000000000000000000000000000000000000000000000000000000000000000000000000000000000000000000000000000000000000000000000000000000000000000000000000000000000000000000520000000000000000000000000000000000000000000000000000000000000000000000000000000000000000520000000000000000000000000000000000000000000000000000000000220000000000000000000000000000000000000000000000000000000000000000000000000000000000000000000000000000000000000000000000000000000000000000000000000000000000000000000000000000000000000000000000000000000000000000000000000000000000000000000000000000000000000000000000000000000000000000000000000000000000000000000000000000000000000000000000000000000000000000000000000000000000000000000000000000000000000000000000000000000000000000000000000000000000000000000000000000000000000000000000
#0223c0:00000000000000000000005200000000
#023380:15
#0233a0:005200520052005200520052005200520052005200520052005200520052005200520051210000000000000000000000000000000000000000000000000000000000000000000000000000000000000000000000000000000000000000000000
#023390:005252525252525252525252525252525252000000000000000000000000000000000000000000000000000000000000
#023331:15
#023351:005200520052005200520052005200520052005200520052005200520052005200520051210000000000000000000000000000000000000000000000000000000000000000000000000000000000000000000000000000000000000000000000
#023341:005252525252525252525252525252525252000000000000000000000000000000000000000000000000000000000000
#0243c1:12000000000000000000000000000052000000000000000000000000000000000000000000520000000000000000000022000000000000000000000000000000
#024381:00000000000000000000000000000000000000000056000000000000000000000000000000000000000000000000000000000000000000000000000000000000
#024391:00000000000000000000000000000000000000000000000000550000000000000000000000000000000000000000000000000000000000000000000000000000
#024320:00000000000014342400000000000000
#024320:00000000000000000000000000000000000000000000000000000000000000000000000000000000000000000000000012000000000000000000000000000052
#025320:00000000005600000055000000000000000000000052000000000000000000002200000000000000000000000000000000000000000000000000000000000000
#0253a1:00000000000014342400000000000000
#0253a1:00000014
#026361:24
#029341:00140024
#029321:00000000000000000000000000000000005600560056005600560056005600560056005600560056005600560056005600000000000000000000000000000000
#029361:0000000000000000003232323232323232323232323232320000000000000000
#029380:00000000000000000000000000000000145632563256325632563256325632563256325632563256325632563256325624000000000000000000000000000000
#031370:13
#0313b0:0023000000000000
#031370:00000013000000000000000000000000
#0313b0:00000000002300000000000000000000
#033360:13
#033320:0023000000000000
#033360:00000013000000000000000000000000
#033320:00000000002300000000000000000000
#034370:00000013000000002300000000000000
#0343b0:0000003300000000
#034361:0000001300000000
#034321:0023
#034361:00000013
#034321:0000000000000033
#035361:23
#034370:0000000000000013
#0353b0:23
#0353a0:00142400
#035360:0000003400000000
#035321:00142400
#035361:000000000000000000000000000000000000000000000000000000000000000000000000000000000000000000000000000000000000000000000000000000000000000000000000005400000000000000000000000000000000000000000000000000000000000000000000000000000000000000000000000000000000000000000000000000000000000000000000000000000000000000000000000000000000000000000000000000000000000000000000000000000000000000000000
#035381:00000000000000000000000000001656
#035391:0000000000000000000000000000000000000000000000000000000000540054
#036381:26
#036321:00000000000016562600000000000000
#036331:0000000000000000000000000054005400000000000000000000000000000000
#036381:00000000000000000000000000001656
#036391:0000000000000000000000000000000000000000000000000000000000540054
#037381:26
#038361:14240000
#0383a1:0034000000000000
#038320:00142400
#038360:0000003400000000
#0393b0:13
#039370:0023000000000000
#039370:0000001300000000
#0393b0:0023
#040360:14240000
#040320:0034000000000000
#0403a1:00142400
#040361:0000003400000000
#041321:13
#041361:0023000000000000
#041361:0000001300000000
#041321:0023
#041331:00000000000000000000000000001254
#042331:22
#0413b0:0000000000000012
#041390:00000000000000000000000000000054
#0423b0:22
#042340:000000000000000000000000000000000000000000000000000000000000000000000000000000000000000000000000000000000000000000000000000000000000000000000000000000000000000000000000000000000000000000000000000000000000000000000000000000000000000000000000000000000000000000000000000000000000000000000000000000000000000000000000000000000000000000000000000000000000000000000000000000000000000000000000000000000000000000000000000000000000000000000000000000000000000000000000000000000000000000000000140000000000000000000000000000000000000000000000000000000000000000000000000000000000000000000000000000000000000000000000000000000000000000000000000000000000000000000000000000000000000000000000000000000000000000000000000000000000000000000054000000000000000000000000000000000000000000000000000000000000000000000000000000000000000000000000000000000000000000000000000000000000000000000000000000000000000000000000000000000000000000000000000000000000000000000000000000000000000000000000000000000000000000000000000000000000000000000000000000000000000000000000000000000000000000000000000000000000000000000000000000000000000000000000000000000000000000000000000000000000000000000000000000000000000000000000000000000000000000000000000000000000000000000000000000000000000000000000000000000000000000000000000000000000000000000000000000000000000000000000000000000000000000000000000000000000000000000000000000000000000000000000000000000000000000000000000000000000000000000000000000000000000000000000000000000000000000000000000000000000000000000000000000000000000000000000000000000000000000000000000000000000000000000000000000000000000000000000000000000000000000000000000000000000000000000000000000000000000000000000000000000000000000000000000000000000000000000000000000000000000000000000000000000000000000000000000000000000000000000000000000000000000000000000000000000000000000000000000000000000000000000000000000000000000000000000000000000000000000000000000000000000000000000000000000000000000000000000000000000000000000000000000000000000000000000000000000000000000000000000000000000000000000000000000000000000000000000000000000000000000000000000000000000000000000000000000000000000000000000000000000000000000000000000000000000000000000000000000000000000000000000000000000000000000000000000000000000000000000000000000000000000000000000000000000000000000000000000000000000000000000000000000000000000000000000000000000000000000000000000000000000000000000000000000000000000000000000000000000000000000000000000000000000000000000000000000000000000000000000000000000000000000000000000000000000000000000000000000000000000000000000000000000000000000000000000000000000000000000000000000000000000000000000000000000000000000000000000000000000000000000000000000000000000000000000000000000000000000000000000000000000000000000000000000000000000000000000000000000000000000000000000000000000000000000000000000000000000000000000000000000000000000000000000000000000000000000000000000000000000000000000000000000000000000000000000000000000000000000000000000000000000000000000000000000000000000000000000000000000000000000000000000000000000000000000000000000000000000000000000000000000000000000000000000000000000000000000000000000000000000000000000000000000000000000000000000000000000000000000000000000000000000000000000000000000000000000000000000000000000000000000000000000000000000000000000000000000000000000000000000000000000000000000000000000000000000000000000000000000000000000000000000000000000000000000000000000000000000000000000000000000000000000000000000000000000000000000000000000000000000000000000000000000000000000000000000000000000000000000000000000000000000000000000000000000000000000000000000000000000000000000000000000000000000000000000000000000000000000000000000000000000000000000000000000000000000000000000000000000000000000000000000000000000000000000000000000000000000000000000
#042320:000000000000000000000000000000000000000000000000000000000000000000000000000000000000000000000000000000000000000000000000000000000000000000000000000000000000000000000000000000000000000000000000000000000000000000000000000000000000000000000000000000000000000000000000000000000000000000000000000000000000000000000000000000000000000000000000000000000000000000000000000000000000000000000000000000000000000000000000000000000000000000000000000000000000000000000000000000000000000000000000000000000000000000000000000000000000000000000000000000000000000000000000000000000000000000000000000000000000000000000000000000000000000000000000000000000000000000000000000000000000000000000000000000000000000000000000000000000000000000000000565400000000000000000000000000000000000000000000000000000000000000000000000000000000000000000000000000000000000000000000000000000000000000000000000000000000000000000000000000000000000000000000000000000000000000000000000000000000000000000000240000000000000000000000000000000000000000000000000000000000000000000000000000000000000000000000000000000000000000000000000000000000000000000000000000000000000000000000000000000000000000000000000000000000000000000000000000000000000000000000000000000000000000000000000000000000000000000000000000000000000000000000000000000000000000000000000000000000000000000000000000000000000000000000000000000000000000000000000000000000000000000000000000000000000000000000000000000000000000000000000000000000000000000000000000000000000000000000000000000000000000000000000000000000000000000000000000000000000000000000000000000000000000000000000000000000000000000000000000000000000000000000000000000000000000000000000000000000000000000000000000000000000000000000000000000000000000000000000000000000000000000000000000000000000000000000000000000000000000000000000000000000000000000000000000000000000000000000000000000000000000000000000000000000000000000000000000000000000000000000000000000000000000000000000000000000000000000000000000000000000000000000000000000000000000000000000000000000000000000000000000000000000000000000000000000000000000000000000000000000000000000000000000000000000000000000000000000000000000000000000000000000000000000000000000000000000000000000000000000000000000000000000000000000000000000000000000000000000000000000000000000000000000000000000000000000000000000000000000000000000000000000000000000000000000000000000000000000000000000000000000000000000000000000000000000000000000000000000000000000000000000000000000000000000000000000000000000000000000000000000000000000000000000000000000000000000000000000000000000000000000000000000000000000000000000000000000000000000000000000000000000000000000000000000000000000000000000000000000000000000000000000000000000000000000000000000000000000000000000000000000000000000000000000000000000000000000000000000000000000000000000000000000000000000000000000000000000000000000000000000000000000000000000000000000000000000000000000000000000000000000000000000000000000000000000000000000000000000000000000000000000000000000000000000000000000000000000000000000000000000000000000000000000000000000000000000000000000000000000000000000000000000000000000000000000000000000000000000000000000000000000000000000000000000000000000000000000000000000000000000000000000000000000000000000000000000000000000000000000000000000000000000000000000000000000000000000000000000000000000000000000000000000000000000000000000000000000000000000000000000000000000000000000000000000000000000000000000000000000000000000000000000000000000000000000000000000000000000000000000000000000000000000000000000000000000000000000000000000000000000000000000000000000000000000000000000000000000000000000000000000000000000000000000000000000000000000000000000000000000000000000000000000000000000000000000000000000000000000000000000000000000000000000000000000000000000000000000000000000000
#0423a1:000000000000000000000000000000000000000000000000000000000000000000000000000000000000000000000000000000000000000000000000000000000000000000000000000000000000000000000000000000000000000000000000000000000000000000000000000000000000000000000000000000000000000000000000000000000000000000000000000000000000000000000000000000000000000000000000000000000000000000000000000000000000000000000000000000000000000000000000000000000000000000000000000000000000000000000000000000000000000000000000120000000000000000000000000000000000000000000000000000000000000000000000000000000000000000000000000000000000000000000000000000000000000000000000000000000000000000000000000000000000000000000000000000000000000000000000000000000000000000000000005200000000000000000000000000000000000000000000000000000000000000000000000000000000000000000000000000000000000000000000000000000000000000000000000000000000000000000000000000000000000000000000000000000000000000000000000000000000000000000000000000000000000000000000000000000000000000000000000000000000000000000000000000000000000000000000000000000000000000000000000000000000000000000000000000000000000000000000000000000000000000000000000000000000000000000000000000000000000000000000000000000000000000000000000000000000000000000000000000000000000000000000000000000000000000000000000000000000000000000000000000000000000000000000000000000000000000000000000000000000000000000000000000000000000000000000000000000000000000000000000000000000000000000000000000000000000000000000000000000000000000000000000000000000000000000000000000000000000000000000000000000000000000000000000000000000000000000000000000000000000000000000000000000000000000000000000000000000000000000000000000000000000000000000000000000000000000000000000000000000000000000000000000000000000000000000000000000000000000000000000000000000000000000000000000000000000000000000000000000000000000000000000000000000000000000000000000000000000000000000000000000000000000000000000000000000000000000000000000000000000000000000000000000000000000000000000000000000000000000000000000000000000000000000000000000000000000000000000000000000000000000000000000000000000000000000000000000000000000000000000000000000000000000000000000000000000000000000000000000000000000000000000000000000000000000000000000000000000000000000000000000000000000000000000000000000000000000000000000000000000000000000000000000000000000000000000000000000000000000000000000000000000000000000000000000000000000000000000000000000000000000000000000000000000000000000000000000000000000000000000000000000000000000000000000000000000000000000000000000000000000000000000000000000000000000000000000000000000000000000000000000000000000000000000000000000000000000000000000000000000000000000000000000000000000000000000000000000000000000000000000000000000000000000000000000000000000000000000000000000000000000000000000000000000000000000000000000000000000000000000000000000000000000000000000000000000000000000000000000000000000000000000000000000000000000000000000000000000000000000000000000000000000000000000000000000000000000000000000000000000000000000000000000000000000000000000000000000000000000000000000000000000000000000000000000000000000000000000000000000000000000000000000000000000000000000000000000000000000000000000000000000000000000000000000000000000000000000000000000000000000000000000000000000000000000000000000000000000000000000000000000000000000000000000000000000000000000000000000000000000000000000000000000000000000000000000000000000000000000000000000000000000000000000000000000000000000000000000000000000000000000000000000000000000000000000000000000000000000000000000000000000000000000000000000000000000000000000000000000000000000000000000000000000000000000000000000000000000000000000000000000000000000000000000000000000000000000000000000000000000000000000000000000000000000000000000000000000000000000000
#042381:000000000000000000000000000000000000000000000000000000000000000000000000000000000000000000000000000000000000000000000000000000000000000000000000000000000000000000000000000000000000000000000000000000000000000000000000000000000000000000000000000000000000000000000000000000000000000000000000000000000000000000000000000000000000000000000000000000000000000000000000005600000000000000000000000000000000000000000000000000000000000000000000000000000000000000000000000000000000000000000000260000000000000000000000000000000000000000000000000000000000000000000000000000000000000000000000000000000000000000000000000000000000000000000000000000000000000000000000000000000000000000000000000000000000000000000000000000000000000000000000000000000000000000000000000000000000000000000000000000000000000000000000000000000000000000000000000000000000000000000000000000000000000000000000000000000000000000000000000000000000000000000000000000000000000000000000000000000000000000000000000000000000000000000000000000000000000000000000000000000000000000000000000000000000000000000000000000000000000000000000000000000000000000000000000000000000000000000000000000000000000000000000000000000000000000000000000000000000000000000000000000000000000000000000000000000000000000000000000000000000000000000000000000000000000000000000000000000000000000000000000000000000000000000000000000000000000000000000000000000000000000000000000000000000000000000000000000000000000000000000000000000000000000000000000000000000000000000000000000000000000000000000000000000000000000000000000000000000000000000000000000000000000000000000000000000000000000000000000000000000000000000000000000000000000000000000000000000000000000000000000000000000000000000000000000000000000000000000000000000000000000000000000000000000000000000000000000000000000000000000000000000000000000000000000000000000000000000000000000000000000000000000000000000000000000000000000000000000000000000000
#0423a1:00000000000012522200000000000000
#042391:0000000000000000000000000054000000000000000000000000000000000000
#042381:0000000000000000000000000000005600000000000000000000000000000000
#042340:00000000000012522200000000000000
#042320:0000000000000000000000000056000000000000000000000000000000000000
#042330:0000000000000000000000000000005400000000000000000000000000000000
#042380:0000000000162600
#0423a0:00000000000000000000005200000000
#042341:0000000000122200
#042321:00000000000000000000005600000000
#043321:13
#043361:0023000000000000
#043371:00000013000000000000000000000000
#0433b1:00000000002300000000000000000000
#043361:0000001300230000
#043321:0053
#043370:0013
#0433b0:0000000000230000
#043370:00000013
#0433b0:0000000000000053
#044370:23
#043321:00000013
#043361:0000000000000023
#044321:1525
#044371:00530000
#045321:16
#045351:0026000000000000
#045331:0000001400000000
#045321:000000000000000000000000000000000000005600000000000000000000000000000000000000000000000000000000
#045341:0022
#045390:0000001400000000
#045380:000000000000000000000000000000000000005600000000000000000000000000000000000000000000000000000000
#0453a0:0022
#046380:1500550055005500550055005500550055555555555555555555555555555555
#046390:00005500000000000000550000000000000055000000000000005500000000000055000000550000005500000055000000550000005500000055000000550000
#046370:00000000000055000000000000005500000000000000550000000000000055000000005500000055000000550000005500000055000000550000005500000055
#047380:25
#046331:1500550055005500550055005500550055555555555555555555555555555555
#046341:00005500000000000000550000000000000055000000000000005500000000000055000000550000005500000055000000550000005500000055000000550000
#046321:00000000000055000000000000005500000000000000550000000000000055000000005500000055000000550000005500000055000000550000005500000055
#047331:25
#048371:0000001300000000
#0483b1:0023
#048320:0000001300000000
#048360:0023
#048360:00000013
#048320:0000000000000023
#0483b1:00000013
#048371:0000000000000023
#049361:14
#049321:0024000000000000
#049361:00140000
#0493a1:0000002400000000
#049321:0014
#049361:0000000000240000
#0493a1:00000000000000000000001400000000
#049361:0000000000000024
#050361:00120000
#050321:0000002200000000
#0503c0:00120000
#050380:0000002200000000
#051320:0012
#051370:0000000000220000
#051370:00000000000000000000001200000000
#051320:0000000000000022
#0523c0:0012
#052370:0000000000220000
#052370:00000000000000000000001200000000
#0523c0:0000000000000022
#053350:0000000013535353
#053330:00000000000000000053000000530000
#053370:00000000000000000000005300000053
#054320:27
#054390:00000000145424000000000000000000
#054380:0000000000000000005600560000000000000000000000000000000000000000
#054330:00000000000000001454240000000000
#054320:0000000000000000000000000000000000560056000000000000000000000000
#055330:00000000145424000000000000000000
#055320:0000000000000000005600560000000000000000000000000000000000000000
#055390:00000000000000001454240000000000
#055380:0000000000000000000000000000000000560056000000000000000000000000
#057340:125252525252525252220000000000000000000000000000
#057330:005400540054005400540054005400540054005400540054005400540054005400540054000000000000000000000000000000000000000000000000000000000000000000000000000000000000000000000000000000000000000000000000
#057320:005600560056005600560056005600560056000000000000000000000000000000000000000000000000000000000000
#0573a1:125252525252525252220000000000000000000000000000
#057391:005400540054005400540054005400540054005400540054005400540054005400540054000000000000000000000000000000000000000000000000000000000000000000000000000000000000000000000000000000000000000000000000
#057381:005600560056005600560056005600560056000000000000000000000000000000000000000000000000000000000000
#057361:0014
#057321:000000000000002c
