This file was generated by Ched 2.7.0.0.
#TITLE ""
#ARTIST ""
#DESIGNER ""
#DIFFICULTY 0
#PLAYLEVEL
#SONGID ""
#WAVE ""
#WAVEOFFSET 0
#JACKET ""
#REQUEST "ticks_per_beat 480"
#00002: 4
#BPM01: 132
#00008: 01
#TIL00: ""
#HISPEED 00
#MEASUREHS 00
#01218:0014
#01214:00140000
#01212:00000014
#0121a:24
#01318:14
#01314:00140000
#0131a:0014
#04812:16
#04818:0016
#04810:41
#05019:24140000
#05013:00001414
#0511a:14001414
#05114:00140000
#05212:14001414
#05218:00140000
#0161a:14
#01617:0014
#01714:00000014
#01918:14
#01914:00140000
#0191a:0014
#01912:00000014
#02912:16
#05512:16
#05518:00000016
#00718:0014
#00712:00000014
#00714:00140000
#0061a:00000014
#00614:0014
#00618:00140000
#00610:41
#00518:0014
#00512:00140014
#0041a:00140014
#00414:0014
#01414:0014
#01418:00140000
#0141a:00000014
#01412:14
#01410:41
#01514:14
#01518:00140000
#01512:0014
#01818:14
#01812:00140000
#0181a:0014
#0201a:14
#02018:0014
#0211a:14
#02212:14
#02214:0014
#02210:41
#02312:14
#0261a:14
#02618:0014
#02614:14
#02612:0014
#02714:0014
#0271a:2414
#02712:24
#03118:14
#03114:00140000
#0311a:0014
#03112:0014
#03110:41
#03418:14
#03414:00140000
#0341a:0014
#03412:00000014
#03518:14
#03514:00140000
#0351a:0014
#03512:0014
#04219:1515
#04217:00150000
#04615:0016
#04618:26
#04912:16
#04915:0000001600000000
#05317:00000014
#0531a:2424
#05314:00240000
#05412:00000016
#05618:16
#05619:0014
#05613:0014
#05714:18
#05716:0014
#05713:000000000000002a
#03314:14
#03318:00140000
#03312:0014
#0331a:0014
#03914:14
#03918:00140000
#03912:0014
#0391a:0014
#04118:14
#04114:00140000
#0411a:0014
#04112:0014
#03818:00260014
#03812:2626
#04014:00000014
#04018:2626
#04012:00260000
#04010:41
#02418:14
#0241f:11
#02514:14
#0371a:14
#03718:00340000
#03614:0014
#03618:14
#04312:1515
#04314:00150015
#04412:15
#04415:00150000
#03018:2626
#03012:00260000
#0301f:21
#0001a:24
#00017:0000002400000000
#00014:00000024
#00212:24
#00215:0000002400000000
#00218:00000024
#04518:26
#04512:0026
#03212:2626
#03218:00260000
#0281a:24
#02812:24
#0175a:14
#01657:0024
#0165a:54
#0215a:54
#02158:0014
#02058:0054
#0205a:54
#02252:64
#02254:0064
#02352:64
#02354:0014
#04259:6565
#04257:00650000
#04758:16
#04955:0000002600000000
#04952:56
#04655:0026
#04658:56
#0535a:0054
#05357:00000024
#0545a:14
#05552:16
#05658:16
#05753:000000000000001a
#05754:58
#05756:0054
#03058:1616
#03052:00160000
#03252:1616
#03258:00160000
#03852:1616
#03858:00160000
#04058:1616
#04052:00160000
#02554:54
#02458:54
#0375a:54
#03654:0054
#03658:54
#04352:5555
#04354:00550055
#04452:55
#04455:00250000
#008380:00140000
#008390:0034
#0083a0:00000024
#009340:00140000
#009330:0034
#009320:00000024
#010380:00140024
#0103a0:0034
#011340:1434
#011320:00340024
#0163a0:14
#016370:0054
#0173a0:24
#0203a0:14
#020380:0034
#0213a0:34
#021380:0024
#022320:14
#022340:0034
#023320:34
#023340:0024
#024380:14
#0243a0:0024
#025340:14
#025320:0024
#029380:00160000
#030380:26
#036380:14
#0363a0:00240000
#036340:0014
#036320:00000024
#0373a0:14
#037380:00340000
#037370:0024
#042390:1535
#042370:00350025
#043320:1535
#043340:00350035
#044320:3525
#044350:00550000
#046380:16
#046350:0056
#047380:26
#049320:16000026
#049350:0000005600000000
#0533a0:0014
#053370:00000034
#0543a0:24
#057340:18
#057360:0034
#057330:000000000000002a
