This file was generated by Ched 2.7.0.0.
#TITLE ""
#ARTIST ""
#DESIGNER ""
#DIFFICULTY 0
#PLAYLEVEL
#SONGID ""
#WAVE ""
#WAVEOFFSET 0
#JACKET ""
#REQUEST "ticks_per_beat 480"
#00002: 4
#BPM01: 143
#00008: 01
#TIL00: ""
#HISPEED 00
#MEASUREHS 00
#0081a:0014
#00912:0014
#01018:0014
#01618:0014
#01718:0014
#0261a:0014
#02712:0014
#02710:0041
#04512:0016
#04518:16
#04812:16
#04818:0016
#04810:0041
#04718:0016
#04712:16
#04618:16
#04612:0016
#04912:0016
#04918:16
#05012:16
#05212:0014
#05318:0014
#05414:0014
#0551a:0014
#00313:0014
#00213:0014
#00119:0014
#00019:0014
#01114:0014
#0121a:0014
#01210:0041
#0131a:0014
#01414:0014
#01514:0014
#01812:0014
#01912:0014
#0201a:0014
#02010:0041
#02114:0014
#02218:0014
#02312:0014
#02418:0014
#02514:0014
#03818:16
#03810:0041
#03918:0016
#04118:0016
#04412:16
#04418:0026
#03014:0014
#0311a:0014
#03418:0014
#03512:0014
#03712:0016
#04012:16
#04218:16
#04312:0016
#06012:0014
#0611a:0014
#06214:0014
#0281f:0011
#03618:0026
#0361f:0021
#00410:0041
#004390:0014
#005390:0024
#006330:0014
#007330:0024
#0283a0:0014
#0293a0:0024
#032320:0014
#033320:0024
#036380:0016
#037380:26
#038320:0016
#039320:26
#040380:0016
#041380:26
#042320:0016
#043320:26
#050380:0016
#051380:3636
#052380:26
#056330:0014
#057330:0024
#058390:0014
#059390:0024
#063380:0014
#064380:00240000
