This file was generated by Ched 2.7.0.0.
#TITLE ""
#ARTIST ""
#DESIGNER ""
#DIFFICULTY 0
#PLAYLEVEL
#SONGID ""
#WAVE ""
#WAVEOFFSET 0
#JACKET ""
#REQUEST "ticks_per_beat 480"
#00002: 4
#BPM01: 143
#00008: 01
#TIL00: ""
#HISPEED 00
#MEASUREHS 00
#00412:1213
#00416:00000013
#00419:00120000
#00410:0041
#00516:0013
#00514:00000000000000000000001300000000
#00512:0000000000000013
#00812:0000000000000013
#00815:00002313
#00818:00000000000000000000001300001300
#0081b:0023
#0121b:0000000000130000
#01215:00000013
#01219:0000000000000013
#01217:13
#01216:00130000
#01212:13
#01214:0013000000000000
#01210:0041
#01412:1300000000130000
#01418:00130000000000000000000000000000
#01414:0013000000000000
#0141a:00000013000000000000000000000000
#01416:00130000
#0141b:00000013
#01313:13
#0131b:0000131300000013
#01317:0013000000000000
#01315:00000000001300000000000013000000
#01318:0000000000130000
#01512:0000130000130000
#0151b:0013000000001300
#01515:0000000000000013
#01618:13
#01612:0013000000001300
#0161b:00130000
#01617:0000000000130000
#01619:0000000000000013
#0201b:0013000013001300
#02016:0000000000130013
#02015:13
#02012:00130013
#02010:0041
#0211b:13
#02112:0013001300000000
#02117:00000013000000130000000000000000
#02114:0013
#02119:00000000000000000013000000000000
#02116:0000000000130013
#02212:13001313
#0221b:0000001300001300
#02217:0000000013130013
#02218:0013000000000000
#0261b:0000001300001300
#02618:00130000000000000000000000001300
#02612:1313
#02617:0013
#02615:00000013
#02718:1300001300000000
#02715:0013130000000000
#0271b:00130000
#02712:13
#02716:00001414
#02710:0041
#0281b:00130013
#02815:00000000001300000000000000000000
#02818:0000001313000000
#02812:0013
#02816:14
#0281f:0011
#02917:0000130000000013
#02912:1300000000000023
#02916:0013000023000000
#02914:00000000000000000000001300000000
#02919:00000000000000000000002300000000
#03016:13
#0301b:1313
#03012:00000013
#03015:0013
#03017:00130000
#03112:0000130000000013
#03115:00000000000013000013000000000000
#0311b:1313
#03117:0013000000000000
#03212:1313
#03218:00130000000000000000000000000000
#0321b:0000001300000000
#03217:0013
#03216:00000013
#03512:00001300000000001300001300000000
#0351b:0000130000000013
#03515:13
#03517:00000000000000000000001300000000
#03516:0000000000000013
#03612:13
#03618:0013000000000000
#03615:00130000
#0361b:0000001323000000
#03616:0023
#0361f:0021
#0371b:1300001300130000
#03717:00001300000000000000000000130000
#03714:00000013
#03712:00000013000000000000000000001300
#03716:1300000000230000
#0381b:0013000000000000
#03819:00130000
#03816:00000013000000000000000000000000
#03817:0000002323000000
#03812:2323
#03810:0041
#0501b:0013
#05017:23000013
#05012:0013000023000013
#05016:00130000
#05014:0000001300000000
#05019:0000002300000000
#0511b:0013001300001300
#05116:00130000
#05112:0000000000130000
#05115:0000000000000013
#05212:14
#0521b:00000013
#05218:14
#0521a:00140000
#05214:00140000
#05217:0023
#05317:0013001300000000
#0531b:00130000
#05316:0000000000130000
#05318:0000000000000013
#0541b:1313
#05415:00000000000000000013000000000000
#05412:00130013
#05418:00000000001300000000000000130000
#0551b:13000000000000130000000000000000
#05515:00130000000000000000000000000000
#05519:0013000000000000
#05513:00000013000000000000000000000000
#05517:00130000
#05516:00000013
#05512:0000000000130000
#0551a:00000000000000000000001300000000
#05612:13
#0561b:000000000000130000000000000000000000000000000033
#05613:000000000000000000000000003333000000000000000000
#05614:000000000000000000000000000000333300000000000000
#05615:000000000000000000000000000000000033000000000000
#05619:000000000000000000000000000000000000003333000000
#0561a:000000000000000000000000000000000000000000333300
#05917:00000013
#06012:13130000
#06015:0013000000000000
#06016:0012
#0601c:00000000000000000012000000000000
#06014:00000000000000000000001200000000
#06018:0000000000000012
#00015:0012
#00018:00000000000000000000001200001200
#00116:0012
#0011a:00000000000000000012000000000000
#00114:00000000000000000000001200000000
#00118:0000000000000012
#0021c:12
#00215:00120000
#00219:0012
#00216:00000000000000000000001200001200
#00318:0012
#00314:00000000000000000012000000000000
#0031a:00000000000000000000001200000000
#00316:0000000000000012
#0181b:1300000000130000
#01812:00000013
#01818:0000000000000013
#01815:00130000000013000000000000000000
#01819:0013000000000000
#01813:00000013000000000000000000000000
#01817:00130000
#0191b:0000130000130000
#01912:00130000000000000000000013000000
#01918:0013000000000013
#01915:0000001300000000
#02312:13
#0231b:0013001300000000
#02316:00000013000000130000000000000000
#02319:0013
#02314:00000000000000000013000000000000
#02317:0000000000130013
#0241b:13001313
#02412:0000001300001300
#02415:00130000000000000000000000000000
#02416:0000000013130013
#0251b:13
#02512:0013001300000000
#02517:00000013000000130000000000000000
#02514:0013
#02519:00000000000000000013000000000000
#02516:0000000000130013
#03417:13000013
#03416:00131300
#0341b:0013
#03412:13
#03318:13
#0331b:0013000023000000
#03312:0000130000000013
#03319:00000000000000000000001300000000
#03314:00000000000000000000002300000000
#03317:0000000000000023
#06118:0012
#06114:00000000000000000012000000000000
#0611c:00000000000000000000001200000000
#06115:0000000000000012
#06119:0000000000000012
#06216:0012
#0621c:00000000000000000012000000000000
#06214:00000000000000000000001200000000
#06218:0000000000000012
#06318:0012
#06314:00000000000000000012000000000000
#0631c:00000000000000000000001200000000
#06315:0000000000000012
#06319:0000000000000012
#03912:1300001300130000
#03919:00000013
#0391b:00000013000000000000000000001300
#03917:1300000000130000
#03916:00001300000000000000000000130000
#04012:0013000000002300
#04014:00130000
#0401b:1323
#04017:00000013000000000000130000000000
#04015:0000000000000013
#04016:0000001323000000
#0411b:1300001300000013
#04118:0013000000000000
#04115:00000013000000000000000000000000
#04112:1300001300130000
#04119:00000013
#04117:0000000000230000
#0421b:2313000000002300
#04219:00130000
#04216:1300000000130000
#04212:0023
#04217:0000002323000000
#04312:1300001300000013
#04315:0013000000000000
#04318:00000013000000000000000000000000
#0431b:1300001300130000
#04314:00000013
#04316:0000000000130000
#04412:1313000000002400
#04414:00130000
#04417:13
#04416:0000001324000000
#0441a:0024
#04515:0013000000000000
#04518:00000013000000000000000000000000
#0451b:0000001300000000
#04516:0000001300230000
#04512:00000013
#04517:0000000000000013
#04616:0013000024000000
#04612:00132400
#04619:0000001300000000
#0461a:00000024
#0461b:23
#04614:0000002300000000
#04712:0000001300000000
#04717:0000001300130000
#0471b:00000013
#04716:0000000000000013
#04718:0013000000000000
#04715:00000013000000000000000000000000
#04812:1324
#04817:0013000000000000
#0481b:00130000
#04819:0000001300000000
#04814:0000001300000000
#0481a:0000000000000014
#04816:00002424
#04810:0041
#04915:0013000000000000
#0491b:00000013000013000000000000001300
#04916:0000001300001300
#04912:0000000000230000
#0061b:0013
#00617:00000013
#00717:0013
#00719:00000000000000000000001300000000
#0071b:0000000000000013
#00912:1300000000000013
#0091b:13000000130000001300001300000000
#00916:00000000000000000013001300000000
#01017:13000000000000000013001300000000
#01016:00130000
#01012:13000000000000001300001300000000
#0101b:0000000000000013
#01715:0000000000130000
#01718:0000001300001300
#01712:0000000000000013
#01714:1313130000000000
#0171b:00130013000000000000000000000000
#01116:1300000000000013
#01117:00130000
#0111b:13000000000000000000001300001300
#01118:0013
#01112:00000000000000000000001300000000
#01115:00000000000000000013000000000000
#05713:003333000000000000000000000000333300000000000000
#05714:000000333300000000000000003333000000000000000000
#05715:000000000033000000000000000000000000000000000000
#05719:000000000000003333000000000000000000000000333300
#0571a:000000000000000000333300000000000000003333000000
#0571b:000000000000000000000033000000000000000000000000
#05712:000000000000000000000000000000000033000000000000
#05718:000000000000000000000000000000000000000000000033
#0581a:000000000000003333000000000000000000000000000000
#05819:000000000000000000333300000000000000000000000000
#05818:000000000000000000000033000000000000000000000000
#05814:003333000000000000000000000000000000000000000000
#05813:000000333300000000000000000000000000000000000000
#05812:000000000033000000000000000000000000000000000000
#0165b:00530000
#02052:00630000
#01855:0000005300000000
#01858:0000000000000053
#01955:0000005300000000
#02157:00000013000000000000000000000000
#02356:00000013000000000000000000000000
#02557:00000013000000000000000000000000
#02852:0053
#0285b:00000063
#02952:53
#02956:0023000000000000
#02957:00530000
#03056:53
#0305b:0063
#03052:00130053
#0315b:63
#03157:0023000000000000
#03257:0063
#03256:00000053
#03457:63000063
#03456:0053
#0345b:00130000
#03358:63
#0335b:0023000000000000
#03352:00630000
#03555:53
#03552:0023000000000000
#0355b:00530000
#05957:00000053
#06052:00330000
#05557:00530000
#0555b:00000000000000230000000000000000
#05556:00000053
#05652:23
#0565b:00630000
#0545b:53
#05356:0000000000530000
#03656:0063
#0365b:0063
#03652:00000013
#03657:00000013
#03856:00000023000000000000000013000000
#03857:0053
#03852:5353
#0385b:00000013
#03757:00000000000000000000000000230000
#0375b:0000001300530000
#03752:00000053000000000000000000000000
#03952:0000001300630000
#03956:00000000000000000000000000230000
#0395b:00000063000000000000000000000000
#0405b:63006343
#04057:00000023000000000000230000000000
#04052:00000033
#04152:0000001300530000
#0415b:0000001300000000
#04256:2300000000230000
#04252:00005333
#0425b:00000043
#0435b:0000001300630000
#04352:0000001300000000
#04457:23
#04456:00003444
#0445a:0054
#04452:00000064
#04856:00005464
#04852:0034
#0485a:00000044
#05252:34
#0525a:00440000
#05052:0000000000000063
#0515b:0000006300000000
#00952:53
#01057:53
#01056:00130000
#00255:00120000
#00459:00120000
#00656:00130000
#00857:00130000
#0645c:00120000
#06452:00120000
#06253:00120000
#0625b:00120000
#04656:00004434
#04652:0064
#0465a:00000054
#0135b:0000001300000000
#04556:0000001300000000
#0455b:0000001300000000
#04752:0000001300000000
#04757:0000001300000000
#04956:0000001300000000
#0495b:0000001300000000
#01156:63
#01157:00130000
#01257:53
#01256:00130000
#001340:12220000
#0013a1:00122200
#0033a1:12220000
#003340:00122200
#0043c0:00000000000000001200323200003200
#0053c0:32000000320000003200003200003200
#0063c0:32220000
#005321:13230000
#006361:13230000
#006321:00000000000000001200323200003200
#007321:32000000320000003200003200003200
#008321:32220000
#0073b0:13230000
#008370:13230000
#009320:13
#009360:00230000
#010370:13
#0103b0:00230000
#011360:13
#011320:00230000
#012370:13
#0123b0:00230000
#014380:0000001300230000
#014350:0000000000000013
#015350:0023000000000000
#015380:0000001300230000
#0163b0:00130000
#016370:0023
#018350:0000001300000000
#018320:0000000000230000
#018380:0000000000000013
#0193b0:00230000000000000000000000000000
#019350:0000001300000000
#019320:0000000000230000
#020320:00130000
#020360:0023
#0213b0:00000000000000000000001300002300
#022350:00000013000023000000000000000000
#023320:00000000000000000000001300002300
#024380:00000013000023000000000000000000
#0253b0:00000000000000000000001300002300
#026350:00000013000023000000000000000000
#028320:0013
#028360:00000023
#0283b1:00000013
#029371:23
#029320:13230000
#029360:0053000000000000
#029371:00130000
#0293b1:0023
#030361:13
#030321:00230000
#0303b1:0013
#030371:00000023
#030320:00000013
#031360:23
#0313b1:13230000
#031371:0053000000000000
#031381:00000000000000000000001300002300
#032351:00000013000023000000000000000000
#032371:0013
#0323b1:00000023
#032360:00000013
#033320:23
#033381:13230000
#0333b1:0053000000000000
#033320:00130000
#033360:0023
#034370:13
#0343b0:00230000
#034360:0013
#034320:00000023
#034371:00000013
#0353b1:23
#035350:13230000
#035320:0053000000000000
#0353b1:00130000
#035371:0023
#0363b1:0013
#036371:00000023
#036360:0013
#036320:00000023
#037320:00000013000000000000000000000000
#037360:0000002300000000
#0373b0:0000000000130000
#037370:00000000000000000000000000530000
#0383b0:23
#038321:1300002300000000
#038361:00000053000000000000000000000000
#038321:0013
#038361:00000023
#038370:0013
#0383b0:00000023
#0393b0:00000013000000000000000000000000
#039370:0000002300000000
#039320:0000000000130000
#039360:00000000000000000000000000530000
#040320:23
#0403b1:1300002300000000
#040371:00000053000000000000000000000000
#0403b1:00001323
#040371:0000000000530000
#041321:0000000000130000
#042361:53
#042321:0000002300000000
#042321:00001323
#042361:0000000000530000
#0433b1:0000000000130000
#044371:53
#0443b1:0000002300000000
#0443a1:0014
#044361:00000024
#044320:00000014
#045360:24
#0453b1:1323000000000000
#0453b1:0000000000132300
#045321:0000000000000013
#046321:23
#0463b1:0013230000000000
#046321:0014
#046361:00000024
#0463a0:00000014
#047360:24
#047321:1323000000000000
#047321:0000000000132300
#0473b1:0000000000000013
#0483b1:23
#048321:0013230000000000
#048361:0014
#0483a1:00000024
#048360:00000014
#049320:24
#049381:1323000000000000
#049371:0000000000130000
#0493b1:00000023
#049361:0000000000000013
#050321:23
#050371:0013000000000000
#0503b1:00230000
#050321:0000000000000013
#051361:0023000000000000
#0513b1:0000001300000000
#051371:0000000000230000
#052321:0000000013535353
#052331:00000000000000000053005300530053
#053321:5353535323000000
#053331:00530053005300530000000000000000
#0533b0:0000000013230000
#053361:0000000000130000
#054321:23
#0543b0:13
#054380:00230000
#054350:0000001323000000
#0543b0:0000000000132300
#054350:0000000000000013
#055350:23
#055370:0000130000230000
#0553b0:00000000000000530000000000000000
#055360:00000013
#056320:53
#056360:00230000
#0563b1:00130000
#056371:0023
#056320:0013
#056330:000000000000000000000000003333000000000000000000
#056340:000000000000000000000000000000333300000000000000
#056350:000000000000000000000000000000000033230000000000
#056381:00000013
#056391:000000000000000000000000000000000000003333000000
#0563a1:000000000000000000000000000000000000000000333300
#0563b1:000000000000000000000000000000000000000000000033
#0573b1:23
#057320:13
#057330:003333000000000000000000000000000000000000000000
#057340:000000333300000000000000000000000000000000000000
#057350:000000000033230000000000000000000000000000000000
#057381:00130000
#057391:000000000000003333000000000000000000000000000000
#0573a1:000000000000000000333300000000000000000000000000
#0573b1:000000000000000000000033230000000000000000000000
#057350:0013
#057340:000000000000000000000000003333000000000000000000
#057330:000000000000000000000000000000333300000000000000
#057320:000000000000000000000000000000000033230000000000
#0573b1:00000013
#0573a1:000000000000000000000000000000000000003333000000
#057391:000000000000000000000000000000000000000000333300
#057381:000000000000000000000000000000000000000000000033
#058381:23
#058350:13
#058340:003333000000000000000000000000000000000000000000
#058330:000000333300000000000000000000000000000000000000
#058320:000000000033230000000000000000000000000000000000
#0583b1:00130000
#0583a1:000000000000003333000000000000000000000000000000
#058391:000000000000000000333300000000000000000000000000
#058381:000000000000000000000033230000000000000000000000
#058320:0013
#058330:000000000000000000000000003300000000000000000000
#058340:000000000000003300000000
#058350:0000000000230000
#0583b1:0000000000130000
#0583a1:000033
#058391:000000000000000000000000000000000033000000000000
#058381:00000023
#058320:00000013
#058330:000000000000000000000000000000000000003300000000
#058340:000000000033
#058350:0000000000000023
#0583b1:0000000000000013
#0583a1:000000000000000000000033
#058391:000000000000000000000000000000000000000000000033
#059381:23
#059350:13
#059340:003300000000000000000000000000000000000000000000
#059330:003300000000000000000000
#059320:0023000000000000
#059381:0013000000000000
#059391:003300000000
#0593a1:000000000033000000000000000000000000000000000000
#0593b1:00230000
#059350:00130000
#059340:000000000000003300000000000000000000000000000000
#059330:003300
#059320:0000002300000000
#059381:0000001300000000
#059391:000000000033000000000000
#0593a1:000000000000000000000033000000000000000000000000
#0593b1:0023
#059330:00001323
#059340:000000000000000000000000003300330033000000000000
#059320:000000000000003333000000
#059371:00000013
#0603b1:0023
#061361:12220000
#0623b1:12220000
#062330:12220000
#063360:12220000
#064320:12220000
#0643c1:12220000
