This file was generated by Ched 2.7.0.0.
#TITLE ""
#ARTIST ""
#DESIGNER ""
#DIFFICULTY 0
#PLAYLEVEL
#SONGID ""
#WAVE ""
#WAVEOFFSET 0
#JACKET ""
#REQUEST "ticks_per_beat 480"
#00002: 4
#BPM01: 143
#00008: 01
#TIL00: ""
#HISPEED 00
#MEASUREHS 00
#01215:1300000000130013
#0121b:00000013
#01218:0016000000000000
#01212:00160000
#01210:0041
#01412:1300000000130000
#0141b:0013000000001300
#01415:00130000
#01418:0000001300000000
#0131b:1300000000130000
#01318:0000130000000013
#01312:0013000000000000
#01315:0000001300001300
#0161b:13130000
#01618:0000000000130013
#01612:00000013
#01615:0013000000000000
#02018:0013000000001300
#02012:13130013
#02010:0041
#02115:13
#0211b:00000013000000000000000000000000
#02112:0000001300000000
#02118:0013
#0221b:13000013
#02218:0013
#02212:0013
#02215:0013000000001300
#0311a:0000000014000014
#03116:00000000000000000000001400000000
#03212:1400001400001300
#03216:00000014000000000000000000000000
#0321b:0013
#03215:0013
#03218:00000013
#03615:13
#03618:0013000000000000
#03612:00132400
#0361b:0000001300000000
#0361f:0021
#0371b:1300001300000000
#03717:00000013000000000000000000000000
#03712:00000013000000000000130000000000
#03716:1300001300000000
#03714:00000033
#03715:0000000000000033
#0501a:0014
#05018:00130013
#05015:1300001300000013
#05012:0014
#0501b:0013000000000000
#05115:0000130000000013
#05118:0000001300001300
#05212:00130000
#05218:00000013
#0521b:1323
#05215:0023
#05315:0013000000130000
#0531b:00130000
#05312:00000000000013000000000000130000
#05318:0013
#0541b:0000000013130000
#05415:00000000000000000013000000000000
#05412:0000131300001313
#05418:00000000001300000000000000130000
#0551b:1313130000000000
#05515:00130013000000000000000013000000
#05918:00001313
#05915:0000000000130000
#02712:0014
#02716:00000014
#02714:14140000
#02718:0014001400000000
#02710:0041
#0281a:14
#02812:0013
#02817:0013
#02814:00000013
#02819:00000000003300000000000013000000
#0281f:0011
#03816:13
#0381a:0024
#03815:0033000000000000
#03814:00330000
#03810:0041
#04116:13
#04114:00000013000000000000000000000000
#04112:0000001300130000
#0411b:13000013
#04119:00000013000000000000000000000000
#04117:0000001300000000
#04115:0000000000000013
#04016:0000000000140000
#0401b:0000000000000013
#04017:13
#04012:0024
#04018:0033000000000000
#04019:00330000
#0451b:1300000000130000
#04515:0013000000000013
#04518:00000013000000000000000013000000
#04512:0000001300000000
#04615:0013000000000000
#0461b:0000001300000000
#04612:1324
#04618:00132400
#04614:0000000000140000
#0461a:0000000000140000
#0091b:0013
#00915:1300000000000013
#00918:00000000000000000000001300000000
#01018:1300000000000013
#01015:00000000000000000000001300000000
#01012:0013
#00618:00130000
#00612:00130000
#00815:0000130000000013
#0081b:00132300
#00818:00000000000000000000001300000000
#01118:1300000000000013
#01112:0013
#01115:00000000000000000000001300000000
#0181b:1300000000130000
#01812:0013000000001300
#01818:00130000
#01815:0000001300000000
#01712:1300000000130000
#01715:0000130000000013
#0171b:0013000000000000
#01718:0000001300001300
#02318:13
#02312:00000013000000000000000000000000
#0231b:0000001300000000
#02315:0013
#02415:1313
#0241b:0013
#02418:00130000000000000000000013000000
#02412:00000013
#02515:1300000000130000
#0251b:00000013000000000000000000000000
#02512:0000001300000000
#02518:0013
#02612:0013
#02618:00130000000000001300000000001400
#02614:00000014
#02615:13
#0301b:1313
#03016:0013
#03019:00000013
#03014:00000013
#0341a:14
#03412:0013
#03418:0013
#03415:00000013
#0341b:00000013
#03312:0013000000000014
#03315:13
#03318:0013000000000000
#0331b:13
#0331a:0014
#03316:00000000000000000000001400000000
#0351b:0013000000000013
#03518:13
#03515:0013000000000000
#03512:1314
#03516:00000000000000000000001400000000
#03912:1300001300000000
#03916:00000013000000000000000000000000
#0391b:00000013000000000000130000000000
#03917:1300001300000000
#03919:00000033
#03918:0000000000000033
#04218:13
#04212:0013000000000000
#0421b:00130000
#04215:0000001300000000
#04216:0000000000140000
#0421a:0024
#04317:13
#04319:00000013000000000000000000000000
#0431b:0000001300130000
#04312:13000013
#04314:00000013000000000000000000000000
#04316:0000001300000000
#04318:0000000000000013
#04415:13
#0441b:0013000000000000
#04412:0000130000140000
#04418:0000001300140000
#0441a:0024
#04414:0024
#04712:1300000000130000
#04715:00000013000000000000000013000000
#0471b:0000001300000000
#04718:0013000000000013
#04818:0013000000140000
#04814:0000000000140000
#04812:0000001324000000
#0481b:13
#04815:00130000
#0481a:0024
#04810:0041
#04918:0013000000001300
#0491b:1300001300130000
#04915:00000013000000000000000000000000
#04912:1300001300000013
#05715:0000001300000000
#05818:0000001300000000
#01518:00130013
#01512:0000000000000013
#01915:00130013
#0191b:0000000000000013
#01919:00330000000000000000000000000000
#02915:0000000023000023
#02918:00000000000000000000002300000000
#0601a:0033000000000000
#06019:33
#00410:0041
#0165b:00630000
#0215b:00000013000000000000000000000000
#05958:00000053
#0555b:00530000
#05555:00000053
#05355:0000000000530000
#05352:00000000000000000000000000230000
#03652:0054
#03656:00000014
#03856:23000014
#0385a:0064
#03752:0000000000530000
#04052:00006434
#04056:0000000000240000
#04057:23
#0445a:00005444
#04458:0000000000240000
#04452:0000000000240000
#04454:00005444
#05252:00330000
#0525b:43
#05055:0000000000000063
#05158:0000006300000000
#01058:53
#00955:53
#01158:63
#02352:00000013000000000000000000000000
#0255b:00000013000000000000000000000000
#0345a:54
#03352:0023000000000000
#03358:0023000000000000
#0335b:53
#03355:53
#0355b:0023000000000000
#03558:63
#03555:0023000000000000
#03552:63
#0395b:0000000000630000
#04256:0000000000240000
#0425a:00005444
#04858:0000000000240000
#0485a:00005444
#04854:0000000000240000
#04852:00006434
#0605b:00130000
#04654:0000000000240000
#0465a:0000000000240000
#04652:00006434
#04658:00006434
#02052:00530000
#0305b:63
#0003b0:00000000000000001200003200003200
#0013b0:32220000
#001350:00000000000000001232003200002200
#002390:12220000
#002330:00000000000000001200003200003200
#003330:32220000
#003390:00000000000000001232003200002200
#004350:12220000
#0043b0:00000000000000001300003300003300
#0053b0:33
#005380:00230000
#005320:00000000000000001333003300000000
#005350:0000000000000033
#006350:23
#006320:00000000000000001300003300003300
#007320:33
#007350:00230000
#0073b0:00000000000000001333003300000000
#007380:0000000000000033
#008380:23
#009350:13
#009320:00230000
#010380:13
#0103b0:00230000
#011380:13
#0113b0:00230000
#014320:0000000000000013
#015350:0023000000000000
#015350:0000001300000000
#015320:0000000000230000
#0163b0:00130000
#016380:0023
#0183b0:0000000000000013
#019390:00330000000000000000000000000000
#019380:0023000000000000
#019380:0000001300000000
#0193b0:0000000000230000
#020320:00130000
#020350:0023
#021350:00000000000000000000001300002300
#022380:00000013000023000000000000000000
#023380:00000000000000000000001300002300
#024320:00000013000023000000000000000000
#0253b0:00000000000000000000001300002300
#026320:00000013000023000000000000000000
#0283b0:00130000
#028390:00000000003300000000000000000000
#028380:0000002300000000
#029360:13
#029320:00230000
#0293b1:13
#029371:00230000
#0303b1:13
#030371:00230000
#031371:13
#0313b1:00230000
#031320:13
#031360:00230000
#033350:13230000
#033320:0053000000000000
#0333b1:13230000
#033381:0053000000000000
#0343a1:14
#034361:00240000
#035381:13230000
#0353b1:0053000000000000
#035320:13230000
#035350:0053000000000000
#036320:0014
#036360:00000024
#037320:0000000000130000
#037340:00000033
#037350:0000000000000033
#038360:33
#038350:0033000000000000
#038340:00330000
#038320:0000002300000000
#0383a0:0014
#038360:00000024
#0393b0:0000000000130000
#039390:00000033
#039380:0000000000000033
#040370:33
#040380:0033000000000000
#040390:00330000
#0403b0:0000002300000000
#040320:00001424
#040360:0000000000540000
#0423a0:00001424
#042360:0000000000540000
#0443a0:00001424
#044380:0000000000540000
#044341:00001424
#044321:0000000000540000
#046321:00001424
#046341:0000000000540000
#046380:00001424
#0463a0:0000000000540000
#0483a0:00001424
#048380:0000000000540000
#048321:00001424
#048341:0000000000540000
#050351:0000000000000013
#051321:0023000000000000
#051381:0000001300000000
#0513b1:0000000000230000
#053351:0000000000130000
#053321:00000000000000000000000000530000
#054351:23
#0553b1:00130000
#055381:0000000000230000
#055351:00000013
#056321:00230000
#056381:000000000000000000000000133333333333000000000000
#056391:000000000000000000000000000000000000333333333333
#0573a1:333333333333230000000000000000000000000000000000
#057351:000000000000000000000000133333333333000000000000
#057341:000000000000000000000000000000000000333333333333
#058331:333333333333230000000000000000000000000000000000
#0583b1:00001333
#0583a1:000000000000000000000000003300000033003300000000
#058391:000000000000003333003300
#058381:0000000000330023
#059321:13330000
#059331:003300000033003300000000000000000000000000000000
#059341:003333003300000000000000
#059351:0033002300000000
#059381:00000013
#060391:33
#0603a1:0033000000000000
#0603b1:00230000
#060361:00000000000000001200003200002200
#0613a1:12220000
#061381:00000000000000001200003200002200
#062341:12220000
#062391:00000000000000001200003200003200
#063391:32220000
#063351:00000000000000001200003200003200
#064351:32220000
