This file was generated by Ched 2.7.0.0.
#TITLE ""
#ARTIST ""
#DESIGNER ""
#DIFFICULTY 0
#PLAYLEVEL
#SONGID ""
#WAVE ""
#WAVEOFFSET 0
#JACKET ""
#REQUEST "ticks_per_beat 480"
#00002: 4
#BPM01: 143
#00008: 01
#TIL00: ""
#HISPEED 00
#MEASUREHS 00
#00416:0013
#00412:12000013
#00418:12
#0041c:00120000
#0041b:00000000000000001300131300001300
#00410:0041
#00516:1300000013000013
#00512:00000000000000000000001300000000
#0051b:13000000130000001300001300001300
#0081b:1300000023000013
#00812:13130013
#00815:00000000000000000000001300000000
#00818:00000013
#00816:0023
#0121b:00001300130000000000130000000013
#01218:00000013
#01215:00000000000000000000001300001300
#01216:13
#01212:0013000016001300
#01210:0041
#01418:13130000
#01415:00130013000000000000000000000000
#0141b:0013001300001300
#01417:0000000000000013
#01412:13131300
#01413:00000013
#01416:0000001400000000
#01416:0000001400000000
#01318:00130000130000000000000013000000
#0131b:00001300001300000000130000000013
#01316:0000001400000000
#01315:00000013000000000000001300001300
#01312:13131613
#0151b:0000001300001300
#01517:0000130000000013
#01512:1313
#01513:00130013
#0161a:13
#01616:0013001300000000
#0161b:00130013
#01612:13000000000000001300130000000013
#01613:00130000
#01615:00000013
#01618:00000000000000000000001300001300
#0201b:13130013
#02019:0000000000130000
#02014:00000000000000130000000000001300
#02016:00130013
#02017:0013
#02012:0013
#02018:0000001300000000
#02010:0041
#02117:13130000000000000000000000000000
#02116:00000013000000000000000000000000
#02112:0000000000000013
#0211b:00000013000000000000001300000000
#02216:1313
#0221b:1313001313000000
#02215:0013000000000000
#02218:00000013000000000000000000000000
#02212:00000013000000000000000013000000
#02214:0000000000130000
#02219:0000000000000013
#02217:00000013
#02612:00000013000000001300000000001300
#02616:1300000000001313
#02617:0013
#0261b:1300001300001300
#02619:00130000000000000000000000000000
#02613:00130000000000000000000000000000
#02618:00000013000000000000000000000000
#02815:00160000
#02812:13000000001600000000000000000000
#02818:0000001600000000
#02817:1300000013000013
#0281b:00000000000000000000131300000000
#0281f:0011
#02917:00000000000000000000132300000000
#0291b:1300130023000023
#02912:00130000130000000000000000000000
#02918:0013000000000000
#02915:00000013000000000000000000000000
#02916:0000001300000000
#03017:13000013
#03012:13000000130000000000131300000000
#0301b:0013000013000000
#03016:0013000013000013
#03117:00000000000000001300001300000000
#03112:13000000130000000013001300000000
#03114:0000001300000000
#03119:0000001300000000
#0311b:00130000130000000000000000000000
#03115:0013000000000000
#03118:00000013000000000000000000000000
#03514:0000001300000013
#03517:00000000000000000000000000000013
#03519:0000001315000000
#03512:00130000130000001500000000000000
#0351b:13130000
#03518:0013000000000000
#03515:00000013000000000000000000000000
#0361a:14000000140000000000001300000000
#03619:0013000000130000
#03614:0000001300130000
#03613:00000000000000000013000000000000
#03615:00130000000000000000001300000000
#03618:00000000001300000013000000000000
#03612:1400140000000013
#03617:0000000000000013
#03616:00000013000000002300000000000000
#0361b:0023
#0361f:0021
#03716:13
#03714:0013000000000000
#0371b:00130000000013000000000013000000
#03719:00000013000000000000000000000000
#03712:0000130000230013
#03717:0000000000131300
#0501b:00131300
#0501a:00130000000000000000000014000000
#05016:2300000000000014
#05015:00000014
#05012:0013000023000014
#05017:00000013000000000000000000000000
#05019:0000002300000000
#05116:0000001400001300
#0511b:0000000000000013
#05112:00140000
#05117:00140000
#0511a:0000001400000000
#05212:1600001323000000
#05215:0016131600001300
#05218:13160000
#0521b:0013000000000000
#05312:0013001300130000
#05315:00130000
#0531b:0000000000000013
#05316:00000000000000001300000000130000
#05317:0000000000130000
#05417:13000000001300000000000000130000
#05419:0013
#05416:00000000000000000013000000000000
#05414:00130013
#0541a:0000001300000013
#05413:0000000000130000
#0541b:0013000000000000
#0551b:13000000000000130000001300000000
#05514:00130000000000000000000000000000
#05519:0013000000000000
#05512:00000013130000000000130000000000
#05517:00130000
#05516:00000013
#05612:13
#0561b:00130000
#05617:1300001300000000
#05619:000000130000000000000000000000000033000000000033
#05618:000000000000000033000033
#05614:000000000000003300003300
#05616:000000000000000000000000003300000000003300000000
#05915:000000000000001300130000
#05912:001300131300
#05918:000000000000000000000000001300000013000000000000
#0591b:001300000000000000000000000000130000000000000000
#05916:13
#05914:001300003300000000000000
#05919:000000130000000000000033000000000000000000000000
#05917:000000000013000000000000000000000000000000000000
#05913:000000000000003300000000000000000000000000000000
#0591a:000000000033000000000000
#0601b:13
#06016:0013000000000000
#06019:00150000
#0601c:00000000000000001212000000000000
#06018:00000000000000000000001200000000
#0601a:0000000000000012
#06012:0013000000001300
#00012:0012
#0001a:00000000000000000000001200000000
#00017:0000000012000012
#00016:0000000000120000
#0001c:0000000000000012
#00117:12121200
#0011c:12000000000000000012000000000000
#00118:00000000000000000000001200000000
#0011a:0000000000000012
#00114:00000000000000000000001200000000
#00112:0000000000000012
#00216:12
#00212:0000120000000012
#0021c:1212
#00214:00000000000000000000001200000000
#00217:0000000012000012
#00218:0000000000120000
#06319:00000000000000001212000000000000
#06315:13000000000013001212000000000000
#0631b:00000000000000000000001200000000
#06313:0000000000000012
#06312:00000013000000000000000000000000
#0631c:12
#0411b:13131300
#04118:0013000000000000
#04115:00000013000000000000000000000000
#04112:00130000130000000000230013000000
#04116:0013
#04117:0000000000130000
#0401b:0000001300130000
#04017:1300000023130013
#04012:1300130023002313
#04016:0013130000000000
#00916:1300001300001300
#00912:0013000013000013
#00917:00001300000000000013000000000000
#00918:0000000000000013
#0091b:13000000130013000000001300000000
#01017:1313
#01012:0000130013000013
#0101b:0013000000001300
#01018:00000000000000000000001300000000
#01015:00000013
#03917:13
#03919:0013000000000000
#03912:00130000000013000000000013000000
#03914:00000013000000000000000000000000
#0391b:0000130000130013
#03916:0000000000131300
#0381a:00000000000000000013000000000000
#03819:0000000000130000
#03818:00000000000000000000001300000000
#03815:00000000000000000013000000000000
#03814:0000000000130000
#03813:00000000000000000000001300000000
#0381b:2300130000000013
#03816:1300000000000013
#03817:0013130023000000
#03812:0000002323000000
#03810:0041
#04212:0000002300130000
#04216:0013000023130013
#0421b:1300000023002313
#04213:23
#0431b:1300130000131300
#04318:0013000000000000
#04315:00000013000000000000000000000000
#04312:00130000130000001300000000000000
#04317:0013
#04316:0000000000130000
#06115:1300001300000000
#06112:00000013000000001212000000000000
#0611c:12
#06116:00000000000000000000001200000000
#06114:0000000000000012
#0611b:00001313
#06218:13000000000013000000001200000000
#0621b:00000013000000000000000000000000
#06212:12001313
#0621c:00000000000000001212000000000000
#0621a:0000000000000012
#06416:12
#06418:12
#0451b:13131313
#04515:00130000000000000000000000000000
#04514:0000001300001300
#04516:00000000000000001300000000000013
#04517:00000000000000000000001300000000
#04512:00000000000000000000230000130000
#04519:0000000000000013
#04619:00130000
#04612:0000130000130000
#0461b:00001300001300002300000000001300
#04613:00130000000000000000000000000000
#04616:00000013000000002300000000001300
#04617:2300000000130000
#04618:00000023
#04614:0000002300000000
#0441b:0000001300130000
#04412:1300000023000013
#04416:0000000000130000
#04417:0013000023000013
#0441a:13
#04415:00000023
#00317:12121200
#00312:12000000000000000012000000000000
#00316:00000000000000000000001200000000
#00314:0000000000000012
#0031a:00000000000000000000001200000000
#0031c:0000000000000012
#0061b:13130013
#00612:13000000000000001300131300001300
#00617:0013
#00717:1300000013000013
#0071b:00000000000000000000001300000000
#00712:13000000130000001300001300001300
#01117:1300001300001300
#0111b:0013000013000013
#01116:00001300000000000013000000000000
#01115:0000000000000013
#01112:13000000130013000000001300000000
#01815:13130000
#01818:00130013000000000000000000000000
#01812:0013001300001300
#01816:0000001400000013
#0181b:13131300
#0181a:00000013
#01715:00130000130000000000000013000000
#01712:00001300000000000000130000000013
#01716:0000001400000000
#01718:00000013000000001600001300001300
#0171b:13130013
#01912:0013001300001300
#01916:0000130000000013
#0191b:1313
#0191a:00130013
#02316:13130000000000000000000000000000
#02317:00000013000000000000000000000000
#0231b:0000000000000013
#02312:00000013000000000000001300000000
#02417:13
#02412:1300001300000000
#02414:00130000000000000000000000001300
#0241a:00130000000000000000000000000000
#02415:00000013000000000000000000000000
#0241b:00000013000000000000000000000000
#02419:0000000000130000
#02416:00001414
#02512:1300000000000013
#02516:14140013000000000000000000000000
#0251b:00000013000000000000001300000000
#03216:13000013000000001300000000001300
#0321b:00130013000000000000000000000000
#03212:00000000000000000000131300000000
#05712:000000000000131313000000
#05717:000000000000000000000000001300000000000000000000
#05719:000000003300000000003300000000130000000000000000
#0571b:000000000000000000000000000000000013000000000000
#05714:003300000000003300000000000000000000000000000000
#05715:003300003300000000000000
#05718:000000000033000000000033000000000000000000000000
#05816:130013
#0581b:001300130013000000000000000000000013000000000000
#05814:001300000000001300003300
#05812:001300130000
#05817:000000000000000000000000001300000000000000000000
#05819:000000000000000000000000000000130000000000000033
#05818:000000000000000000000033
#05815:000000000000000000000000000000000000003300000000
#0271b:0013001313000000
#02718:13
#02712:0013001300000000
#02715:0000130000000014
#02714:00000013
#02719:00000013
#02717:0000000000140000
#02710:0041
#03316:00000000000000000000132300000000
#03312:1300130023000023
#0331b:00130000130000000000000000000000
#03315:0013000000000000
#03318:00000013000000000000000000000000
#03317:0000001300000000
#03416:13000013
#0341b:13000000130000000000131300000000
#03412:0013000013000000
#03417:0013000013000013
#04912:00140000130000001300000013000000
#04917:00000000000000001300000000000013
#04914:0000001300000013
#04916:14000000000000000000001300000000
#0491b:0000130000230000
#04918:0013000000000000
#04915:00000013000000000000000000000000
#0481a:00130000000000000000140000001400
#04816:1300000024140014
#04814:00130000
#0481b:00130000
#04812:00001300001300002400000024000000
#04819:0000001300000000
#04817:00000013000000000000000000000000
#04810:0041
#04712:13131313
#04718:00130000000000000000000000000000
#04719:0000001300001300
#04717:00000000000000001300000000000013
#0471b:00000000000000000000130000130000
#04716:00000000000000000000001300000000
#04714:0000000000000013
#0165b:00530000
#01656:0000002300000000
#01652:13
#01653:00130000
#02156:00000013000000000000000000000000
#0215b:00000013000000000000005300000000
#03057:63330023
#0305b:0023000023000000
#03052:43
#05955:00000053
#05557:00530000
#0555b:00000000000000230000000000000000
#05556:00000063
#05552:00130000
#05652:23
#0565b:00530000
#05657:0000002300000000
#05457:53
#0545a:0000004300000043
#05453:0000000000330000
#0545b:0023000000000000
#05352:0000000000530000
#05356:00000000000000000000000000230000
#03656:0063
#03653:00000000000000000023000000000000
#03655:00000000000000000000002300000000
#03654:0000000000530000
#03652:00000033
#03658:00000000000000000023000000000000
#03659:0000000000530000
#0365a:00000000000000000000002300000000
#0365b:0063
#03657:00000033
#04057:23005333
#0405b:0000000000230000
#04052:00230033
#04056:0063000000000000
#05252:36
#05258:00460000
#00956:53
#00957:0013000000000000
#0095b:0000001300000000
#00952:0023000000000000
#01057:53
#01052:00130000
#0105b:0023000000000000
#01055:00000013
#03752:0000230000000053
#0375b:0000004300002300
#03757:0000000000530000
#0385a:00000000000000000023000000000000
#03859:0000000000630000
#03858:00000000000000000000002300000000
#03855:00000000000000000023000000000000
#03854:0000000000630000
#03853:00000000000000000000002300000000
#03857:0053000053000000
#03852:0053
#0385b:00230043
#03856:23000043
#0395b:0000230000000063
#03952:0000003300002300
#03956:0000000000630000
#04252:0000000000230000
#04256:0023000063004300
#0425b:23000043
#04152:00230053
#0415b:00230000
#04158:0000003300000000
#04155:0000004300000000
#04157:0000000000530000
#0615c:52
#06252:62
#06256:00120000
#0635c:52
#06456:52
#06458:62
#06452:00120000
#0645c:00120000
#06052:0023000000000000
#06059:00450000
#0455b:00530013
#04554:0000001300000000
#0445b:0000000000230000
#04452:2300000043000023
#04457:0023000053000000
#04455:00000063
#04458:00000033
#00157:62620000
#0025c:62
#00252:00120000
#00452:52
#0045c:00120000
#00357:52520000
#00556:63
#00652:63
#00656:00130000
#00757:53
#0085b:53
#00858:00000013
#00857:00130000
#01157:63
#01156:0013000000000000
#01152:0000001300000000
#0115b:0023000000000013
#01256:63
#0125b:0013130000000000
#01252:0023000000000000
#01356:0000001400000000
#0145b:0000002300000000
#01457:0000000000000023
#01456:0000003400000000
#0155b:0000002300000000
#01756:0000001400000000
#01952:0000002300000000
#01856:0000004400000023
#01852:0000002300000000
#02252:00000053000000000000000000000000
#02357:00000013000000000000000000000000
#02352:00000013000000000000006300000000
#0245b:00000063000000000000000000000000
#02556:00000013000000000000000000000000
#0255b:00000013000000000000005300000000
#02652:00000053000000000000000000005300
#02656:00000023
#03152:00000000000000000000005300000000
#03157:00000000000000000000005300000000
#0325b:00000063000000000000000000000000
#03256:00000063000000000000000000000000
#05056:0000000000000064
#05052:0000000000000064
#0505b:00130000
#05156:0000005400000000
#0515a:0000005400000000
#0275b:0063000013000000
#02758:23
#02752:0000005300000000
#02755:00230000
#02754:00000013
#02857:13
#02952:00330000
#03456:53430023
#03452:0023000023000000
#0345b:33
#0335b:00430000
#0435b:00230063
#04352:00230000
#04358:0000003300000000
#04355:0000004300000000
#04356:0000000000630000
#04957:0000004300000000
#04952:00000013
#0495b:00530000
#04856:0000000054003424
#04852:00004454
#0485a:0000000000240000
#0485b:00130000
#04652:0000130000230000
#0465b:0000000033000023
#04656:0063
#04658:00000053
#04655:00000043
#04752:00630013
#04759:0000001300000000
#001370:12
#001320:00220000
#001371:00120000
#0013c1:0022
#0023c1:12
#002381:00220000
#003371:12
#0033c1:00220000
#003370:00120000
#003320:0022
#004320:12
#004360:00220000
#005360:13
#005320:00230000
#006320:13
#006360:00230000
#007370:13
#0073b0:00230000
#0083b0:13
#008370:00230000
#009360:13230000
#009320:0053000000000000
#010370:13230000
#0103b0:0053000000000000
#011370:13230000
#0113b0:0053000000000000
#012360:13230000
#012320:0053000000000000
#0143b0:0000001300000000
#014370:0000000000230000
#014370:0000000000000013
#0153b0:0023000000000000
#0153b0:0000001300000000
#015370:0000000000230000
#0163b0:00132300
#016360:0000005300000000
#018320:0000001300000000
#018360:0000000000230000
#018360:0000000000000013
#019320:00230000000000000000000000000000
#019320:0000001300000000
#019360:0000000000230000
#020320:1323000000000000
#021320:13230000000000000000000000000000
#021320:00000000000013230000000000000000
#021371:00000000000000132300000000000000
#021340:00000000000000001323000000000000
#021391:00000000000000000013230000000000
#021360:00000000000000000000132300000000
#0213b1:00000000000000000000001300000000
#021361:0000000000000023
#022321:00000013000000000000000000000000
#022371:0000002300000000
#0233b1:13230000000000000000000000000000
#0233b1:00000000000013230000000000000000
#023360:00000000000000132300000000000000
#023391:00000000000000001323000000000000
#023340:00000000000000000013230000000000
#023371:00000000000000000000132300000000
#023320:00000000000000000000001300000000
#023370:0000000000000023
#0243b0:00000013000000000000000000000000
#024360:0000002300000000
#024320:0000000013230000
#0243b0:0000000000001323
#025320:00000000000013230000000000000000
#0253b1:00000000000000132300000000000000
#025350:00000000000000001323000000000000
#025381:00000000000000000013230000000000
#025320:00000000000000000000132300000000
#0253b1:00000000000000000000001300000000
#025361:0000000000000023
#026321:00000013000000000000000000000000
#026361:0000002300000000
#026361:00000013
#026321:0000000000000053
#027351:23
#027380:13230000
#0273b0:0053000000000000
#027351:00130000
#027321:0000005300000000
#027361:0023
#028321:0000000013000053
#028361:0000000000533300
#029321:23
#029361:000000000000000000000000130000000000005300230000
#029321:000000000000000000000000000000000000000000000000000000005300000000330000000000000000000000000000
#030371:13230000
#0303b1:0053000000000000
#0303b1:0000000013000053
#030371:0000000000533300
#0313b1:23
#031371:00000000000000000013003300000000
#0313b1:0000000000000023
#031320:00000000000000000000001300000000
#031360:0000000000000023
#032360:00130033000000000000000000000000
#032320:0000002300000000
#0323b1:00000013000000000000000000000000
#032371:0000002300000000
#0323b1:0000000013000053
#032371:0000000000533300
#0333b1:23
#033371:000000000000000000000000130000000000005300230000
#0333b1:000000000000000000000000000000000000000000000000000000005300000000330000000000000000000000000000
#034361:13230000
#034321:0053000000000000
#034321:0000000013000053
#034361:0000000000533300
#035321:23
#035321:00000000000000000015000000000000
#035331:00000000000000000000002300000000
#035390:00000000000000000015000000000000
#0353a0:00000000000000000000002300000000
#036360:0013
#036330:00000000000000000053000000000000
#036340:0000000000530000
#036350:00000000000000000000005300000000
#036320:00000023
#0363b1:0013
#036381:00000000000000000053000000000000
#036391:0000000000530000
#0363a1:00000000000000000000005300000000
#036371:00000023
#037321:00130000
#037361:0000002300000000
#037371:0000000000130023
#0373b1:00000053
#037320:0000000000000013
#038360:53
#038320:0023000000000000
#038371:0013002300000000
#0383b1:00530000
#038371:0013
#0383a1:00000000000000000053000000000000
#038391:0000000000530000
#038381:00000000000000000000005300000000
#0383b1:00000023
#038320:0013
#038350:00000000000000000053000000000000
#038340:0000000000530000
#038330:00000000000000000000005300000000
#038360:00000023
#0393b0:00130000
#039370:0000002300000000
#039360:0000000000130023
#039320:00000053
#0393b1:0000000000000013
#040371:53
#0403b1:0023000000000000
#040360:0013002300000000
#040320:00530000
#040370:00001323
#0403b0:0000000000530000
#041320:00130000
#041350:0000002300000000
#0413b1:00130000
#041381:0000002300000000
#041371:0000000000130000
#0423b1:53
#042371:0000002300000000
#041320:00000013
#041360:0000000000000023
#042360:0013000000000000
#042320:00230000
#042361:00001323
#042321:0000000000530000
#0433b1:00130000
#043381:0000002300000000
#043320:00130000
#043350:0000002300000000
#043360:0000000000130000
#044320:53
#044360:0000002300000000
#0433b1:00000013
#043371:0000000000000023
#044371:0013000000000000
#0443b1:00230000
#044370:0013
#0443b0:0000000000530000
#044380:00000023
#044351:00000013
#044321:0000000000000053
#045361:23
#045381:00001323000000000000000000000000
#045320:00000013230000000000000000000000
#0453b1:00130000
#045371:0000002300000000
#046361:0013
#046321:0000000000530000
#046351:00000023
#046380:00000013
#0463b0:0000000000000053
#047370:23
#047350:00001323000000000000000000000000
#0473b1:00000013230000000000000000000000
#047320:00130000
#047360:0000002300000000
#048360:00001424
#0483a0:0000000000540000
#048321:00000014
#048361:0000000000000054
#049321:24
#0493b1:00130000
#049371:0000002300000000
#049391:00000013
#0493b1:00000000000000000000000000230000
#050341:00130000
#050321:00000000002300000000000000000000
#050361:0000000000000014
#0513a1:0024000000000000
#050320:0000000000000014
#051360:0024000000000000
#051360:0000001400000000
#051320:0000000000240000
#0513a1:0000001400000000
#051361:0000000000240000
#0523b1:00000000000000001353000000000000
#0523a1:0000000000000000000000000000000000530000530053000000000000000000
#052391:0000000000000000000000000000000000000053005300005300530000000000
#052381:0000000000000000000000000000000000000000000000530053000053005300
#052371:0000000000000000000000000000000000000000000000000000005300530000
#052361:0000000000000000000000000000000000000000000000000000000000000053
#053371:5300005300530000000000000000000000000000000000000000000000000000
#053361:0053000000000000000000000000000000000000000000000000000000000000
#053381:0000530053000053005300000000000000000000000000000000000000000000
#053391:0000000000005300530000530053000000000000000000000000000000000000
#0533a1:0000000000000000000053005300005300000000000000000000000000000000
#0533b1:00000000000000532300000000000000
#053321:0000000000130000
#053361:00000000000000000000000000530000
#054321:23
#054370:13230000
#0543b0:0053000000000000
#054320:0000001300000000
#054360:0023
#0543b0:0000000000130000
#054370:00000023
#054320:0000000000000013
#055360:23
#055370:0000130000230000
#0553b0:00000000000000530000000000000000
#055360:00000013
#056320:53
#056360:00230000
#0563b1:00132300
#056371:0000005300000000
#056370:0013
#056360:000000000000000000000000003300000000000000000000
#056340:000000000000003300000000
#056320:0000000000230000
#056361:0000000000130000
#056381:000033
#056391:000000000000000000000000000000000033000000000000
#0563b1:00000023
#056370:00000013
#056360:000000000000000000000000000000000000003300000000
#056340:000000000033
#056320:0000000000000023
#056361:0000000000000013
#056381:000000000000000000000033
#056391:000000000000000000000000000000000000000000000033
#0573b1:23
#057320:13
#057340:003300000000000000000000000000000000000000000000
#057350:003300000000000000000000
#057370:0023000000000000
#0573b1:0013000000000000
#057391:003300000000
#057381:000000000033000000000000000000000000000000000000
#057361:00230000
#057320:00130000
#057340:000000000000003300000000000000000000000000000000
#057350:003300
#057370:0000002300000000
#0573b1:0000001300000000
#057391:000000000033000000000000
#057381:000000000000000000000033000000000000000000000000
#057361:0023
#057351:000000000000000000000000000000000000133333230000
#0573b0:000000000000000000000000000000000000000000133333
#0583b0:23
#058320:000000000000133333230000000000000000000000000000
#058371:000000000000000000133333230000000000000000000000
#058361:00000013
#058351:000000000000000000000000000000000000003300000000
#058341:000000000033
#058321:0000000000000023
#058370:0000000000000013
#058380:000000000000000000000033
#058390:000000000000000000000000000000000000000000000033
#0593b0:23
#059320:00130000
#059330:000000000000003300000000000000000000000000000000
#059340:003300
#059360:0000002300000000
#0593b1:0000001300000000
#0593a1:000000000033000000000000
#059391:000000000000000000000033000000000000000000000000
#059371:0023
#059351:00000013
#060321:0053000000000000
#060351:0023
#0613c1:12
#061381:00220000
#062321:12
#062361:00220000
#0633c1:12
#063381:00220000
#064361:12
#064321:00220000
#064380:12
#0643c0:00220000
