This file was generated by Ched 2.7.0.0.
#TITLE ""
#ARTIST ""
#DESIGNER ""
#DIFFICULTY 0
#PLAYLEVEL
#SONGID ""
#WAVE ""
#WAVEOFFSET 0
#JACKET ""
#REQUEST "ticks_per_beat 480"
#00002: 4
#BPM01: 143
#00008: 01
#TIL00: ""
#HISPEED 00
#MEASUREHS 00
#0081a:0014
#00814:00000014
#00914:0014
#0091a:14000014
#01018:0014
#01014:14
#01012:00000014
#01618:0014
#01612:00000014
#01714:0014
#0171a:14000014
#02512:00000014
#0251a:0014
#00612:00001414
#0041a:00001414
#00410:0041
#01312:0014
#01318:14000014
#01812:14
#0181a:0014
#0211a:0014
#02114:00000014
#0221a:1414
#02214:00140000
#02312:0014
#02318:00000014
#02412:1414
#02418:00140000
#03014:00001414
#0321a:00001414
#03412:00001414
#0051a:14
#00712:14
#01118:14000014
#01112:0014
#01414:14
#01418:0014
#02618:14
#02614:00140000
#0261a:0014
#02818:00001414
#0281f:0011
#02918:14
#03114:14
#0331a:14
#03512:14
#05112:0014
#0511a:00000014
#05214:1414
#05218:00140000
#0601a:0014
#06112:0014
#0621a:0014
#01512:0014
#01914:0014
#02712:14
#0271a:0014
#02710:0041
#01212:14
#01214:00000014
#0121a:0024
#01210:0041
#04118:14
#04112:00140000
#04119:00000034
#04014:00000014
#0401a:0014
#03912:14140000
#03818:00000014
#03812:0014
#03810:0041
#0371a:14140000
#03614:00000014
#0361a:0024
#0361f:0021
#04412:34000014
#0441a:0024
#04518:14
#04512:00000014
#0451a:0014
#04514:00140000
#04612:0014
#0461a:00000014
#04618:14140000
#04614:0014000000000000
#04714:14
#04712:0014
#0471a:00000014
#04718:00140000
#04814:14140000
#0481a:0014
#04812:00000014
#04818:0014000000000000
#04810:0041
#04918:14
#0491a:0014
#04912:00000014
#04914:00140000
#05018:14140000
#05014:0014000000000000
#04212:0014
#04218:00000014
#0421a:34
#04314:14
#0431a:00140000
#04313:00000034
#0201a:0024
#02010:0041
#05258:00140000
#05254:1464
#06456:00140000
#01458:0054
#01552:0054
#0185a:0064
#01954:0064
#06054:00170000
#0003a0:0014
#0013a0:00240000
#001340:0014
#002340:00240000
#002380:0014
#003380:00240000
#003320:0014
#004320:00240000
#0053a0:00000000000000001400003400003400
#0063a0:24
#007320:00000000000000001400003400003400
#008320:24
#014380:0014
#0153a0:24
#015320:0014
#016340:24
#0183a0:0014
#019380:24
#019340:0014
#020320:24
#029380:00000000000000001400003400003400
#030380:24
#031340:00000000000000001400003400003400
#032340:24
#0333a0:00000000000000001400003400003400
#0343a0:24
#035320:000000000000000000000000140000003400000000340000
#036320:24
#0353a1:00000000000000001400003400003400
#0363a1:24
#037341:00001424
#0383a1:14240000
#039381:00001424
#040321:14240000
#041381:0014
#041391:00000034
#0423a1:34240000
#043341:0014
#043331:00000034
#044321:34240000
#050321:0014
#050341:00000024
#0513a1:14
#051381:00240000
#052341:0014
#053321:0024
#054381:00000000155535553555355535553555
#054391:0000000000000000005500550055005500550055005500550055005500550055
#055381:35553555355555555555555555555555
#055391:0055005500550055005500550055005500550055005500550055005500550055
#056381:25
#056321:000000000000000000000000155555355555355555355555
#056331:000000000000000000000000000000000000000000000000005500550055005500550055005500550055005500550055
#057321:355555355555355555355555350000000000000000000000
#057331:005500550055005500550055005500550055005500550055000055005500350055005500350055005500350055005500
#057341:000000000000000000000000000000000000000000000000005500550055005500550055005500550055005500550055
#058331:355555355555355555355555355656365656365656365656
#058341:005500550055005500550055005500550055005500550055005600560056005600560056005600560056005600560056
#059331:365656365656365656365656360000000000000000000000
#059341:005600560056005600560056005600560056005600560056000056005600360056005600370000000000000000000000
#059351:000000000000000000000000000000000000000000000000000000000000000000000000000000000000000000000000000056000000560000005600000056000000560000005655000000000000000000000000000000000000000000000000
#060341:00270000
#063351:0016
#064361:00240000
