This file was generated by Ched 2.7.0.0.
#TITLE ""
#ARTIST ""
#DESIGNER ""
#DIFFICULTY 0
#PLAYLEVEL
#SONGID ""
#WAVE ""
#WAVEOFFSET 0
#JACKET ""
#REQUEST "ticks_per_beat 480"
#00002: 4
#BPM01: 127.4567
#00008: 01
#TIL00: ""
#HISPEED 00
#MEASUREHS 00
#00019:14
#00113:14
#00219:14
#00313:14
#0041a:14
#00410:41
#00514:14
#00618:14
#00712:14
#01618:14
#01610:41
#01718:14
#01814:14
#01914:14
#0201a:14
#0211a:14
#02212:14
#02312:14
#0241a:14
#02410:41
#02512:14
#0261a:14
#02712:14
#02818:14
#02914:14
#03412:0016
#03418:26
#03410:41
#03518:16
#03512:0016
#03818:1616
#03912:1616
#04212:0000000000160000
#04418:00160000
#04512:16
#04518:00000016
#04818:0016000000000000
#04812:0000000000160000
#04810:0000000000410000
#04918:0016000000000000
#05112:0000000000160000
#05212:0016000000000000
#05218:0000000000160000
#05318:0016000000000000
#05312:0000000000160000
#05418:0016000000000000
#05412:0000000000160000
#05518:0016000000000000
#05512:0000000000000036
#05713:0000000000140000
#05710:0000000000410000
#05819:0000000000140000
#05913:0000000000140000
#06019:0000000000140000
#06112:0000000000140000
#06218:0000000000140000
#06314:0000000000140000
#0641a:0000000000140000
#06813:0014
#06819:0014
#06714:0000000000140000
#06718:0026000000000000
#0411f:11
#04712:0000000000260000
#0471f:0000000000210000
#06512:0000000000260000
#06618:0026000000000000
#06612:0000000000260000
#04017:00363636
#05612:0036003600000000
#008380:1434
#009380:24
#010340:1434
#011340:24
#012380:14
#012390:0034
#0133a0:24
#014340:14
#014330:0034
#015320:24
#0303a0:14
#031380:24
#032320:14
#033340:24
#036380:1626
#037320:1626
#040380:16
#040370:00363636
#041360:26
#049320:0000000000160000
#050320:0026000000000000
#050380:0000000000160000
#051380:0026000000000000
#055320:0000000000160036
#056320:0036003600000000
#056350:0000000000260000
