This file was generated by Ched 2.7.0.0.
#TITLE ""
#ARTIST ""
#DESIGNER ""
#DIFFICULTY 0
#PLAYLEVEL
#SONGID ""
#WAVE ""
#WAVEOFFSET 0
#JACKET ""
#REQUEST "ticks_per_beat 480"
#00002: 4
#BPM01: 127.4567
#00008: 01
#TIL00: ""
#HISPEED 00
#MEASUREHS 00
#0041a:00001300000000000000001400000000
#00415:00130000000000000000000000330000
#00414:00000013000000000000000000000000
#00419:00130000
#00418:0000001300000013
#00413:00000000001300000000000000000000
#00412:00000000000000140000000000000000
#00416:00000000000000000014000000000000
#0041b:23
#00410:41
#00712:00000000000000130000000024000000
#0071b:13000000001300000000000000000000
#00718:0000000000000013
#00715:00000000000000000000000000000013
#00716:00130000002300000024002400000000
#00719:0013000000000000
#00714:00000013000000000000000000000000
#0071a:00000024
#00717:00000000000000230000000000000000
#00817:0013000000000000
#00816:0000001300000000
#00812:0000000000000013
#00818:2600000000130000
#0091b:00001300000000000000001300000000
#00912:0000001314001300
#0091a:0014
#00915:0000130000130000
#00918:0000000000000013
#01015:13000000130000000013000000001300
#01012:00001300000000000000001300000000
#01018:00130000000013001300000013000000
#0101b:00000013000000000000130000000000
#01116:0014001400000000
#01113:00000000001300000000000000000000
#0111a:00130000240000000000000000000000
#01112:2400000023130000
#01118:00000000000000000013001300000000
#01115:0000000000001313
#0111b:00000000000000000000000000130013
#01214:0013001300000000
#0121b:00130000
#01219:0013001300000000
#01215:0000000000131300
#01212:2400000013000013
#01412:1313000013130000
#01418:00130013000000000013001300000000
#01415:0000131300001313
#0141b:00000000001300130000000000130013
#0161b:2313000013001300
#01618:0000131300000000
#01616:00130000000000000013001300000000
#01613:00000013000000000000000000000000
#01615:00000000001300000000000000000000
#01612:00000000000000130000000000000013
#01614:00000000000000000000000000130000
#01619:0000000000000013
#01610:41
#01518:00130013001300130000000000130000
#01512:13000000000000000000000000130000
#01515:00330000000000000000000000000013
#0171b:13001300130000000000000000130000
#01715:00130013000000000000130000001300
#01712:0000001300000000
#01717:00000000000000130000000000000000
#01718:00000000000000000000000000000013
#01912:13001300130000000000000000130000
#01918:00130013000000000000130000001300
#01915:00000000000000000000000000000013
#0191b:0000001300000000
#01916:00000000000000130000000000000000
#0201b:23001300000000001300000000000013
#02012:00130013000000000000001300000000
#02018:00000000130013000000130000130000
#02015:00000000001300130013000000001300
#02115:00330000130000000000130000000013
#0211b:00000000001300000000000000001300
#02112:00000000000013000000000000130000
#02118:00000033000000130000000000000000
#02218:13000000001300130000000000000000
#02215:0013000013130000
#0221b:00000013000000000013001300000000
#02212:0000131300001414
#02219:00000000000000000000000000000013
#0231b:0013000000000000
#02314:00000013000000000000000000000000
#02312:0000001300001400
#02316:00000000000000140014001400000000
#02315:0000000000000013
#02318:00000000000000000000000000000013
#0231a:00000014
#00015:0013000000000013
#00018:00130000
#0001b:00000000000000130013001313330000
#00012:13000000001300000013000000000000
#00016:00000000000000130000001300000000
#00115:00130000
#00112:13001300000000130013001313330000
#00118:00130013000000000000000000001300
#0011b:00000000001300000013000000000000
#00117:00000000000000130000001300000000
#02415:00001300000000000000000013000013
#0241b:00000013000013000000000000000000
#02416:00000000000000130000000000000000
#02412:26130000
#02418:00130000000000000000000000001300
#02410:41
#02615:0013000000000000
#02612:2600131300000013
#02617:00000000000000130000000000000000
#02618:00000013000000000000000013000013
#0261b:00130000000000000000000000000000
#02718:0000001300130023
#02715:00330000000000000000001300002300
#0271b:00000033000000000000000013000000
#02712:00000000003300230013000000000000
#02812:1300000000000013
#0281b:00130000000000000000000013000000
#02813:0013000000000000
#02814:00130000
#0281a:00000013000000000000000000000000
#02819:00000000001300000000000000000000
#02817:0000000000000013
#02815:00000000000013130000000000000000
#02818:00000000000000130000000000000000
#02816:00000013
#0291b:00000000130000000000001300000000
#02912:00130000000016002300000023000000
#02918:00000000000000160013000000130000
#02915:0000000000130013
#02917:13
#02919:0013000000000000
#02914:00000013000000000000000000000000
#03015:00130000001300001300000000000033
#03018:2613130000000000
#03012:00000013
#03017:00000000000000000000000000130000
#03016:0000000000240000
#0311b:00130000
#03116:00000000001300000000000000000000
#03115:00000013
#03118:00000000000000330000000000130000
#03112:0024000000000000
#0311a:0000000000240000
#03218:26001300000013000000001300000013
#0321b:00000000130000000013000000130000
#03215:00000013000000000000130000001300
#03212:00130000001300002600000013000000
#03316:00000012001200120000140000001400
#0331a:0014
#03312:2c000014
#03318:0012121200000000
#03418:2613000000000000
#03417:0013
#0341b:0000130000130013
#03416:00000013
#03412:1600000000130013
#03419:0000001300000000
#03415:00000000001300000000000000000000
#03413:00000000000000130000000000000000
#03410:41
#03516:14140000
#0351a:0014001400000000
#03512:0014001413000000
#0351b:0013
#03515:00000013
#03518:00000013
#03618:0013000000130000
#03615:00130000000000000013000000000000
#03616:00000000000000130000000000000013
#03612:00000023001300000000002300130000
#0361b:2323
#03718:00001300000000000000000000000013
#03715:00130000000000000000000013000000
#03712:00000000000000130000000000001300
#0371b:23000000000000000000130000130000
#03914:0000000000000013
#03917:0013
#03916:14140023
#03912:0014001413000000
#0391a:0014001400000000
#0391b:00000023
#04018:00001300130000000013000000000000
#04015:00000013000000000000000000130000
#04012:2400001423130000
#0401a:2400001400000000
#0401b:0000000000002313
#0411a:0012000000000000
#04119:00120000
#04115:00000012000000000033000000330000
#04114:00000000001200000000000000000000
#04112:26000000000000000000000000000012
#04118:2600000000000012
#0411f:11
#0411b:00000000000000330000003300000000
#04214:00120000000000000000000012000000
#0421a:12000000240000000000000000000012
#0421c:0012000000000000
#04216:00000012000024000000000000000000
#04215:0000000000000012
#04219:00000000000000000000000000120000
#04212:0000000024260000
#04218:0000000000260000
#04412:0000001300240013
#04415:0013
#04418:00000000000000000013000000000000
#0441b:00000000000000130000000013000000
#04416:24000013
#04417:0000000000000013
#0441a:0024000000000000
#04414:00240000
#04614:00130014
#0461a:00000000000000000000000000140000
#04612:00000000000013001300140000000014
#04616:1313000000000000
#0461b:00130013000000000000000000000000
#04619:00000000001300000000000000000000
#04617:00000000000000130013000000000000
#04618:00000000000000000000001400000000
#0471a:00140000000000000000000000000000
#04715:00000013
#04712:0000000000000013
#04718:00000000000000000000000000000013
#04717:0022000000000000
#0471f:0000000000210000
#05319:0013
#05315:0000000000001313
#05318:00000000003300000000000000130000
#05316:0013000000000000
#0531a:1400000000140000
#05312:1400002300140000
#0531b:0013000000000000
#05314:0013
#05317:0000002300000000
#05313:00000000003300000000000000000000
#0541a:00140000000000000000140000000000
#05412:14000000003300000000140000000000
#05416:0013000000000000
#0541b:0000001300000000
#05419:0013
#05414:0013
#05418:0000000000001313
#05415:00000000000000000000000000130000
#05514:0000000014140013
#05518:00000000000000000014000000000000
#0551b:00000000003300000000000013000000
#05516:00000013
#05519:0000000000000013
#05512:00140000000013000000000000000000
#0551a:14
#05517:0013000000000000
#05617:1300000000220000
#05612:1314000014220000
#05615:0000131300000000
#05618:00000000001300000000000000000000
#0561a:0014
#05614:00000000000000000000003232000022
#05619:00000000000000000000003232000022
#05719:00000013
#0571a:00220000000000000000000000000000
#0571b:00000022000000000000230000000000
#05715:00220000000000000000000000000000
#05716:00000022000000000000000000000000
#0571c:00000000002200000000000000000000
#05717:0000000000000000000000002333333300000000000000000000000000000000
#05710:0000000000410000
#05814:13000013
#05816:0013000013000000
#05817:0000131300000000
#05812:00000000001300000000230000000000
#0581b:0013
#05919:13000013
#05917:0013000013230000
#05916:0000131300000000
#0591b:00000000001300000000000000000000
#05912:0013
#06014:1313
#06019:00131300
#0601b:0000001300000000
#0601a:0000000000140000
#06012:0000000000140013
#06015:00000013
#06018:00000000000000000000000000130000
#06118:00330013000000130000000000000000
#06115:00131300
#0611b:00000000001300000013000000000000
#0611a:0000000000000014
#06116:00000014
#06112:0023002300240013
#06216:14000014
#06212:00001400001300000000130000001400
#0621b:0013001300000013
#06217:00130000
#06215:0013
#0621a:0000000000240000
#06316:14130014
#0631a:0014000000000014
#06312:0013001300240013
#0631b:00000000001300000000130000000000
#06318:0013
#06416:1400140000000014
#06412:0014001400000000
#0641b:0013000000000000
#06418:0000001400000000
#06413:0014
#06419:0014
#06414:00000000000000000000240000340000
#06512:14000000001300000013000014000000
#0651a:14000000000000000000000000140000
#06514:0000000000000014
#06518:00000000130000001300260000000014
#06515:00000013000000130000000000000000
#0651b:0023002300000000
#06614:14000000000000140014000000001400
#06618:00140000000014001400260000000014
#06612:00002600001400000000000014000000
#0661a:00000000140000000000000000140000
#06714:14
#06718:00140000000000000000000000000000
#06712:0024000000121200
#06715:0000000000000012
#06716:00240000
#0671a:0000002400000000
#06815:12
#06818:0012000000000000
#0681c:0012
#00218:0013000000000000
#00215:00130000
#00212:00000000000000130013001300000000
#0021b:13000000001300000013000000330000
#00217:00000000000000130000001313000000
#00216:0000000000000013
#00318:00130000
#00312:00000000001300000013000000330000
#0031b:13001300000000130013001300000000
#00315:00130013000000000000000000000000
#00316:00000000000000130000001313000000
#00317:0000000000000013
#00513:0013000000000000
#00518:00130000000000000000000000330000
#00519:00000013000000000000000000000000
#00514:00130000
#00515:0000001300000013
#0051a:00000000001300140000000000000000
#00516:00000000000000000014000000000000
#00512:23000000000000000000001400000000
#0061a:00001300000000000000001400000000
#00615:00130000000000000000000000000000
#00614:00000013000000000000000000000000
#00619:00130000
#00618:0000001300000000
#00613:00000000001300000000000000000000
#00612:00000000000000140000000000000000
#00616:00000000000000000014000000333333
#0061b:23
#01319:0013001300000000
#01312:13131300
#01314:0013001300000000
#01315:0000000000131300
#0131b:0000000013000013
#01318:00000000000000000000001300000000
#0131a:24
#01815:0000131300000000
#01818:00000000001300000000000000000000
#0181b:00000000000000130000000000000013
#01812:0000000013131300
#01817:00000000000000000013001300000000
#01819:00000000000000000000000000130000
#01814:0000000000000013
#02515:00130000000000000000000000001300
#02518:26001300000000000000000013000013
#02512:00000013000013000000000000000000
#02517:00000000000000130000000000000000
#0251b:00130000
#03815:0013000000000000
#03816:0013
#03812:2600130000130013
#03817:00000013
#0381b:0000000000130013
#03814:0000001300000000
#03818:00000000001300000000000000000000
#0381a:00000000000000130000000000000000
#0451b:0013000000130000
#04518:24130000
#04515:00000000001300000000000000000000
#04512:00000013000000001300000013000000
#04517:00000000000000001300000000130000
#04516:0000000000130000
#04514:0000000000000013
#04519:00000000000000000000000000000013
#0451a:0000002400000000
#04816:0013000000140014
#04812:00131314
#04817:0000001300000000
#0481b:00131300
#04814:13
#0481a:00130000000000000000000014000000
#04810:0000000000410000
#04912:1413000000230000
#0491a:14
#04918:00000000000013000000001300000000
#04915:0000001300001300
#0491b:00001300000000000000000000230013
#05017:00130000000000000013000000000000
#05015:00130013
#05018:00000013000000000000001300000000
#0501b:00000000002300130000000000000000
#05012:0023000000230000
#0511b:00130000000000001300000000001300
#05112:00000000130000130000000000000000
#05118:0000001300261300
#05115:00000000000000000013000000000013
#05217:0013000000000000
#0521b:00131300
#05216:0000001300140014
#05212:00131314
#05219:13
#05213:00130000000000000000000000000000
#0521a:00000014
#0431c:00000000000000000012000000000000
#0431a:00000000000000000000001200000000
#04314:0000000000120000
#04312:00330000003300000000000012002400
#04316:0012
#04318:00000033000000330000000000120000
#00952:00000053
#01055:00530000
#01058:00000063
#01558:00000000000000000000000000530000
#01552:53
#01555:0013
#0175b:00530000
#01757:00000000000000530000000000000000
#01755:0000000000130000
#02052:00000000000000000000005300000000
#02158:00000000000000530000000000000000
#02155:0000000000130000
#02258:53
#02456:00000000000000630000000000000000
#02452:16
#02657:00000000000000530000000000000000
#02652:16
#0295b:00530000
#0335a:0014
#03352:00000014
#0355b:0053
#03555:00000053
#03055:0063
#05456:0053000000000000
#0545b:0000001300000000
#05452:0000001300140000
#0545a:0000000000140000
#06052:0000000000000053
#0625b:0000005300000000
#06252:0014000000000014
#0625a:0000000000140000
#06352:0000006300140000
#0635a:0014000000000014
#06858:0052000000000000
#0685c:0042
#0005b:00000063
#00052:00000000001300000000000000000000
#00152:00000063
#0015b:00000000001300000000000000000000
#00858:16
#01252:14
#03458:16
#03457:0013
#03456:00000013
#04152:16
#04158:16
#04757:0052000000000000
#04752:00000000001c0000
#05158:0000000000160000
#06454:0000000000140000
#06452:0014000000000000
#06558:0000000000160000
#06652:0016000000000000
#06658:0000000000160000
#06752:0014000000000000
#06756:00140000
#0675a:0000001400000000
#0025b:00000000001300000000000000000000
#00257:00000053
#00352:00000000001300000000000000000000
#00356:00000063
#00452:00000000000000140000000000000000
#00456:00000000000000000014000000000000
#0045a:00000000000000000000001400000000
#0055a:00000000000000140000000000000000
#00556:00000000000000000014000000000000
#00552:00000000000000000000001400000000
#00652:00000000000000140000000000000000
#00656:00000000000000000014000000000000
#0065a:00000000000000000000001400000000
#0135a:14
#01355:00000053
#01952:00630000
#01956:00000000000000630000000000000000
#01958:0000000000130000
#0235a:00000014
#02352:00000014
#02557:00000000000000530000000000000000
#02558:16
#0275b:00000053
#02758:0000000000000013
#02755:0000000000000013
#02858:00000000000000530000000000000000
#02855:00000000000000530000000000000000
#02852:0000000000130000
#0285b:0000000000130000
#03652:00000013000000000000001300000000
#03957:0063
#03952:0063
#03956:00000013
#0395b:00000013
#03856:0013
#03857:00000013
#03852:16
#04258:0000000000160000
#04252:0000000000160000
#04454:00140000
#04452:0000000000340000
#04558:14
#0455a:0000004400000000
#04856:0013000000000000
#04857:0000001300000000
#04952:0063000000000000
#04958:0000006300000000
#0495b:00000000000000000000000000130000
#0505b:00000000001300000000000000000000
#05356:0053000000000000
#0535b:0053000000000000
#05352:0000001300140000
#05357:0000001300000000
#0535a:0000000000140000
#05257:0013000000000000
#05256:0000001300000000
#05557:0063000000000000
#05552:0000001300000000
#0555b:0000001300000000
#0575b:0000000000130000
#06152:0000000000140000
#0615a:0000000000000014
#0003b0:1323000000000000
#0003b0:00000000000000000000000013330000
#000380:0000000000000023
#001320:00000000000000000000000013330000
#001350:0000000000000023
#002320:1323000000000000
#002370:00000013
#0023b0:00000000000000000000000000332300
#003360:00000013
#003320:00000000000000000000000000332300
#004350:00000000000000000000000013330000
#004320:0000000000000023
#005380:00000000000000000000000013330000
#0053b0:0000000000000023
#006320:00000013
#006360:00000000000000000000000000333333
#007360:23
#008320:13230000
#0083b1:00132300
#008340:00001323
#008391:00000013
#009391:23
#009320:13
#009350:0023000000000000
#0093b0:00130000
#009380:0000002300000000
#009320:00000013
#009350:0000000000000023
#010350:00130000
#010320:0000002300000000
#010380:00000013
#0103b0:0000000000000023
#0123b0:0013
#012380:0000000000230000
#012380:00000013
#0123b0:0000000000000023
#013350:00000013
#013320:0000000000000023
#015320:13
#015350:00330033003300332300000000000000
#015380:00000000000000000000000000130000
#0153b0:00000000000000000000000000000023
#0173b0:00130000
#017370:0000002300000000
#017370:00000000000000130000000000000000
#0173b0:0000000000230000
#018320:13
#018350:0023000000000000
#0183b1:0013000000000000
#018381:00230000
#019321:00130000
#019361:0000002300000000
#019361:00000000000000130000000000000000
#019321:0000000000230000
#020321:00000000000000000000001300000000
#020351:00000000000000000000000000230000
#021321:13
#021351:00332300000000000000000000000000
#021380:00001333000000000000000000000000
#0213b0:00230000
#021380:00000000000000130000000000000000
#0213b0:0000000000230000
#022380:13
#0223b0:0023000000000000
#023350:13
#023320:0023000000000000
#023380:00130000
#0233b0:0000002300000000
#024360:00000000000000130000000000000000
#024320:0000000000230000
#024381:0000000000132300
#025371:00000000000000130000000000000000
#0253b1:0000000000230000
#025350:0000000000132300
#026370:00000000000000130000000000000000
#0263b0:0000000000230000
#026351:0000000000132300
#027321:13
#027351:00332300000000000000000000000000
#027380:0013000000000000
#0273b0:00000033230000000000000000000000
#027351:00130000
#027321:00000000003323000000000000000000
#0273b1:00000013
#027381:0000000000000023
#028381:00000000000000130000000000000000
#0283b1:0000000000230000
#028350:00000000000000130000000000000000
#028320:0000000000230000
#0293b0:00130000
#029380:0000002300000000
#0303b0:0000001323000000
#030351:0013
#030321:0000000000230000
#030321:0000000000000013
#030351:00000000000000000000000000000033
#031351:23
#0313b0:1323000000000000
#0313b0:0000001300000000
#031380:00000000000000332300000000000000
#031321:0000000013230000
#031351:0000000000000013
#032321:23
#034351:0013230000000000
#0353b1:0013
#035381:00000000000000000000002300000000
#035351:00000013
#036321:23
#036381:00000000001300000000000000000000
#0363b1:00000000000000230000000000000000
#036381:00000000000000000000000000130000
#0363b1:00000000000000000000000000000023
#037321:00000013000000000000000000000000
#037351:00000000002300000000000000000000
#037380:00000000001300000000000000000000
#0373b0:00000000000000230000000000000000
#037320:0000000013230000
#038380:0013230000000000
#039370:0013
#0393b0:00000023
#039321:0013
#039361:00000023
#0413b1:00000000000013330000000000000000
#041381:0023
#041350:00000000000000001333000000000000
#041320:0000000000230000
#0413b1:00000000000000000000133300000000
#041381:00000023
#041350:00000000000000000000000013330000
#041320:0000000000000023
#043320:13330000000000000000000000000000
#043350:0023000000000000
#043381:00001333000000000000000000000000
#0433b1:00230000
#043320:00000000133300000000000000000000
#043350:0000002300000000
#043381:00000000000013330000000000000000
#0433b1:0023
#044381:0000142400000000
#045341:1424000000000000
#047371:0012000000000000
#047321:00000000002c0000
#047381:0000000000001323
#049321:0013000000000000
#049351:00000000002300000000000000000000
#049381:0000001300000000
#0493b1:0000000000230000
#049351:00000000000000000000000000000013
#050321:00230000000000000000000000000000
#050351:00000000000000130000000000000000
#050321:00000000000000000023000000000000
#0503b1:00000000000000000000000000130000
#050381:00000000000000000000000000000023
#050350:00000000000000000000000000000013
#051320:00230000000000000000000000000000
#0513b0:0013230000000000
#051350:0000000000001323
#053360:0013000000000000
#053330:00000000003300000000000000000000
#053320:0000002300000000
#0533b1:0013000000000000
#053381:00000000003300000000000000000000
#053371:0000002300000000
#054361:0013000000000000
#054321:00000000003323000000000000000000
#055371:0013000000000000
#0553b1:00000000003323000000000000000000
#0563a1:0014240000000000
#056321:0000000000120000
#056341:00000000000000000000003232220000
#056370:0000000000120000
#056390:00000000000000000000003232220000
#057370:0000000000000000000000001333333300000000000000000000000000000000
#057320:0023
#057360:0000000000130000
#057320:0000000000000023
#057371:0000000000000013
#0583b1:0023000000000000
#058371:0000000000130000
#0583b1:0000000000000023
#058360:0000000000000013
#059320:0023000000000000
#059320:0000000000130000
#059360:0000000000000023
#0593b1:0000000000000013
#060371:0023000000000000
#060320:0013000000000000
#060360:0000002300000000
#060320:0000000000000013
#061350:23
#0613b1:13
#061381:00332300000000000000000000000000
#0623b1:0000001300000000
#062381:0023
#063321:0000001300000000
#063351:0023
#0643a1:0000000000142400
#064360:00000014
#064340:00000000000000000000000000340000
#064320:0000000000000024
#068380:0012000000000000
#0683b0:00000000002200000000000000000000
