This file was generated by Ched 2.7.0.0.
#TITLE ""
#ARTIST ""
#DESIGNER ""
#DIFFICULTY 0
#PLAYLEVEL
#SONGID ""
#WAVE ""
#WAVEOFFSET 0
#JACKET ""
#REQUEST "ticks_per_beat 480"
#00002: 4
#BPM01: 127.4567
#00008: 01
#TIL00: ""
#HISPEED 00
#MEASUREHS 00
#00815:0013000000130000
#00812:0000001300000013
#00818:26130013
#0081b:0013
#01012:1313130000000000
#01018:00130013000000000000000000000000
#0101b:0000000013131300
#01015:00000000000000000013001300000000
#01115:0000001300130000
#01118:00001300000000000013001300000000
#01112:23002313
#0111b:00230000
#01214:0014001400130000
#0121b:0013
#01216:0013
#01219:0000000000130000
#01217:00000013
#01212:00000013
#01218:24140000
#0161b:2313000000000000
#01615:0000131300000000
#01618:0000000013130000
#01612:0000000000001313
#01610:41
#0171b:1313130000000000
#01715:00130013000000000000000000001300
#01712:0000001300000000
#01718:00000000000000130000000000130013
#01915:00000000000000130000000000130013
#01918:00130013000000000000000000001300
#01912:1313130000000000
#0191b:0000001300000000
#02315:0013000000000000
#02318:13000013000000130000000000000000
#0231b:00000000000000000033003300000000
#00015:00001300001300000000000000000000
#00018:00000000130000000000001300000000
#00012:13000000000000000013000000330000
#0001b:00000000000000130000000000000000
#02415:00001300000000130000000000000000
#0241b:0013001300000000
#02412:23130000
#02418:23
#02410:41
#02618:23000000000000000000000013000013
#0261b:0013001300000000
#02615:00001300000000130000000000001300
#02612:23130000
#02718:00000000000000000013001300000000
#02715:0000000000000013000000000000000000000000130000000000000023000000
#02712:13333333333333000000000013000000
#0281b:13000013
#02815:00001300130000130000000000001300
#02818:00000013001300000000000000000000
#02912:0013131300000000
#02918:13000013001300000000001300000000
#0291b:00000000000000001333330033330000
#03018:00130013
#03015:2300000013000013
#03012:0013000000000000
#0301b:0000001300000000
#03118:1300001300001313
#03115:00000000130000001300000000130000
#03314:00000014
#03318:2300000000140000
#0331a:0000000000000014
#03315:00001434343434340000000000000000
#03312:23
#03418:0013000013000000
#0341b:00000013
#03415:0000001300000013
#03412:2600130000130000
#03410:41
#0351b:1313000013000000
#03515:13001313
#03518:00000000130013000000001300000000
#03512:00130000
#03718:00001300001300001300000000130000
#03715:00130000000000130013000013000000
#0371b:2300000000130000
#03712:00000013000000000000000000001300
#04012:0000001300002313
#0401b:2300000023130000
#04015:00000000130000000013000000000000
#04018:00001300000000000000000000130000
#05518:13000013
#05512:1313000000000013
#0551b:0013
#05515:00000000003300000000130000000000
#0561b:1300000000230000
#05618:0000131300000000
#05615:00000000001300000000000000000000
#05612:00001400000000001400000000000023
#05619:00000000000000000000003333000000
#05715:0000230000000000000000002333333300000000000000001300000000000000
#05718:00000023000000000000000000001300
#0571b:00000000002300000000230000000000
#05710:0000000000410000
#05812:1300000000230000
#0581b:0013000013000000
#05818:00000013
#05815:00000000003300000000000000001300
#06118:00000013000000001300000014000000
#06115:00000000130000130000000000000000
#06113:0000000000000014
#0611b:1300002300000000
#06112:0023000000240000
#06219:1400000000000014
#06214:0014000000001400
#0621b:00130000
#06215:0000001300000000
#0621a:0000000000240000
#06412:0000001400000000
#06416:0014
#06419:14
#06414:00001400000000000000000000340000
#0641b:00130000
#0641a:0000000000240000
#0651a:14
#06516:0000000000000014
#06512:0000002300001400
#06515:00000013000000001300000000000000
#06518:00000000130000130000260000000000
#0651b:0023000000000000
#0661a:14140000
#06616:0000001400000014
#06612:0026000014001400
#06618:0000000000260000
#06712:0026002600130013
#06718:00260013
#0671a:14
#06818:13
#06812:0013000000000000
#0681b:0013
#0041a:00000000000000000014000000000000
#00412:14343434343434000000001400000000
#00418:00000000000000000000000014343434
#00410:41
#01512:14
#01518:00000000000000000000000000130000
#01515:00340000000000000000000000000013
#0441b:00000013
#04418:2400000000000013
#04415:0000001300000000
#04414:0024000000000000
#0441a:00240000
#04412:00000000000000333333230000000000
#00118:00001300001300000000000000000000
#00115:00000000130000000000001300000000
#0011b:13000000000000000013000000330000
#00112:00000000000000130000000000000000
#00212:0013000000000000
#00218:00000000130000130000000000000000
#00215:13000000001300000013000000330000
#0021b:00000000000000000000001300000000
#0031b:0013000000000000
#00315:00000000130000130000000000000000
#00318:13000000001300000013000000330000
#00312:00000000000000000000001300000000
#0051a:14343434343434000000001400000000
#00512:00000000000000000014000000000000
#0061a:00000000000000000014000000000000
#00612:14343434343434000000001400000000
#00616:0000000000000014000000000000000000000000000000000000000000000000
#00618:00000000000000000000000000333333
#00912:0000000013130000
#00918:0000000013130000
#00915:0000000000001313
#0091b:0000000000001313
#01318:0014001400000000
#01312:0013
#01317:0013
#01319:0000000000130000
#01314:2400140000130000
#01316:00000013
#0131b:00000013
#0181b:0000000000001313
#01812:2313000000000000
#01818:0000131300000000
#01815:0000000013130000
#02012:00130013
#02018:0000001300000013
#0201b:2313
#02015:0013000000130000
#02112:1313130000000000
#02118:00130013000000000000000000130013
#02115:00000000000000130000000000001300
#0211b:0000001300000000
#0221b:00130013
#02215:0000001300000013
#02212:2313
#02218:0013000000130000
#03218:2313001300001300
#03212:2313001300001300
#0321b:0000130023130013
#03215:0000130023130013
#03615:00000000001300000033332300000013
#03618:00333323000000130000000000130000
#0361b:13
#03612:0013
#03815:0013000013000000
#03812:00000013
#03818:2600001300000013
#0381b:0000130000130000
#03912:1313000013000000
#03918:1313
#03915:0000131300002300
#0391b:00130023
#04112:0013000000000000
#04115:00130000
#04118:26000000000013333333003333330000
#0411b:0000000000130000
#0411f:11
#04215:13
#04212:0013000000260000
#0421b:00000013
#04218:0000000024000013
#0421a:00240000
#04214:0000002400000000
#04315:13333333003333330000000000000000
#04312:0000130000000024
#04318:0000000000130000
#0431b:00000013
#04512:2413
#04515:0000000000130013
#04518:0013000000001300
#0451b:00000033333323000000000000001300
#0461b:1300131313000000
#04615:13
#04616:0014000000000000
#04612:0000131313140000
#0461a:0000000000140000
#04715:00000013
#0471b:0000000000000013
#04718:0024000000000000
#0471f:0000000000210000
#04815:0013000000000013
#04812:0000001300131300
#04818:1300000013130000
#0481b:0000130000000013
#04810:0000000000410000
#05118:00130013000013000000000013000000
#05118:00130013000013000000000000000000
#05112:0000130000260013
#05112:00130000
#05115:00001300000000130000000000000000
#05115:00001300000000130000000000000000
#0511b:0013
#0511b:0013
#04915:13000000001300000000003333230000
#04912:0013000000130000
#04918:00001300000013000000000000000013
#05015:00130000000000130000000013000013
#05015:00000000000000000000000000000013
#05018:00000033332300000013001300000000
#0501b:00001300000000000000000000130000
#05012:0000000000230000
#05218:0013000000000013
#0521b:0000001300131300
#05215:1300000013130000
#05212:0000130000000013
#05318:13000000003323000000000000001300
#0531b:0013000000000000
#05315:0013000000001300
#05312:00000000003323000000130000000000
#0541b:1313000000130000
#05415:1300000000000013
#05418:00000000003300000000000013000000
#05412:0013
#05912:0013000013000000
#05912:0013
#0591b:1300000000230000
#05915:00000013
#05918:00000000003300000000000000001300
#0601b:0013000013000000
#0601b:0013
#06012:1300000000130000
#06015:00000000003300000000000013000000
#06018:0000000000000013
#06313:1400000000000014
#06318:0014001300001400
#06312:0000130000240000
#02518:00001300000000130000000000000000
#02512:0013001300000000
#0251b:23130000
#02515:23
#00712:00000000002400000000000024000000
#00714:00000000000000000024000000000000
#00718:00333300000000000000002400000000
#0071a:00000000000000240000000000000000
#01415:00333333333300000000000000000000
#01418:00000000000000000033333333330000
#01052:00630000
#0105b:00000053
#01758:00000000000000530000000000000000
#0175b:0000000000130000
#02455:00000000000000630000000000000000
#03055:0063
#06255:0000005300000000
#06254:0014000000000000
#06259:0000000000000014
#0625a:0000000000140000
#06852:0053000000000000
#0685b:0043
#00858:16
#01258:14
#03452:16
#03458:0013
#0345b:00000013
#04158:1600006300000000
#0415b:0000000000230000
#04758:0054000000000000
#04756:0000000000180000
#0645a:0000000000140000
#06454:0014000000000000
#06558:0000000000160000
#06652:0016000000000000
#06658:0000000000160000
#01552:54
#01556:0014
#02752:53000053
#02755:0000000000000023000000000000000000000000000000000000000013000000
#02855:00000000000000630000000000000000
#02852:0000000000130000
#0575b:0000000000130000
#06152:0000000000140000
#06153:0000000000000014
#00456:00000000000000140000000000000000
#00452:54
#00458:00000054
#0055a:64
#00556:00000000000000140000000000000000
#00652:54000000000000340000000000000000
#00656:0000000000000024000000000000000000000000000000000000000000000000
#01354:14
#01955:00000000000000630000000000000000
#01952:0000000000130000
#02155:00000000000000630000000000000000
#02152:0000000000130000
#0235b:00000013
#02358:00000000000000530000000000000000
#02655:00000000000000630000000000000000
#02958:00000000000000000000005300000000
#0295b:0053
#03158:53
#03155:0063
#03855:0013
#03852:00000013
#03858:16
#03952:0053
#03958:0053
#03955:00000013
#0395b:00000013
#04355:53
#04352:00230000
#04252:0000000000160000
#0445a:00140000
#04455:0000005300000000
#04452:0000000000130000
#04558:0063000000000000
#04552:14
#0455b:0000001300000000
#04855:0013000000000000
#04852:0000001300000000
#05258:0013000000000000
#0525b:0000001300000000
#0535b:0063000000000000
#05355:0063000000000000
#05358:0000001300000000
#05352:0000001300000000
#05152:0000000000160000
#0545b:0053000000000000
#05458:0000001300000000
#05552:0063000000000000
#05555:0000001300000000
#06358:0014006300000000
#06353:0000000000000014
#06352:0000000000140000
#06752:0016001600000000
#06758:00160000
#03658:00000013000000000000000000000000
#03655:00000000000000000000001300000000
#0365b:53
#03652:0053
#04955:00000000000000000000000000130000
#04952:0000000000530000
#05058:00000000001300000000000000000000
#0505b:0053000000000000
#03355:0054000000000000
#02558:00000000000000530000000000000000
#000320:00000000000000000000000013330000
#000350:0000000000000023
#0013b0:00000000000000000000000013330000
#001380:0000000000000023
#002350:00000000000000000000000013330000
#002320:0000000000000023
#003380:00000000000000000000000013330000
#0033b0:0000000000000023
#004320:14343434343434000000000000000000
#004360:00000000000000240000000000000000
#004380:00000000000000000000000014343434
#0053a0:34343434343434000000000000000000
#005360:00000000000000240000000000000000
#005340:0000000000001424
#006320:14343434343434240000000000000000
#006360:0000000000000054000000000000000000000000000000000000000000000000
#006380:00000000000000000000000013333333
#0073b0:33
#007380:00333323000000000000000000000000
#0093b0:13
#009380:0023000000000000
#009320:00130000
#009350:0000002300000000
#010320:00130000
#010350:0000002300000000
#0103b0:00000013
#010380:0000000000000023
#014320:13
#014350:00333333333323000000000000000000
#0143b0:0013
#014380:00000000000000000033333333332300
#015320:14
#015350:00340000000000000000000000000000
#015360:00000034003400342400000000000000
#017380:00000000000000130000000000000000
#0173b0:0000000000230000
#019350:00000000000000130000000000000000
#019320:0000000000230000
#021350:00000000000000130000000000000000
#021320:0000000000230000
#023350:00130000
#023320:0000002300000000
#023380:00000000000000130000000000000000
#0233b0:00000000000000000033003323000000
#024350:00000000000000130000000000000000
#024320:0000000000333323
#025380:00000000000000130000000000000000
#0253b0:0000000000333323
#026350:00000000000000130000000000000000
#026320:0000000000230000
#027320:13333333333333230000000000000000
#027350:0000000000000053000000000000000000000000000000000000000000000000
#027320:00000013
#027350:0000000000000023
#028350:00000000000000130000000000000000
#028320:0000000000230000
#0293b0:00000000000000001333330033332300
#029380:00000000000000000000003300000000
#030350:0013
#030320:0000000000230000
#031380:13
#0313b0:0023000000000000
#031350:0013
#031320:0000000000230000
#033350:00001434343434340000000000000000
#033320:0024
#0363b0:13
#036380:00333323000000000000000000000000
#036320:0013
#036350:00000000000000000033332300000000
#039380:0013
#0393b0:00000023
#039321:0013
#039351:00000023
#041381:00000000000013333333003333332300
#0413b1:0000000000330000
#043351:13333333003333332300000000000000
#043321:00330000
#044351:0000001300000000
#044321:00000000000000333333230000000000
#045381:0013000000000000
#0453b1:00000033333323000000000000000000
#047381:0014000000000000
#047361:0000000000280000
#049321:0000000000130000
#049351:00000000000000000000003333230000
#0503b1:0013000000000000
#050381:00000033332300000000000000000000
#053351:0013000000000000
#053321:00000000003323000000000000000000
#0533b0:0013000000000000
#053380:00000000003323000000000000000000
#0543b0:0013000000000000
#054380:00000000003323000000000000000000
#055320:0013000000000000
#055350:00000000003323000000000000000000
#0563b0:0000000000130000
#056390:00000000000000000000003333230000
#057350:0000000000000000000000001333333300000000000000000000000000000000
#057320:0023
#058350:00000000133300000000000000000000
#058320:0000002300000000
#059380:00000000133300000000000000000000
#0593b0:0000002300000000
#060350:00000000133300000000000000000000
#060320:0000002300000000
#062350:0000001300000000
#062320:0023
#063380:0000001300000000
#0633b0:0023
#064320:00000014
#064340:00000000000000000000000000340000
#064360:0000000000000024
#068320:0013000000000000
#068350:00000000002300000000000000000000
