This file was generated by Ched 2.7.0.0.
#TITLE ""
#ARTIST ""
#DESIGNER ""
#DIFFICULTY 0
#PLAYLEVEL
#SONGID ""
#WAVE ""
#WAVEOFFSET 0
#JACKET ""
#REQUEST "ticks_per_beat 480"
#00002: 4
#BPM01: 127.4567
#00008: 01
#TIL00: ""
#HISPEED 00
#MEASUREHS 00
#02412:14140013
#02415:00130013000013130000130000000000
#02418:00001300001200130000001300000000
#0241a:24140000
#0241b:00000000000000000013000000130000
#02416:00000000000000000000000000001414
#02410:41
#02518:00130013000013130000130000000000
#02515:00001300000000130000001300000000
#02512:24000000140000000013000000130000
#0251a:14140000
#02516:00000000001200000000000000001414
#0251b:00000013
#02612:14000000140013130000000014000000
#0261b:00000000000000130000000000000000
#02618:00001300000000000013001300000000
#02615:00130013000000000000130000000000
#02616:00000000001400000000000000001318
#0261a:24140000
#02712:1318001300002600
#02717:00130000000000000000000000000000
#0271b:00000013000000000000000000000000
#02716:00000000131800000014141400000000
#02715:00000000000000260000000000000000
#02718:0000000000000026
#02812:12000000000000130000000015000000
#0281c:00120000000000000000000000000000
#02813:0014000000000000
#02814:0000161800000000
#02816:00000000001600000000000000001414
#02819:00000014000000000000000015000000
#0281b:00000000000000130000000000000000
#02912:14001300000014002600001300001600
#0291b:13000000000000000000000000000013
#0291a:00140000
#02918:00000000000000130000160026130000
#02915:00000000000000000013000000000000
#02916:00000000001400000000000000000000
#03016:0012000000000012
#0301a:00140000000000000000000000140000
#0301c:00000012000000000000000000000000
#03012:00000000141312000000000014000000
#03018:00000000001400120000001300000012
#03014:2400000014240000
#0301b:00000000000000000013000000000000
#03015:00130000000000000000000000000000
#03112:140024001800000014182c00001c0000
#0311a:00140000001400140000001400001400
#03118:00000012000000000000000000000000
#03116:00000000000014000000000018000014
#0321a:24141400001400000014000014000000
#03216:00000014000014140000001400001414
#03212:00140000140000002414140000140000
#03318:0012120013000000
#03314:00000000000000120000001300000000
#03315:00000000000000000013000000000000
#03312:2c000000000000000000000000000013
#03313:00000000000000000000000000130000
#03319:0000000000130000
#0331a:0000001200001300
#0331b:0000000000000013
#03316:00000012001200000000000000000000
#03412:26131400
#03414:0000000000121400
#03416:0000000000000012
#0341b:00000000000000130013000000130000
#03418:26001616001300001300000013000000
#03415:0000001300000000
#03410:41
#03517:15151500
#03514:0015001500000000
#03512:00130000001300001300000000000000
#0351b:00000013000000130000000000000000
#03516:00000013
#03519:00000000000000000000001313001300
#03612:00000013000000002600000000130000
#03615:00160000000013000016002300000013
#0361b:00000000001300000000001300000000
#03618:26000023000000130000000000001300
#03712:00000013000000000014000000140000
#03715:00130000000000000000000000000000
#03719:00000000001313000000000000000000
#03716:00000000000000140000141400001414
#0371a:00001414
#03718:2613000000000000
#0371b:00000013000000000000000000000000
#03915:16000016000000000000000000001300
#0391b:00001300000000000033133300001300
#03912:00130000000000001300170023000000
#03917:00001323
#04016:00001300000000000014000024001418
#04012:24000000130000002400141800000000
#0401b:00000013000000000000000000000000
#04015:0000001300000000
#0401a:24000000000000000000000000140000
#04018:00000000000000130000000000000000
#00012:14000000000000000000001300001400
#00017:13
#00016:00001300001300000000000000140014
#00013:00130000
#00019:00000013000000000000000000000000
#0001b:00000000000000130000000000000000
#0001a:00000014
#0011a:14000000130000000000001300001400
#00116:13000000000000000000000000140014
#00117:00001300001300000000000000000000
#00114:00000013000000000000000000000000
#00112:00000000000000130000000014000000
#00212:1413000000000014
#0021b:13000000000000130000000000000000
#00215:00130000
#00217:00000013000000000000000000000000
#0021a:00000000001300000000000014000000
#00213:00000000000000000000001300000000
#00216:00000000000000000000000000140014
#0031a:14000000000000000000001300001400
#00312:13000000000000130000000014000000
#0031b:0013000000000000
#00318:00130000
#00316:00000013000000000000000000140014
#00313:00000000001300000000000000000000
#00412:24000000140000140000001413000000
#0041b:00000013000000130000000000130000
#00416:00130000001300000000000000000000
#00419:0013001300000000
#0041a:00000000000000000014000000000000
#00418:0000000000000013
#00415:00000000000000000000000000000013
#00410:41
#00512:00000013000000130000001400000000
#00517:00130000001300000000000000000000
#00514:0013001300000000
#0051a:24000000140000000000001414000000
#0051b:00000000000000130000000000001300
#00515:00000000000000000013000000000000
#00518:00000000000000000013000000000000
#00612:24000000140000140000001413000000
#00618:00000000000000000000000000130000
#00615:0000000000000013
#0061b:00000013000000130000000000000013
#00616:00130000001300000000000000000000
#00619:0013001300000000
#0061a:00000000000000000014000000000000
#00712:13000000000000140000000024000000
#00715:00130000002400000024000000000000
#00718:0013000000000000
#0071b:00000013000000000000000000000000
#0071a:00000000001400000014000024000000
#00716:00000000000000000000002400001414
#00717:00000000000000240000000000000000
#00814:1313
#00819:00130013
#00812:0013000000130013
#0081b:0000001300130013
#00818:0013000000000000
#00815:0000001300000000
#0081a:24
#0091b:0013130000001300
#00918:0000001300130000
#0091a:0014
#00912:13001413
#00916:00130000
#00915:00000000000000000000001300000000
#01016:000000001300000000140000001300000000000000140000
#01012:130000000000140000000000000000000013000000000000
#01017:001300000000000000000000000000001300000000000000
#01014:000013000000000000000000000000130000000000000000
#01019:000000130000000000000000000013000000000000000000
#0101b:000000000013000000000000130000000000000000000000
#0101a:00000014
#0111a:00130000000000131400130000000000
#01113:00000013001300000000000000001300
#01116:00001400000014000013001300000000
#01112:23002314
#0111b:00230013
#01117:00000000000000000000000000130013
#01212:13131313
#01215:0012001200000000
#01217:0013000000000000
#0121b:0000001300000000
#0121c:00000000000000000000121200001200
#01219:00000013
#01216:0000000000130013
#0121a:24
#01318:00001300000000000000001300000000
#01315:00000013000000000000130000000000
#01312:0000131613000000
#0131b:23000013
#01317:0013
#01412:14000000000000000000001400000013
#01415:00130000000000000000000000130000
#01418:0014000000000013
#01416:00000013001300000000000000000000
#01413:00140000
#01419:0000001400000000
#01417:00000000000000130013000000000000
#01414:0014
#0141a:0000000000140000
#0141b:00000013
#0151c:12000000000000000000000000000012
#01516:00120012001200121200000000000000
#01512:00000000000000000000000000120000
#01518:00000000000000000000000000120000
#04812:00131400000014000000130016000000
#04814:00121200
#04818:13000000000000000000161300001613
#04816:0014001400000000
#0481a:00000014000000140000000000000000
#04815:00000000000000000000000000130000
#04810:0000000000410000
#04715:00130000000000000000000000000013
#0471b:00002313000000000013000000001300
#04712:000000000000000000000000000000000000000000000000000000000000000000000000000000000000000000000000000000000000000000000000000000000000000000000000000000000000000000000000000000000000000000000000000000000000000000000000000000000000000000000000000000000000000000000000000000000000000000000000000000000000000000000000000000000000000000000000000000000000000000000000000000000000000000000000000000000000000000000000000000000000000000000000000000000000000000000000000000000000000000000000230000000000000000000000000000000000000000000000000000000000000000000000000000000000000000000000000000000000000000000000140000000000000000000000000000000000000000000000000000000000000000000000000000000000000000000000000000000000000000000000130000000000000000000000000000000000000000000000000000000000000000000000000000000000000000000000000000000000000000000000150000000000000000000000000000000000000000000000000000000000000000000000000000000000000000000000000000000000000000000000140000000000000000000000000000000000000000000000000000000000000000000000000000000000000000000000000000000000000000000000160000000000000000000000000000000000000000000000000000000000000000000000000000000000000000000000000000000000000000000000150000000000000000000000000000000000000000000000000000000000000000000000000000000000000000000000000000000000000000000017000000000000000000000000000000000000000000000000000000000000000000000000000000000000000000000000000000000000000000000000160000000000000000000000000000000000000000000000000000000000000000000000000000000000000000000000000000000000000000000017000000000000000000000000000000000000000000000000000000000000000000000000000000000000000000000000000000000000000000000000150000000000000000000000000000000000000000000000000000000000000000000000000000000000000000000000000000000000000000000000160000000000000000000000000000000000000000000000000000000000000000000000000000000000000000000000000000000000000000000000140000000000000000000000000000000000000000000000000000000000000000000000000000000000000000000000000000000000000000000000150000000000000000000000000000000000000000000000000000000000000000000000000000000000000000000000000000000000000000000000130000000000000000000000000000000000000000000000000000000000000000000000000000000000000000000000000000000000000000000000140000000000000000000000000000000000000000000000000000000000000000000000000000000000000000000000000000000000000000000000000000000000000000000000000000000000000000000000000000000000000000000000000000000000000000000000000000000000000000000000000000000000000000000000000000000000000000000000000000000000000000000000000000000000000000000000000000000000000000000000000000000000000000000000000000000000000000000000000000000000000000000000000000000000000000000000000000000000000000000000000000000000000000000000000000000000000000000000000000000000000000000000000000000000000000000000000000000000000000000000160000000000000000000000000000000000000000000000000000000000000000000000000000000000000000000000000000000000000000000000000000000000000000000000000000000000000000000000000000000000000000000000000000000000000000000000000000000000000000000000160000000000000000000000000000000000000000000000000000000000000000000000000000000000000000000000000000000000000000000000000000000000000000000000000000000000000000000000000000000000000000000000000000000000000000000000000000000000000000000000000000000000000000000000000000000000000000000000000000000000000000000000000000000000000000000000000000000000000000000000000000000000000000000000000000000000000000000000000000000000000000000000000000000000000000000000000000000000000000000000000000000000000000000000000000000000000000000000000000000000000000000000000000000000000000000000000000000000000000000000000000000000000000000000000000000000000000000000000000000000000000000000000000000000000000000000000000000000000000000000
#04718:0000130000000000001600001600001600000000000000000000000000000000
#0471a:0000000000140000140000000000000014000014000000000000000000000000
#04719:0000000000000015000015000000150000150000000000000000000000000000
#04717:0000000000000000000000170017000000000000000000000000000000000000
#0471f:0000000000210000
#04918:00000000000000000000000000130000
#04915:00130000000000000000001600000000
#04912:16000000000000000000260000230013
#0491b:0013000000000000
#04917:0000001300000000
#04914:00000000001313001300000000000000
#05015:00130016001300000000000013000000
#05018:14002600000000000013001300000000
#0501b:00000000002300130000000000130000
#05014:00000000000000001400000000000013
#05012:00000000000000000000260000130000
#05114:13
#05116:00140000141400001414000000000000
#05112:0014001400260013
#0511a:00000014000000140000000000000000
#05118:00000000000000000000260016160013
#05312:00000033133300001300140000130000
#05318:16130000000000001300000000000000
#05316:0013002300001414
#0531b:0013002300000013
#05317:00170000
#0531a:0000000000140000
#05314:00000000000000000000001400000000
#05417:13
#05412:00140000130013000000140000001300
#05416:00001400001313000000000014001400
#0541b:00000000000000001300000000130000
#05415:0013
#0541a:0000000000140000
#05418:00000000000000000000001400000000
#04612:13001616000000000000130000000013
#0461b:00000000000013000000000000130013
#04616:00000000000000000014000000000000
#04618:00130000130000000000000013000000
#04615:00000000000000130000001300000000
#0461a:0014
#0161b:00130013000000000000000000000000
#01617:0012000000000000
#01614:0000001200000000
#01612:26000000140000001300000000130000
#01618:00000000001300130013000013001300
#01616:00000000000000000000121200000000
#01615:00000000000000000000000000000013
#01610:41
#0171b:13000000001313000000000000130000
#01718:00130013000000000000000000001300
#01712:1300130000140000
#01715:00001300000000000000000000000013
#01717:00000000000000130013130000000000
#01818:13000000000000001313001300000013
#01815:00001300001300130000000013001300
#0181b:00000000000000000000000000130000
#01812:2600000000130000
#0181a:0000141200000000
#0411a:0014001400120014
#04112:26000014000000120000000000140000
#04116:00000000141400000000001200000000
#04118:26000000000000001200000000000012
#04114:00000000000000000012000000000000
#0411c:00000012
#0411f:11
#0421c:12
#04215:00120000000000000000000000000000
#04219:0012000000000000
#04212:00000012000024000000260014000000
#04216:00000000120000001200000000001414
#04218:0000001200260000
#0421a:00000000240000002400000000140000
#04416:12140000
#04418:00001200000000000000260000130000
#0441b:00000000000000000000000000000013
#04412:0024000000001300
#04415:00000000000000000000001300001300
#0441a:24240000
#04518:00000000000000130000130016160000
#0451b:0013
#04515:00000000000000000013000000001300
#04512:24000000000026000000001300000000
#04516:14
#05512:0000000013130000
#05517:00000000001313000013003300000033
#05516:13001400000000000000000000330000
#0551a:00140000000000000000000000000000
#0551b:0000131300000000
#05712:00000000002400000000000013000000
#05716:00240024000000000000230000001300
#0571a:00000024000000000000000000000000
#0571b:0000002300000000
#05718:0000000000000000000000002333333300000000000000000000000000000000
#05710:0000000000410000
#05812:1300000000230013
#0581b:0000000013000000133300330000000013000000000000000000000000000000
#05816:00000013
#05818:00000000001300000000000000000000
#05916:1300000000230013
#05918:00001300001300001300000000000000
#05912:00000013
#0591b:0000000000000000133300330000000000000000000000000000000000000000
#06012:13
#0601b:0013130000000000
#0601a:000000000000000000000000000000130000000000000000000000000000000000000000140000001400000000000000
#06016:000000000000000000000000000000000000001400140000
#06019:0000001300000000
#0631b:00000013
#06317:1300000000230013
#06315:00001300001300001300000000000000
#06312:0000000000000000133300330000000000000000000000000000000000000000
#0641b:13
#06412:000000130000130000000000000000000000140014000000
#06416:000000000000000000000000000000230000001400140000
#06413:00000000001300000000000000000000
#06414:0000001300000000
#0611a:14141400
#06112:00140000001428000014000000000000
#06116:00002814000000140000000000000000
#0611b:00000013
#06117:0000000000230013
#06512:14002800140000001400240000000014
#0651a:00140000001400000014000000000000
#06516:00000014000028140000140014000000
#06518:0000000000000016
#0661b:13000000000000000013000000000000
#06612:00130000000016001300240000000014
#06616:0014140000141400
#0661a:00002400000000140000000000000000
#06618:0000000000000016
#06718:1326000000000012
#06715:00130000000000000000000000000000
#06712:0013262c00121200
#0671b:00130000
#06716:0000000000121200
#06714:0000000000000012
#0681c:0012
#06818:1212
#0681a:0012000000000000
#06814:12
#06816:0012000000000000
#0191b:13130000
#01912:13000000001313000000000000130000
#01916:00000000000000130013130000000000
#0191a:0000000000140000
#01915:00130013000000000000000000001300
#01918:00001300000000000000000000000013
#0201b:00130013000000000013000000000000
#02017:0012000000000000
#02012:26000000140000001300000012120000
#02018:00000000001300130000001300001300
#02014:0000001200000000
#02015:00000000000000000000130000000013
#02112:13000000000000000000000000000012
#0211b:13000000000000000013130000000000
#02118:00130013000000000000000000000000
#02115:0013000000000000
#02116:00000000130000000000140000120000
#02113:00000000000000130000000000000000
#0211a:00000000001313000000000000000000
#0211c:00000000000000000000000000120000
#0221b:0013000000130000
#02215:00000013000000000013000000001316
#02218:26000000130013001600000013160000
#02212:00130000001600130000001300000000
#02312:1600001600001616000000001c000000
#02318:00001600160000000000001600000000
#02316:00000000000000000000000000001414
#0231b:13
#05612:00000000141400001400000000220000
#05616:00330000000014000000000000000024
#0561c:0000000000220000
#05615:00000000000000000000002200000000
#05619:00000022
#0561a:00000000000000000000000000000024
#05617:00000033000000000000000000000000
#0381a:0000000014120000
#03818:2600001300001412
#03812:26001616000000130013000000130000
#03815:00000000001300001300000013000000
#0381b:00130000
#0521a:0014121412000000
#0521b:00130000000000000000130000000000
#05215:13000000000000000000001300000013
#05216:0014001400000000
#05212:00000014000000140000160000001600
#05218:00000000000000000000000016130000
#0621b:1300000000230013
#06212:0000000013000000133300330000000013000000000000000000000000000000
#06217:00000013
#06215:00000000001300000000000000000000
#04312:1400001214120024
#04316:00001200000000000012000000000000
#0431a:00000012000000140000000000000000
#04314:00120000
#04318:00000000001200000000000000001200
#04319:00000000000000000000001200000000
#04315:00000012
#0431c:00120000000000000000000000120000
#02455:00000000000000530000000000000000
#0245a:44
#02558:00000000000000630000000000000000
#02552:34
#02652:00000000000000530000000014000000
#0265a:44
#02756:00000000000000000044344400000000
#02752:00000036
#02758:0000000000000046
#02852:00000000000000530000150000000000
#0285b:00000000000000530000000000000000
#02859:0000000000150000
#0295b:53
#02952:0053000000000000
#03552:0053
#03556:00000053
#03652:00000053000000000000000000000000
#0365b:00000000000000000000006300000000
#03658:00000043000000000000000000000000
#03655:00000000000000000000003300000000
#03752:00000053000000000000000000000000
#00057:53
#00056:00000000001300000000000000000000
#00156:53
#00157:00000000001300000000000000000000
#0025b:53
#0025a:00000000001300000000000000000000
#00352:63
#00353:00000000001300000000000000000000
#00452:00000000000000540000000000000000
#0045b:00000000000000430000000000000000
#0045a:00000000000000000054000000000000
#00456:00000000000000000034004400000000
#00552:00000000000000330000000000000000
#00854:5353
#00859:00530053
#00852:0023000000230000
#0085b:0000002300000023
#0085a:44
#00856:00130013
#00857:0013
#00952:23000053
#00956:00230000
#0095b:00000053
#00957:13
#0115a:0014
#01152:00000014
#01257:0053000000000000
#0125b:0000005300000000
#01256:0000000000530053
#01252:00000053
#0125a:14
#01352:00330000
#0135b:43000043
#0155c:52
#01552:00000000000000000000000000520000
#01558:0042
#01556:0032
#04958:00000000000000000000000000630000
#0495b:0063000000000000
#04957:0000006300000000
#04952:00000000000000000000000000330000
#0505b:00000000004300000000000000630000
#05055:00000000005300000000000000000000
#01658:00000000000000000053000000000000
#01752:0000530000140000
#01757:00000000000000530000000000000000
#01858:53
#01855:0053000000000000
#0415a:0000001400000014
#04152:36
#04158:46
#04456:00540000
#04458:0000000000160000
#0445a:14140000
#04452:0014000000000000
#05456:0054004300000054
#05452:0000003300140000
#06056:0000000000000054
#0605b:0043000000000000
#06456:0000000000130064
#06452:0033000000000000
#06556:0000000000540000
#06552:0000000000140000
#06656:0064000000540000
#0665a:0014000000000000
#06652:0000000000140000
#0685c:0042
#0685a:0052000000000000
#06858:0042
#06856:0052000000000000
#0195b:00630000
#01956:00000000000000630000000000000000
#0195a:0000000000140000
#02058:00000000000000000000005300000000
#02156:0000530000140000
#02153:00000000000000530000000000000000
#0215c:00000000000000000000000000620000
#02352:5600000000000016000000161c000000
#02358:00000000560000000016000000000000
#05656:0000005400000000
#03452:3614
#03458:46005353
#03454:00000014
#0345b:00000000000000000023000000230000
#04252:0000001400360000
#04258:0000000000460000
#0425a:00141400
#06758:0046000000000000
#06752:0000361c00000000
#00652:00000000000000540000000000000000
#0065b:00000000000000430000000000000000
#0065a:00000000000000000054000000000000
#00656:00000000000000000034004400000000
#03352:1c
#03858:46000014
#03852:36000000000000000023000000230000
#0385a:0014
#03855:00006363
#03957:00005333
#03952:00000033
#0395b:0000000000230000
#04556:64
#04552:1400001600000000
#0475b:00005353000000000053130000000000
#0475a:0000000000240000540000000000000054000024000000000000000000000000
#04759:0000000000000025000055000000550000250000000000000000000000000000
#04758:0000000000000000002600005600002600000000000000000000000000000000
#04757:0000000000000000000000270027000000000000000000000000000000000000
#04752:000000000000000000000000000000000000000000000000000000000000000000000000000000000000000000000000000000000000000000000000000000000000000000000000000000000000000000000000000000000000000000000000000000000000000000000000000000000000000000000000000000000000000000000000000000000000000000000000000000000000000000000000000000000000000000000000000000000000000000000000000000000000000000000000000000000000000000000000000000000000000000000000000000000000000000000000000000000000000000000000630000000000000000000000000000000000000000000000000000000000000000000000000000000000000000000000000000000000000000000000240000000000000000000000000000000000000000000000000000000000000000000000000000000000000000000000000000000000000000000000630000000000000000000000000000000000000000000000000000000000000000000000000000000000000000000000000000000000000000000000250000000000000000000000000000000000000000000000000000000000000000000000000000000000000000000000000000000000000000000000640000000000000000000000000000000000000000000000000000000000000000000000000000000000000000000000000000000000000000000000260000000000000000000000000000000000000000000000000000000000000000000000000000000000000000000000000000000000000000000000650000000000000000000000000000000000000000000000000000000000000000000000000000000000000000000000000000000000000000000027000000000000000000000000000000000000000000000000000000000000000000000000000000000000000000000000000000000000000000000000660000000000000000000000000000000000000000000000000000000000000000000000000000000000000000000000000000000000000000000027000000000000000000000000000000000000000000000000000000000000000000000000000000000000000000000000000000000000000000000000650000000000000000000000000000000000000000000000000000000000000000000000000000000000000000000000000000000000000000000000260000000000000000000000000000000000000000000000000000000000000000000000000000000000000000000000000000000000000000000000640000000000000000000000000000000000000000000000000000000000000000000000000000000000000000000000000000000000000000000000250000000000000000000000000000000000000000000000000000000000000000000000000000000000000000000000000000000000000000000000630000000000000000000000000000000000000000000000000000000000000000000000000000000000000000000000000000000000000000000000240000000000000000000000000000000000000000000000000000000000000000000000000000000000000000000000000000000000000000000000130000000000000000000000000000000000000000000000000000000000000000000000000000000000000000000000000000000000000000000000000000000000000000000000000000000000000000000000000000000000000000000000000000000000000000000000000000000000000000000000000000000000000000000000000000000000000000000000000000000000000000000000000000000000000000000000000000000000000000000000000000000000000000000000000000000000000000000000000000000000000000000000000000000000000000000000000000000000000000000000000000000000000000000000000000000000000000000000000000000000000000000000000000000000000000000000000000000000000000000000000000000000000000000000000000000000000000000000000000000000000000000000000000000000000000000000000000000000000000000000000000000000000000000000000000000000000000000000000000000000000000000000000000000000000000000000000000000000000000000000000000000000000000000000000000000000000000000000000000000000000000000000000000000000000000000000000000000000000000000000000000000000000000000000000000000000000000000000000000000000000000000000000000000000000000000000000000000000000000000000000000000000000000000000000000000000000000000000000000000000000000000000000000000000000000000000000000000000000000000000000000000000000000000000000000000000000000000000000000000000000000000000000000000000000000000000000000000000000000000000000000000000000000000000000000000000000000000000000000000000000000000000000000000000000000000000000000000000000000000000
#04852:0034003400000000
#04856:0054005400000000
#0485a:00000024000000240000000000000000
#05152:0000000000360000
#05158:0000000000460000
#0525a:0044004400000000
#05256:0064006400000000
#05252:00000024000000240000000000000000
#05556:0064000000000000
#05557:0000003300000000
#0555b:0000004300000000
#0575b:0000004300000000
#05752:0033
#05756:0000000000330033
#06157:0000000000430043
#06252:0033533300000000
#06255:00000000002300000000000000000000
#0625b:0000000000330033
#06352:0000533300000000
#06355:00003300002300000000000000000000
#06357:0000000000430043
#05958:00004300002300000000000000000000
#0595b:0000634300000000
#05956:0000000000330033
#05858:00000000002300000000000000000000
#0585b:0043634300000000
#05852:0000000000430043
#01052:00140000
#0105a:00000014
#04352:1400000014000014
#05356:0063004300000054
#05352:00230000
#0535b:0000004300000000
#0535a:0000000000140000
#000370:13
#0003b0:0023000000000000
#000320:00000000000000130000000000000000
#000360:00000000000000000023000000000000
#0003b1:00000000000000000013002300000000
#001361:13
#001321:0023000000000000
#0013b1:00000000000000130000000000000000
#001371:00000000000000000023000000000000
#001320:00000000000000000013002300000000
#0023b0:13
#002370:0023000000000000
#002320:00000000000000130000000000000000
#002360:00000000000000000023000000000000
#002391:00000000000000000013002300000000
#003321:13
#003361:0023000000000000
#0033b1:00000000000000130000000000000000
#003371:00000000000000000023000000000000
#003340:00000000000000000013002300000000
#004320:00000000000000140000000000000000
#004360:00000000000000000024000000000000
#0043a1:00000000000000000014000000000000
#004361:00000000000000000000002400000000
#005321:00000014
#005361:0000000000000024
#006321:00000000000000140000000000000000
#006361:00000000000000000024000000000000
#0063a0:00000000000000000014000000000000
#006360:00000000000000000000002400000000
#008340:13
#008320:0033000000000000
#008360:00230000
#008391:00130000
#0083b1:0000003300000000
#008371:0023
#008340:0013
#008320:0000000000330000
#008360:00000023
#008391:00000013
#0083b1:0000000000000033
#009371:23
#009320:13
#009360:0023000000000000
#009360:00130000
#009320:0000002300000000
#0093b0:00000013
#009380:0000000000000023
#009321:00000013
#009351:0000000000000023
#012371:0013000000000000
#0123b1:00230000
#0123b1:0000001300000000
#012371:0023
#012361:0000000000130033
#012321:00000033
#013321:23
#013381:0000162600000000
#013321:0000000000001626
#013380:0000000000000016
#014380:26
#0153c0:12
#015380:00000052000000002200000000000000
#015320:00000000000000000000000000120000
#015360:00000000000000000000000000000022
#016380:00000000000000000013000000000000
#0163b0:00000000000000000000002300000000
#017320:00130000
#017360:0000002300000000
#017370:00000000000000130000000000000000
#017330:00000000000000000023000000000000
#018380:13
#0183b0:0023000000000000
#018351:0013000000000000
#018321:00230000
#0193b1:00130000
#019371:0000002300000000
#019361:00000000000000130000000000000000
#0193a1:00000000000000000023000000000000
#020381:00000000000000000000001300000000
#0203b1:00000000000000000000000000230000
#021361:00130000
#021321:0000002300000000
#021331:00000000000000130000000000000000
#021371:00000000000000000023000000000000
#0213c1:00000000000000000000000000120000
#021381:00000000000000000000000000000022
#023321:16
#023351:0023000000000000
#023381:0000162300000000
#023381:00000000000000160026000000000000
#023320:00000000000000000016002600000000
#024350:00000000000000130000000000000000
#024320:00000000000000000023000000000000
#025380:00000000000000130000000000000000
#0253b0:00000000000000000023000000000000
#026320:00000000000000130000000000000000
#026350:00000000000000000023000000000000
#0263b0:0000000000001323
#028320:00000000000000130000000000000000
#028390:0000000000250000
#0283b1:00000000000000130000000000000000
#028321:0000000000250000
#0293b1:13
#029371:0023000000000000
#029320:0013000000000000
#029360:00230000
#034380:0000000013230000
#0343b0:00000000000000000053000000000000
#034380:0000000000001323
#0343b0:00000000000000000000000000530000
#035320:0013
#035360:00000000000000000000002300000000
#035360:00000013
#036320:23
#036380:00001323000000000000000000000000
#036321:00000013000000000000000000000000
#036361:00000000002300000000000000000000
#036351:00000000000000000000132300000000
#0363b0:00000000000000000000001300000000
#036370:00000000000000000000000000230000
#037320:00000013000000000000000000000000
#037360:00000000002300000000000000000000
#038350:0000000013230000
#038320:00000000000000000053000000000000
#038350:0000000000001323
#038320:00000000000000000000000000530000
#039320:00130000
#039350:0000002300000000
#039381:00130000
#0393b1:0000002300000000
#039371:00001323
#0393b1:00000000000000000033333300000000
#040371:00130000
#0403b1:0000002300000000
#044361:00140000
#044321:0000002400000000
#0443c0:00000000000012220000000000000000
#044361:00000000000000122200000000000000
#044380:00000000000000001222000000000000
#044321:00000000000000000012220000000000
#045361:14
#0453a1:0024000000000000
#045320:00001222000000000000000000000000
#045381:00000012220000000000000000000000
#045360:00000000122200000000000000000000
#0453c1:00000000001222000000000000000000
#045381:00000000000000000000000000000013
#046381:23
#046351:00000000001323000000000000000000
#0473b1:00001353000000000053230000000000
#0473a1:0000000000540000540000000000000054000054000000000000000000000000
#047391:0000000000000055000055000000550000550000000000000000000000000000
#047381:0000000000000000005600005600005600000000000000000000000000000000
#047371:0000000000000000000000570057000000000000000000000000000000000000
#047320:000000000000000000000000000000000000000000000000000000000000000000000000000000000000000000000000000000000000000000000000000000000000000000000000000000000000000000000000000000000000000000000000000000000000000000000000000000000000000000000000000000000000000000000000000000000000000000000000000000000000000000000000000000000000000000000000000000000000000000000000000000000000000000000000000000000000000000000000000000000000000000000000000000000000000000000000000000000000000000000000130000000000000000000000000000000000000000000000000000000000000000000000000000000000000000000000000000000000000000000000540000000000000000000000000000000000000000000000000000000000000000000000000000000000000000000000000000000000000000000000530000000000000000000000000000000000000000000000000000000000000000000000000000000000000000000000000000000000000000000000550000000000000000000000000000000000000000000000000000000000000000000000000000000000000000000000000000000000000000000000540000000000000000000000000000000000000000000000000000000000000000000000000000000000000000000000000000000000000000000000560000000000000000000000000000000000000000000000000000000000000000000000000000000000000000000000000000000000000000000000550000000000000000000000000000000000000000000000000000000000000000000000000000000000000000000000000000000000000000000057000000000000000000000000000000000000000000000000000000000000000000000000000000000000000000000000000000000000000000000000560000000000000000000000000000000000000000000000000000000000000000000000000000000000000000000000000000000000000000000057000000000000000000000000000000000000000000000000000000000000000000000000000000000000000000000000000000000000000000000000550000000000000000000000000000000000000000000000000000000000000000000000000000000000000000000000000000000000000000000000560000000000000000000000000000000000000000000000000000000000000000000000000000000000000000000000000000000000000000000000540000000000000000000000000000000000000000000000000000000000000000000000000000000000000000000000000000000000000000000000550000000000000000000000000000000000000000000000000000000000000000000000000000000000000000000000000000000000000000000000530000000000000000000000000000000000000000000000000000000000000000000000000000000000000000000000000000000000000000000000540000000000000000000000000000000000000000000000000000000000000000000000000000000000000000000000000000000000000000000000230000000000000000000000000000000000000000000000000000000000000000000000000000000000000000000000000000000000000000000000000000000000000000000000000000000000000000000000000000000000000000000000000000000000000000000000000000000000000000000000000000000000000000000000000000000000000000000000000000000000000000000000000000000000000000000000000000000000000000000000000000000000000000000000000000000000000000000000000000000000000000000000000000000000000000000000000000000000000000000000000000000000000000000000000000000000000000000000000000000000000000000000000000000000000000000000000000000000000000000000000000000000000000000000000000000000000000000000000000000000000000000000000000000000000000000000000000000000000000000000000000000000000000000000000000000000000000000000000000000000000000000000000000000000000000000000000000000000000000000000000000000000000000000000000000000000000000000000000000000000000000000000000000000000000000000000000000000000000000000000000000000000000000000000000000000000000000000000000000000000000000000000000000000000000000000000000000000000000000000000000000000000000000000000000000000000000000000000000000000000000000000000000000000000000000000000000000000000000000000000000000000000000000000000000000000000000000000000000000000000000000000000000000000000000000000000000000000000000000000000000000000000000000000000000000000000000000000000000000000000000000000000000000000000000000000000000000000000000000000000
#048360:0014240000000000
#0483a0:00000054000000000000000000000000
#048360:0000001424000000
#0483a0:00000000000000540000000000000000
#0493b0:0013000000000000
#049370:00000000002300000000000000000000
#049370:0000001300000000
#0493b0:0000000000230000
#049350:00000013
#049320:00000000000000000000000000230000
#049381:00000000000000000000000000130000
#0493b1:00000000000000000000000000000023
#050381:00130000
#0503b1:00000000002300000000000000000000
#050350:00000000001300000000000000000000
#050320:00000000000000230000000000000000
#0503b0:00000000000000000000000000130000
#050370:00000000000000000000000000000023
#052360:0014240000000000
#052320:00000054000000000000000000000000
#052360:0000001424000000
#052320:00000000000000540000000000000000
#053360:0013002300000000
#053320:00000033333300000000000000000000
#053360:0000000000000014
#054320:24
#054360:0014000000000000
#0543a0:00240000
#054360:0000000000000014
#0553a0:24
#055360:0014000000000000
#055320:00240000
#0553b0:0000000000130000
#055370:00000000000000000000003323000000
#055321:00000013
#055361:00000000000000000000000000332300
#0553b0:0000000000000013
#055370:00000000000000000000000000000033
#056370:23
#056321:13
#056361:00332300000000000000000000000000
#0563b0:0013000000000000
#056370:00000033230000000000000000000000
#056360:0000001400000000
#0563a0:0024
#056360:00000000000000000000000000000014
#057320:00240000000000000000000000000000
#0573a0:00000014000000000000000000000000
#057360:00000000002400000000000000000000
#057380:0000000000000000000000001333333300000000000000000000000000000000
#057320:0023
#0573b0:0000000000130000
#057370:00000023
#0573b0:0000000000000013
#058370:23
#058360:0013000000000000
#058320:00230000
#0583b1:0000000000000000133300332300000000000000000000000000000000000000
#058381:00000000003300000000000000000000
#058320:0000001300000000
#058360:0023
#058370:0000000000130000
#0583b0:00000023
#058370:0000000000000013
#0593b0:23
#059320:0013000000000000
#059360:00230000
#0593b1:0000000000000000133300332300000000000000000000000000000000000000
#059381:00000000003300000000000000000000
#059360:0000001300000000
#059320:0023
#0593b0:0000000000130000
#059370:00000023
#0593b0:0000000000000013
#060370:23
#060360:0013000000000000
#060320:00230000
#060320:0000001300000000
#060360:0023
#0603b1:0013
#060371:0000000000230000
#060320:0000000000142400
#060360:0000000000000014
#061320:24
#061320:0000000000130000
#061360:00000023
#061320:0000000000000013
#062360:23
#062370:0013000000000000
#0623b0:00230000
#062321:0000000000000000133300332300000000000000000000000000000000000000
#062351:00000000003300000000000000000000
#0623b0:0000001300000000
#062370:0023
#062360:0000000000130000
#062320:00000023
#062360:0000000000000013
#063320:23
#0633b0:0013000000000000
#063370:00230000
#063321:0000000000000000133300332300000000000000000000000000000000000000
#063351:00000000003300000000000000000000
#063370:0000001300000000
#0633b0:0023
#063320:0000000000130000
#063360:00000023
#063320:0000000000000013
#064360:23
#064370:0013000000000000
#0643b0:00230000
#0643b0:0000001300000000
#064370:0023
#064321:0013
#064361:0000000000230000
#0643a0:0000000000142400
#064360:0000000000000014
#0653a0:24
#065360:0000000000140000
#0653a0:00000024
#065340:00000000000000000000000000142400
#066360:0014000000000000
#066320:00240000
#066380:00000000001424000000000000000000
#066360:0000000000140000
#0663a0:00000024
#066340:00000000000000000000000000142400
#0683a0:0012000000000000
#0683c0:00000000002200000000000000000000
#068361:0012000000000000
#068381:00000000002200000000000000000000
