This file was generated by Ched 2.7.0.0.
#TITLE ""
#ARTIST ""
#DESIGNER ""
#DIFFICULTY 0
#PLAYLEVEL
#SONGID ""
#WAVE ""
#WAVEOFFSET 0
#JACKET ""
#REQUEST "ticks_per_beat 480"
#00002: 4
#BPM01: 127.4567
#00008: 01
#TIL00: ""
#HISPEED 00
#MEASUREHS 00
#0001a:14140000
#00014:00001414
#00118:14140000
#00112:00001414
#0021a:14140000
#00214:00001414
#00318:14140000
#00312:00001414
#00519:00000014
#00513:00000014
#00512:00343434343434000000000000000000
#00812:14
#00814:00140000
#00818:0014
#0081a:00000014
#0091a:1434343400343434
#00917:0014
#01018:00140000
#01014:0014
#01012:00000014
#01112:1434343400343434
#01115:0014
#01218:00140000
#01214:0014
#0121a:00000014
#01312:14
#01318:00140000
#01314:0014
#0131a:00000014
#01414:1414
#01418:00140014
#0161a:1414
#01614:00140014
#01610:41
#0171a:14343434343434000000000000000000
#01812:1414
#01818:00140014
#01912:14343434343434000000000000000000
#02018:1414
#02012:00140014
#02118:14343434343434000000000000000000
#02214:1414
#0221a:00140014
#02314:14343434343434000000000000000000
#0241a:14
#02414:00140000
#02410:41
#02512:14
#02518:00140000
#0261a:14
#02614:00140000
#02818:00140000
#0291a:14
#02914:00140000
#03012:14
#03013:00140000
#03014:0014
#03015:00000014
#0311a:14
#03119:00140000
#03118:0014
#03117:00000014
#03215:14
#03214:00140000
#03213:0014
#03212:00000014
#03317:14
#03318:00140000
#03319:0014
#0331a:00000014
#03418:0014000000000000
#03412:24140000
#03414:00001414
#0341a:0000000000140000
#03410:41
#03512:14141400
#03518:0014001400000000
#0361a:1414
#03614:0014000000140000
#03618:00140014
#03612:0000001400000014
#0371a:1414000000000000
#03714:0000141400000000
#03718:0000000000343434
#03814:0014000000000000
#0381a:24140000
#03818:00001414
#03812:0000000000140000
#0391a:14141400
#03914:0014001400000000
#04012:1414
#04018:0014000000140000
#04014:00140014
#0401a:0000001400000014
#04112:14140000
#0411a:0000001400000000
#04118:0014000000000000
#0411f:11
#0421a:0000000000140014
#04214:00140014
#04218:0000001400000000
#04212:0014
#04312:14
#04318:0000000000000014
#04412:0000000000140000
#04418:0000000000140000
#04414:14140000
#0441a:0014000000000000
#0451a:14000014
#04514:14000014
#04512:0000001400000000
#04518:0000001400000000
#04612:0014000000000014
#04618:0014000000000000
#0461a:0000000000140000
#04718:0014000000000000
#04714:00000014
#0471a:0000000000240014
#0471f:0000000000210000
#04818:0014001400000000
#04812:00140000
#0481a:0000000000140000
#04814:00000014
#04819:0000000000000014
#04810:0000000000410000
#04913:14
#04918:0014000000001400
#04914:0000000000140000
#04912:0000000000000014
#0501a:1414
#05014:0014000000141400
#05018:0000140000000014
#05012:0000001400000000
#05118:14000014
#05112:0000000000240014
#05114:0000343434000000
#05214:0014001400000000
#0521a:00140000
#05212:0000000000140000
#05218:00000014
#05213:0000000000000014
#05319:14
#05314:0014000000001400
#0531a:0000000000140014
#05414:14
#0541a:0014000000000000
#05412:0000000000140014
#05418:00000014
#05518:14
#05512:0014000000000000
#0551a:0000000000141400
#05514:0000000000000014
#05614:14
#05618:0014140000000000
#05612:0000001414000000
#0561a:0000000000240000
#05712:0000000000140014
#05718:00000014
#05710:0000000000410000
#05818:0014001400001400
#05814:0000140000140014
#0591a:0014001400000000
#05914:0000140000000014
#05912:0000000000140000
#05918:00000014
#06018:0014000000001400
#0601a:0000001400000000
#06014:0000140000140000
#06012:0000000000000014
#0611a:0014000000000000
#06118:0000001400001400
#06114:0000140000000014
#06112:0000000000140000
#0621a:1400000000140000
#06214:00000014
#06218:0000000000000014
#06312:14
#06314:0000000000140000
#0631a:00000014
#06313:0000000000000014
#06419:1400000000000014
#06418:0000000000140000
#06412:00000014
#06513:14
#06512:0000000000240000
#06518:0000000000240000
#06714:0000240000141400
#06718:0024002400000014
#06818:14
#06812:0024
#0681a:0024
#0661a:0024000000000000
#06614:0024000000000000
#06612:0000000000240000
#06618:0000000000240000
#0041a:00343434343434000000000000000000
#00414:00000000000000000000000000343434
#00410:41
#00612:00343434343434000000000000000000
#00618:00000000000000000000000000343434
#0071a:00343400000000000000000000000000
#02712:0034343400343434
#00758:00000014
#0095a:54
#00957:0024
#01152:64
#01155:0024
#01554:0014
#0175a:54
#01758:0000000000140000
#01952:64
#01954:0000000000140000
#02158:54
#0215a:0000000000140000
#02354:64
#02352:00000014
#03552:0054
#03554:00000014
#03452:14
#0395a:0064
#03958:00000014
#0385a:14
#0415a:0000005400000000
#04352:64
#04758:0054000000000000
#0475a:0000000000140000
#04958:0064000000000000
#0495a:0000001400000000
#05354:0054000000000000
#05352:0000001400000000
#05152:0000000000140000
#0545a:0054000000000000
#05458:0000001400000000
#05552:0064000000000000
#05554:0000001400000000
#0565a:0000000000140000
#06758:0000001400000000
#0043a0:14343434343434000000000000000000
#004380:00000000000000240000000000000000
#004340:00000000000000000000000014343434
#005320:34343434343434000000000000000000
#005340:00000000000000240000000000000000
#006320:14343434343434000000000000000000
#006340:00000000000000240000000000000000
#006380:00000000000000000000000014343434
#0073a0:34343400000000000000000000000000
#007380:000000000000000000340000000000003400000000340000000000340000000000340000240000000000000000000000
#0093a0:1434343400343434
#009370:0034
#0103a0:24
#011320:1434343400343434
#011350:0034
#012320:24
#015340:14340034003400342400000000000000
#0173a0:14343434343434000000000000000000
#017380:00000000000000340000240000000000
#019320:14343434343434000000000000000000
#019340:00000000000000340000240000000000
#021380:14343434343434000000000000000000
#0213a0:00000000000000340000240000000000
#023340:14343434343434000000000000000000
#023320:00000000000000340034003424000000
#0243a0:00001424
#025320:00001424
#0263a0:00001424
#027320:1434343400343434
#027350:0034
#028320:24
#028340:00001424
#029380:00001424
#035320:0014
#035340:00000024
#037380:0000000014343434
#0383a0:24
#0393a0:0014
#039380:00000024
#0413a0:0000001400000000
#041380:0000000000000024
#043320:14
#043340:0024
#047380:0014000000000000
#0473a0:0000000000240000
#049380:0014000000000000
#0493a0:0000002400000000
#051340:0014343434000000
#051320:0000000000240000
#053340:0014000000000000
#053320:0000002400000000
#0543a0:0014000000000000
#054380:0000002400000000
#055320:0014000000000000
#055340:0000002400000000
#062320:0014000000000000
#062330:00340000
#062340:0000002400000000
#0633a0:0014000000000000
#063390:00340000
#063380:0000002400000000
#064320:0014000000000000
#064330:00340000
#064340:0000002400000000
#0653a0:0014000000000000
#065390:00340000
#065380:0000002400000000
#068340:00001400002400000000000000000000
