This file was generated by Ched 2.7.0.0.
#TITLE ""
#ARTIST ""
#DESIGNER ""
#DIFFICULTY 0
#PLAYLEVEL
#SONGID ""
#WAVE ""
#WAVEOFFSET 0
#JACKET ""
#REQUEST "ticks_per_beat 480"
#00002: 4
#BPM01: 150
#00008: 01
#TIL00: ""
#HISPEED 00
#MEASUREHS 00
#04818:2616
#0481f:21
#04918:16
#04910:41
#05012:1616
#05112:16
#05218:1616
#05318:16
#05412:1616
#05512:16
#05612:0016
#05618:26
#05718:16
#05812:16
#05818:0016
#05912:16
#06012:0016
#06018:16
#06118:16
#06212:16
#06218:0016
#06312:16
#03914:14
#03910:41
#03818:14
#03712:14
#0361a:14
#03512:14
#0341a:14
#03314:14
#03218:14
#02712:14
#02612:14
#02518:14
#02418:14
#01914:14
#01910:41
#01814:14
#0171a:14
#0161a:14
#01512:14
#01418:14
#01314:14
#0121a:14
#01112:14
#01018:14
#00914:14
#0081a:14
#00810:41
#00613:14
#00419:14
#00213:14
#00019:14
#0641a:14
#06410:41
#0651a:14
#06618:14
#06718:14
#06814:14
#06914:14
#07012:14
#07112:14
#0401f:11
#08312:34
#02910:41
#0203a0:14
#0213a0:24
#022340:14
#023340:24
#028380:14
#029380:24
#030320:14
#031320:24
#040380:14
#041380:24
#042320:14
#043320:24
#0443a0:14
#0453a0:24
#046340:14
#047340:24
#072380:16
#072370:0036
#073360:26
#074320:16
#074330:0036
#075340:26
#076380:16
#076370:0036
#077360:26
#078320:16
#078330:0036
#079340:26
#080390:14
#0813a0:24
#082330:14
#083320:3400002400000000
