This file was generated by Ched 2.7.0.0.
#TITLE ""
#ARTIST ""
#DESIGNER ""
#DIFFICULTY 0
#PLAYLEVEL
#SONGID ""
#WAVE ""
#WAVEOFFSET 0
#JACKET ""
#REQUEST "ticks_per_beat 480"
#00002: 4
#BPM01: 150
#00008: 01
#TIL00: ""
#HISPEED 00
#MEASUREHS 00
#00118:12
#0011c:0000001200000000
#00112:12
#00116:0000001200000000
#0071b:0013
#00712:0013
#00716:12
#0071c:12
#01618:0013130000000000
#01615:00000013000013000000000000000000
#0161b:23000000000000130000000000000000
#01614:0000000000130000
#01613:00000013
#01612:0000000000000013
#01715:0013130000000000
#01718:00000013000013000000000000000000
#01712:00000000000000130000000000000000
#01719:0000000000130000
#0171a:00000013
#0171b:0000000000000013
#01812:0013000000000000
#01815:00000000130000130000000000001300
#01818:0000001300001300
#0181b:0000000000130000
#01912:1300000000130000
#01915:0013001300001300
#01918:1300130000000013
#0191b:0000001300000000
#01910:41
#02015:0013001300001300
#02018:00000000130000130000000000001300
#02012:0000000000130000
#0211b:13
#02118:0013
#02115:0000001313000000
#02112:13
#02315:00000000000000000000130000130000
#0231b:13000013
#02318:0000001313000013
#02312:13000000000000001300000000000013
#0321b:0000001300000000
#03212:00000013000000000000000013000000
#03218:00000013000000000000000000001300
#03217:13
#03215:0000001300000000
#03315:1300001300130000
#0331b:00001300000013000000000000000013
#03318:00130013
#03312:00130013
#03512:0000000000000013
#03518:0013
#0351b:0000000000130000
#03615:13000013000000000000130000000000
#03612:00000000001300000000000000000000
#0361b:13000013000000000000000000001300
#03618:0000001300000000
#03917:0000000000000013
#03915:00000013
#03910:41
#04019:13
#0401b:0013000000000000
#04018:0000001300000013
#04015:00001313
#04012:0000000000130000
#04014:13
#04016:0013000000000000
#0401f:11
#04112:0000001300130000
#0411b:0013
#04119:00000000000000000000001300000000
#04117:0000000000000013
#04116:00001313
#04114:00000000000000000000001300000000
#0421b:0000130000130000
#04212:0013
#04214:00000000000000000000001300000000
#04216:0000130000000013
#04217:00001313
#04219:00000000000000000000001300000000
#04317:00130000
#0431b:00000000000000130000000000000000
#04319:00000000000000000000001300000000
#04316:00001313
#04312:0000130000130000
#04314:00000000000000000000001300000000
#0451a:00000013
#04519:0000000000000013
#04512:00130000
#04513:0013
#04514:00000013
#04618:1313002323001313
#04615:2323001313002323
#0481b:2300130000130000
#04815:0013
#04812:2300000000130000
#04818:0000001300000013
#0481f:21
#04915:0000131300000000
#04917:0000000000130000
#04919:00000013
#0491b:0000000000000013
#04912:0000000000130000
#04914:00000033
#04910:41
#05016:0013
#0501b:0013
#05012:0000130000130000
#0511b:0000131300000013
#05116:0000001300001300
#05117:0013
#05112:0000000000130000
#05215:0000000000130000
#05218:00000013
#0521b:0000000000000013
#05217:00000013000000000000000000000000
#05212:0013
#0531b:0013001300000000
#05318:00130000
#05315:0000001300000000
#05312:0000000000001313
#05317:0000000000001313
#0541b:0013000000000013
#05418:0000130000130000
#05412:0000001300000000
#05415:0000000013000013
#05518:0000000000130000
#05519:00000013
#0551a:0000000000000013
#05515:13000013
#05512:0013
#06018:0000000000130000
#06015:00000013
#06012:0000000000000013
#06016:00000013000000000000000000000000
#0601b:0013
#06112:0013000000000000
#06115:00130000
#06118:0000001300000000
#0801c:12
#08018:00120000
#08014:0012
#08118:12
#00013:12
#00016:00120000
#00019:0012
#00416:00120000
#0041a:0012
#00412:12
#00518:12
#0051c:0000001200000000
#00512:12
#00516:0000001200000000
#02218:0013001300001300
#02215:00000000130000130000000000001300
#0221b:1300000000130000
#02412:00001300000000130000000000000000
#02415:0000000000000000130000000000000000000000001300000000000000000000
#0241b:2300001300000013
#02419:0000000000130000
#0241a:00000013
#02418:00000013000000000000000000000000
#0261b:0013000000000000
#02618:00000000130000130000000000001300
#02615:0000001300001300
#02612:0000000000130000
#0271b:1300000013130000
#02718:0013001300001300
#02715:1300130000000013
#02712:0000001300000000
#0251b:00001300000000130000000000000000
#02518:0000000000000000130000000000000000000000001300000000000000000000
#02512:0000001300000013
#02514:0000000000130000
#02513:00000013
#02515:00000013000000000000000000000000
#0281b:0013000000130000
#02812:00130000
#02818:0000001300001300
#02815:00000000000000130000000000001300
#02816:0013000000000000
#02817:00130000
#02912:13
#02916:0013
#0291b:1300001313000000
#02910:41
#03012:1313000000130000
#0301b:00130000
#03015:0000001300001300
#03018:00000000000000130000000000001300
#03017:0013000000000000
#03016:00130000
#0311b:13000013
#03117:0013
#03112:1300001313000000
#03119:0000000000130013
#03114:00000000000000000000130000000013
#03116:00000000000000000000000000130000
#03715:1300001300130000
#03718:00000013000000001300000013000000
#03712:00000013000000000000000013000013
#0371b:0000001300000000
#0471b:13
#04712:13
#04715:0000000013333333
#04718:0000000013333333
#05612:2300130000130000
#05618:0013
#0561b:2300000000130000
#05615:0000001300000013
#05718:0000131300000000
#05716:0000000000130000
#05714:00000013
#05712:0000000000000013
#0571b:0000000000130000
#05719:00000033
#05817:0013
#0581b:0000130000130000
#05812:0013
#05912:0000131300000013
#05917:0000001300001300
#05916:0013
#0591b:0000000000130000
#06212:1313
#06218:0000130000130013
#06215:0013001300001300
#0621b:0013
#06315:00000000000000000000130000130000
#06318:0000000000001313
#08218:00120000
#08214:0012
#08312:12
#08318:0000001200000000
#07418:0013001300000000
#07415:13131313
#07412:0013000000130000
#0741b:0013
#03412:0000130000130000
#03418:0000130000001313
#03415:00000000000000000000000000130000
#0381b:0000130000130000
#03815:0000130000001313
#03818:00000000000000000000000000130000
#00815:0013
#00818:00000013
#00812:23000013
#0081b:13333333003333330000000000000000
#00817:00130000
#00810:41
#0091b:00130000
#00918:13000013
#00915:00131300
#00912:00000013
#01018:0013000013000000
#0101b:13000013
#01012:0013000013000000
#01015:00000013
#01112:00130000
#01115:13000013
#01118:00131300
#0111b:00000013
#01215:0013000013000000
#01212:13000013
#0121b:0013000013000000
#01218:00000013
#0131b:00130000
#01318:13000013
#01315:00131300
#01312:00000013
#01418:0013000000000000
#0141b:13
#01412:0013000000001300
#01416:0013
#01417:00000013
#01516:13
#01518:00130000
#01515:0000001300000000
#0151b:1300001300000000
#0641b:2313
#06418:00000013
#06412:13333333003333330000000013000000
#06416:00130000
#06414:0000000000000013
#06410:41
#06612:0013000013000000
#06618:0013000013000000
#06615:13000013
#0661b:00000013
#06619:0000000000000013
#06512:13000013
#06515:00130000
#0651b:00131300
#06518:00000013
#06519:0000001300000000
#06514:0000000000000013
#0681b:0013000013000000
#06818:13000013
#06812:00000013
#06815:0013000013000000
#06814:0000000000000013
#06912:13000013
#06915:00130000
#0691b:00131300
#06918:00000013
#06919:0000001300000000
#06914:0000000000000013
#07015:1313000000000000
#0701b:0013000000001300
#07017:0013
#07016:00000013
#07117:13
#07115:00130000
#07118:0000001300000000
#07112:1300001300000000
#07215:0013000000000000
#07218:00131313
#0721b:0000001300130000
#07212:2313
#07315:13130000
#0731b:1300000000130000
#07318:00001313
#07312:0013000013000000
#07615:0013001300000000
#07618:13131313
#0761b:0013000000130000
#07612:0013
#07518:13130000
#07512:1300000000130000
#07515:00001313
#0751b:0013000013000000
#07818:0013000000000000
#07815:13
#07812:0013000000001300
#0781b:0013
#07715:13130000
#0771b:1300000000130000
#07718:00001313
#07712:0013000013000013
#07912:13
#0791b:0000131300000000
#0671b:13000013
#06718:00130000
#06712:00131300
#06715:00000013
#06714:0000001300000000
#06719:0000000000000013
#00316:12
#00312:0000001200000000
#0031c:12
#00318:0000001200000000
#0021b:12
#00218:00120000
#00215:0012
#00618:00120000
#00614:0012
#0061c:12
#0015c:0000001200000000
#0055c:0000001200000000
#0165b:00000000000000530000000000000000
#01752:00000000000000630000000000000000
#01855:00000000000000530000000000000000
#0195b:0000005300000000
#0215b:53
#02155:0053
#02352:63
#02452:00000000000000630000000000000000
#02455:0000000000000000000000000000000000000000002300000000000000000000
#02658:00000000000000630000000000000000
#02752:0000006300000000
#0255b:00000000000000530000000000000000
#02558:0000000000000000000000000000000000000000002300000000000000000000
#02952:63
#0295b:0063
#0315b:53
#0335b:0000005300000000
#03658:0000005300000000
#0325b:0000005300000000
#03955:00000053
#04058:0000000000000053
#04156:00005323
#04154:00000000000000000000005300000000
#04152:0000000000230033
#04257:00006323
#0425b:0000000000230043
#04259:00000000000000000000006300000000
#04356:00005323
#04352:0000000000230000
#04354:00000000000000000000005300000000
#0475b:63
#04752:63
#04758:0023
#04755:0023
#04852:3300000000530000
#0485b:43
#04858:0000000000000053
#04955:0000005300000000
#04952:0000000000230000
#0495b:0000000000000053
#0515b:0000005300000053
#05152:0000000000530000
#05157:0023
#05156:00000023
#05257:00000023000000000000000000000000
#05458:0000000000530000
#0545b:0000000000000053
#05555:53000023
#05552:0053
#05652:33
#0565b:4300000000630000
#05655:0000000000000063
#05952:0000006300000063
#05956:0023
#0595b:0000000000630000
#05957:00000023
#06056:00000023000000000000000000000000
#06158:0000005300000000
#05758:0000006300000000
#0575b:0000000000230000
#05752:0000000000000053
#03558:00005313
#0355b:0000000000530000
#0085b:53
#00857:00230000
#00855:0053
#00852:00000053
#00958:53
#0095b:00530000
#00955:0053
#00952:00000053
#01058:0013000063000000
#0105b:00000063
#01152:00630000
#01155:63
#01158:0063
#0115b:00000063
#01255:0013000053000000
#01252:00000053
#0135b:00530000
#01358:53
#01355:0053
#01352:00000053
#01458:0053000000000000
#01452:0013000000000000
#01555:0000005300000000
#0155b:0000001300000000
#0645b:0053
#06458:00000053
#06452:63
#06456:00230000
#06552:63
#06555:00630000
#0655b:0053
#06558:00000053
#0685b:0013000053000000
#06858:00000053
#06952:63
#06955:00630000
#0695b:0053
#06958:00000053
#07055:0063000000000000
#0705b:0013000000000000
#07158:0000006300000000
#07152:0000001300000000
#07252:0053
#07258:00000053
#0735b:53
#07355:00630000
#07352:0053
#07358:00000053
#0745b:0063
#07455:00000063
#07458:0013000000000000
#07552:63
#07558:00530000
#0755b:0063
#07555:00000063
#07652:0053
#07658:00000053
#07655:0013000000000000
#0775b:53
#07755:00630000
#07752:0053
#07758:00000053
#07852:0053000000000000
#07858:0013000000000000
#07952:13
#0795b:0000001300000000
#06652:0013000063000000
#06655:00000063
#0675b:53
#06758:00530000
#06752:0063
#06755:00000063
#00352:0000001200000000
#0083b0:13333333003333332300000000000000
#008370:00330000
#008351:0013
#008321:00000033
#009351:23
#009380:1323
#0093b0:00330000
#009351:0013
#009321:00000033
#010351:23
#010381:0013
#0103b1:00000033
#011381:23
#011350:1323
#011320:00330000
#011381:0013
#0113b1:00000033
#012381:23
#012351:0013
#012321:00000033
#013351:23
#013380:1323
#0133b0:00330000
#013351:0013
#013321:00000033
#014351:23
#014381:0013000000000000
#0143b1:0023
#015351:0000001300000000
#016321:23
#0163b1:00000000000000130000000000000000
#016371:0000000000000023
#017321:00000000000000130000000000000000
#017361:0000000000000023
#018351:00000000000000130000000000000000
#018321:0000000000230000
#0193b1:0000001300000000
#019381:0000000000230000
#0213b1:13
#021381:0000002300000000
#021351:0013
#022321:23
#023321:13
#023351:0000002300000000
#024321:00000000000000130000000000002300
#024351:0000000000000000000000000000000000000000005300000000000000000000
#0253b1:00000000000000130000000000002300
#025381:0000000000000000000000000000000000000000005300000000000000000000
#026381:00000000000000130000000000000000
#0263b1:0000000000230000
#027321:0000001300000000
#027351:0000000000230000
#029321:13
#029361:0000002300000000
#0293b1:0013
#030371:23
#0313b1:13
#031371:0000002300000000
#0323b1:0000001300000000
#032371:00000023
#0333b1:0000001300000000
#033381:0000000000230000
#034361:13
#034341:00330000000000000000000000000000
#034321:0023000000000000
#034371:0000001300000000
#034391:00000000000000330000000000000000
#0343b1:0023
#0353b1:13
#035391:00330000000000000000000000000000
#035371:0023000000000000
#035321:00130000
#035341:00000000003300000000000000000000
#035361:0000002300000000
#035381:00001323
#0353b1:0000000000330000
#036381:0000001300000000
#0363b1:0000000000230000
#038371:13
#038391:00330000000000000000000000000000
#0383b1:0023000000000000
#038361:0000001300000000
#038341:00000000000000330000000000000000
#038321:0023
#039371:13
#039391:00330000000000000000000000000000
#0393b1:0023000000000000
#039321:00130000
#039341:00000000003300000000000000000000
#039361:0000002300000000
#0393b1:0013
#039391:00000000000000000033000000000000
#039371:0000000000230000
#039351:00000013
#039321:0000000000000023
#040381:0000000000000013
#0413b1:0000002300000000
#041361:00001353
#041321:0000000000530023
#041341:00000000000000000000003300000000
#042371:00001353
#0423b1:0000000000530023
#042391:00000000000000000000003300000000
#043361:00001353
#043321:0000000000530033
#043341:00000000000000000000003300000000
#043331:00000000000000000000000000000053
#044321:5353535353535353
#044331:00530053005300530053005300530053
#045321:23
#043370:0000000000000013
#043380:00000000000000000000000000000053
#044370:5353535353535353
#044380:00530053005300530053005300530053
#045370:23
#0453b0:0000001300230000
#047320:13
#047350:0000000033333333
#048320:23
#0473b1:13
#047381:0000000033333333
#0483b1:23
#048321:0000000000130000
#048351:0000000000000023
#048380:0000000000000013
#0493b0:00230000
#049350:0000001300000000
#049320:0000000000330000
#049340:00000033
#049360:0000000000000023
#0493b1:0000000000000013
#050371:00230000
#050371:0000000000130000
#0503b1:00000000000000000000005300002300
#050320:0000000000000013
#050360:00000000000000000000000000000053
#051360:00230000
#0513b0:0000001300230000
#051370:0053
#051321:0000000000130023
#051361:00000053
#0513b0:0000000000000013
#052370:00000053000000000000000000000000
#0523b0:0023
#052360:0000000000000013
#053360:0023000000000000
#054380:0000000000130000
#0543b0:0000000000000033
#055370:0023
#055351:13
#055321:0000002300000000
#055321:0013
#055351:00000053
#056321:23
#0563b1:0000000000130000
#056381:0000000000000023
#056350:0000000000000013
#057320:00230000
#057380:0000001300000000
#0573b0:0000000000330000
#057390:00000033
#057370:0000000000000023
#057321:0000000000000013
#058361:00230000
#058361:0000000000130000
#058321:00000000000000000000005300002300
#0583b0:0000000000000013
#058370:00000000000000000000000000000053
#059370:00230000
#059320:0000001300230000
#059360:0053
#0593b1:0000000000130023
#059371:00000053
#059320:0000000000000013
#060360:00000053000000000000000000000000
#060320:0023
#060370:0000000000000013
#061370:0023000000000000
#061380:0000001300000000
#0623b0:23
#0633b0:1323
#063321:1323
#064321:13333333003333332300000000000000
#064361:00330000
#0643b0:0013
#064380:00000033
#0653b0:23
#065321:1323
#065351:00330000
#0653b0:0013
#065380:00000033
#0663b0:23
#066320:0013
#066350:00000033
#067320:23
#0673b1:1323
#067381:00330000
#067320:0013
#067350:00000033
#068320:23
#0683b0:0013
#068380:00000033
#0693b0:23
#069321:1323
#069351:00330000
#0693b0:0013
#069380:00000033
#0703b0:23
#070350:0013000000000000
#070320:0023
#071380:0000001300000000
#0723b0:23
#072320:0013
#072350:00000023
#072381:00000013
#0733b1:33
#073381:00230000
#073350:00130023
#073320:0033
#073381:00000013
#0743b1:23
#0743b1:0013
#074381:00000023
#074350:00000013
#075320:33
#075350:00230000
#075381:00130023
#0753b1:0033
#075350:00000013
#076320:23
#076320:0013
#076350:00000023
#076381:00000013
#0773b1:33
#077381:00230000
#077350:00130023
#077320:0033
#077381:00000013
#0783b1:23
#078321:0013000000000000
#078361:0023
#078371:00000013
#079371:23
#079361:0000132300000000
#081321:0000001200000000
#082321:00220000
