This file was generated by Ched 2.7.0.0.
#TITLE ""
#ARTIST ""
#DESIGNER ""
#DIFFICULTY 0
#PLAYLEVEL
#SONGID ""
#WAVE ""
#WAVEOFFSET 0
#JACKET ""
#REQUEST "ticks_per_beat 480"
#00002: 4
#BPM01: 150
#00008: 01
#TIL00: ""
#HISPEED 00
#MEASUREHS 00
#0001a:12
#00018:00120000
#00016:0012
#00114:12
#00118:0000001200000000
#00214:12
#00216:00120000
#00218:0012
#0031a:12
#00316:0000001200000000
#00418:12
#00416:00120000
#00414:0012
#00516:12
#0051a:0000001200000000
#00616:12
#00618:00120000
#0061a:0012
#00718:12
#00713:0013
#0071a:0013
#00818:00130000
#0081b:23
#00812:23
#00814:00000033
#00810:41
#00915:00130000
#00919:00000033
#01015:0013000000000000
#0101a:00000033
#01118:00130000
#01113:00000033
#0121b:0013000000000000
#01212:0013
#01215:00000013
#01312:00130000
#0131b:0013
#01318:00000013
#01412:0013000000001300
#01418:00000013
#0161b:2313000000130000
#01615:00000000130000130000000000001300
#01618:0000001300001300
#01612:23
#01515:1300001300000000
#01518:00130000
#0151b:13
#01712:0013000000130000
#01718:00000000130000130000000000001300
#01715:0000001300001300
#01812:0013000000130013
#0181b:00130000
#01815:0000001300000000
#01818:00000000000000130000000013000000
#01918:1300000000130000
#01915:0013001300001300
#01912:0000000000000013
#0191b:00130000
#01910:41
#0201b:0013000000130000
#02012:00130000
#02018:0000001300000013
#02015:00000000000000130000000013000000
#02112:13
#02118:0013
#02212:0013000000130000
#0221b:00130000
#02215:0000001300000013
#02218:00000000000000130000000013000000
#0231b:13
#02315:0013
#0241b:0013000000000013
#02415:0000130000130000
#02418:0000001300001300
#02412:00000000000000130000000000000000
#02812:0013000000000013
#02818:00130013
#02815:0000001300130000
#0281b:00000000000000130000000000000000
#0291b:13
#02915:0013
#02910:41
#0301b:0013000000000013
#03015:00130013
#03018:0000001300130000
#03012:00000000000000130000000000000000
#03112:13
#03118:0013
#0311b:0000000000000013
#02512:0013000000000013
#02518:0000130000130000
#02515:0000001300001300
#0251b:00000000000000130000000000000000
#0261b:0013000000130013
#02612:00130000
#02618:0000001300000000
#02615:00000000000000130000000013000000
#02715:1300000000130000
#02718:0013001300001300
#0271b:0000000000000013
#02712:00131300
#0321b:00000013
#03215:0000000000000013
#03212:14
#03216:00000014000000000000000000000000
#0321a:0000001400000000
#03318:13
#03312:0013001300000000
#0331b:00130000
#03315:00000000000000000000000033000013
#03314:0000000000330000
#03616:00000014000000000000000000000000
#0361a:14
#0361b:0000000000000013
#03812:0000000013130000
#03818:0000000000001313
#03912:13
#03918:0013000000000013
#03915:00130000
#0391b:0000001300000000
#03913:0000000000330000
#03910:41
#03712:14
#03716:00000014000000000000000000000000
#0371b:0000001300000000
#03718:00000000000000000000000033000013
#03719:0000000000330000
#0371a:0033
#04015:1300000000130000
#0401b:0013000000001300
#04012:0000001300000013
#04018:0013
#0401f:11
#04118:0000001300000000
#04115:0013
#04113:00000000000000000000003300000000
#0421b:00130000
#04218:0013
#04212:00130000
#0421a:00000000000000000000003300000000
#0431b:00130000
#04312:00131400
#04314:00000000000000000000003400000000
#04519:0000000000000013
#04515:0013
#04514:00000013
#0451b:0000001300000000
#0451a:0000000000130000
#04718:0014
#0471a:1400000000003434
#04714:0014
#04712:1400000000003434
#04719:0000000000340000
#04713:0000000000340000
#0481b:0000130000130000
#04818:0000000013000013
#04812:2400000000130000
#04815:0000001300000000
#0481a:24
#0481f:21
#0491b:0000000000130000
#04918:00000013
#04915:0000001300000013
#04910:41
#05015:0013
#0501b:0013
#05118:0000130000000013
#05112:0000130000000013
#05218:0000000000130000
#05215:00000013
#05212:0000000000000013
#0531b:0013000000000000
#05318:00130000
#05315:0000001300000000
#05319:0000000000001313
#05314:0000000000001313
#0541b:0013000000000013
#05415:00130000
#05418:0000001300130000
#05412:0013
#05513:0000000000140014
#05519:00000014
#05818:0013
#05812:0013
#0581b:0000000000130000
#05815:0000000000130000
#05915:0000130000000013
#0591b:0000130000000013
#05918:0000001300000000
#05912:0000001300000000
#06015:0000000000130000
#06018:00000013
#0601b:0000000000000013
#06112:0013000000000000
#06115:00130000
#06118:0000001300000000
#06218:0000000000130013
#06215:00000013
#06418:00130000
#06412:23130000
#0641b:2313
#06419:00000033
#06410:41
#06515:00130000
#0651b:00130000
#06512:0013
#06514:00000033
#0661b:0013000000000000
#06615:0013
#06613:00000033
#0671b:00130000
#06715:00130000
#06718:0013
#0671a:00000033
#06815:0013000000000000
#06818:0013
#0681b:00000013
#06912:00130013
#06915:0013
#0691b:00130000
#07018:0013000000000000
#07118:00130000
#07112:0000001300000000
#0801a:12
#08018:00120000
#08016:0012
#08114:12
#08214:0012
#0721a:24140000
#07212:24140000
#07214:00000034
#07312:00140000
#0731a:00140000
#07318:00000034
#07412:0014000000000000
#07418:00000034
#0751a:00140000
#07512:00140000
#07514:00000034
#0761a:0014000000000000
#07612:0014
#07615:00000014
#07712:00140000
#0771a:00141400
#07717:00000014
#07814:0014000000000000
#07914:00140000
#0791a:0000001400000000
#03512:0013001300000013
#03518:13130000
#0351a:0000000000330000
#03415:0000000000001313
#0341b:0000000013130000
#05612:0000130000130000
#05615:0000000013000013
#0561b:0000000000130000
#05618:0000001300000000
#05619:24
#05712:0000000000130000
#05715:00000013
#05718:0000001300000013
#04612:24
#04618:0024000000000024
#04614:0000002400002400
#0461a:0024
#00158:0000001200000000
#00356:0000001200000000
#0055a:0000001200000000
#01252:0053
#01255:00000023
#0125b:0013000000000000
#0135b:0063
#01358:00000023
#01055:0013000000000000
#01452:0013000000000000
#01555:0000001300000000
#02152:63
#02158:0063
#0235b:53
#02355:0053
#0295b:53
#02955:0053
#03152:63
#0375b:0000006300000000
#03758:00000000000000000000000000000053
#03355:00000000000000000000000000000063
#03352:0000005300000000
#04052:0000000000000053
#04155:0053
#04152:0000000000000013
#04258:0063
#0425b:0000000000000013
#04352:0054
#0485a:14
#04852:14
#04858:0000000000000053
#04758:0054
#0475a:64
#04754:0064
#04752:54
#05158:0000000000000053
#05152:0000000000000053
#05458:0000000000530000
#0545b:0000000000000053
#05659:14
#05655:0000000000000063
#05955:0000000000000063
#0595b:0000000000000063
#05952:0000005300000000
#05958:0000005300000000
#06158:0000005300000000
#0665b:0013000000000000
#06655:0063
#06855:0013000000000000
#06858:0053
#0685b:00000023
#06955:0063
#06952:00000023
#07058:0013000000000000
#07152:0000001300000000
#07452:0014000000000000
#0765a:0014000000000000
#07652:0054
#07655:00000024
#07854:0014000000000000
#06552:0053
#0645b:0063
#06758:0053
#0775a:0064
#07757:00000024
#0795a:0000001400000000
#0355b:00000013
#04955:0000000000000053
#05758:0000000000000063
#05855:0000000000630000
#0585b:0000000000630000
#008320:0013
#008340:00000033
#009350:23
#0093b0:0013
#009390:00000033
#010380:23
#010380:0013
#0103a0:00000033
#0113b0:23
#011350:0013
#011330:00000033
#012320:23
#012320:0013
#012350:00000033
#013320:23
#0133b0:0013
#013380:00000033
#0143b0:23
#021320:13
#021350:0000002300000000
#021380:0013
#0223b0:23
#0233b0:13
#023380:0000002300000000
#023350:0013
#024320:23
#0293b0:13
#029380:0000002300000000
#029350:0013
#030320:23
#031320:13
#031350:0000002300000000
#033320:0000001300000000
#033340:0000000000330000
#033350:00000000000000000000000033000033
#034320:00230000
#035380:0013
#0353a0:0000000000330000
#0353b0:00000023
#036320:0000001400240000
#0373b0:0000001300000000
#0373a0:0033
#037390:0000000000330000
#037380:00000000000000000000000033000033
#0383b0:00230000
#039350:0013
#039330:0000000000330000
#039320:00000023
#040320:0000000000000013
#041350:0023000000000000
#041350:0013
#041330:00000000000000000000003300000000
#041320:0000000000000023
#042380:0013
#0423a0:00000000000000000000003300000000
#0423b0:0000000000000023
#043320:0014
#043340:00000000000000000000003400000000
#043360:0000000000000034
#043350:00000000000000000000000000000054
#044360:5454545454545454
#044350:00540054005400540054005400540054
#045360:24
#0473a0:1400000000003434
#047380:0034
#047390:0000000000340000
#0483a0:24
#047321:1400000000003434
#047341:0034
#047331:0000000000340000
#048321:24
#048381:0000000000000013
#0493b1:00230000
#049351:0000000000000013
#050321:00230000
#050321:0000000000130000
#050351:0000000000000023
#050380:0000000000130000
#0503b0:0000000000000023
#051350:0000001300000000
#051320:0000000000230000
#0513b1:0000001300000000
#051381:0000000000230000
#051381:0000000000000013
#0523b1:00230000
#051320:0000000000000013
#052350:00230000
#054380:0000000000130000
#0543b0:0000000000000033
#055380:0000002300000000
#056350:0000000000000013
#057320:00230000
#057380:0000000000000013
#0583b0:00230000
#0583b0:0000000000130000
#058380:0000000000000023
#058351:0000000000130000
#058321:0000000000000023
#059381:0000001300000000
#0593b1:0000000000230000
#059320:0000001300000000
#059350:0000000000230000
#059350:0000000000000013
#060320:00230000
#0593b1:0000000000000013
#060381:00230000
#061381:0000001300000000
#0623b1:23
#063351:1323
#0643b1:0013
#064391:00000033
#065381:23
#065321:0013
#065341:00000033
#066351:23
#066351:0013
#066331:00000033
#067321:23
#067381:0013
#0673a1:00000033
#0683b1:23
#068381:0013
#0683b1:00000033
#069381:23
#069351:0013
#069321:00000033
#070351:23
#070321:00000013
#071351:23
#070380:00000013
#0713b0:23
#072320:0014
#072340:00000034
#073360:24
#0733a0:0014
#073380:00000034
#074360:24
#0743a0:0014
#074380:00000034
#075360:24
#075320:0014
#075340:00000034
#076360:24
#076320:0014
#076350:00000034
#077320:24
#0773a0:0014
#077370:00000034
#0783a0:24
#0783a0:00000014
#079370:24
#078351:00000014
#079321:24
#0813a1:0000001200000000
#0823a1:00220000
#083361:1200002200000000
