This file was generated by Ched 2.7.0.0.
#TITLE ""
#ARTIST ""
#DESIGNER ""
#DIFFICULTY 0
#PLAYLEVEL
#SONGID ""
#WAVE ""
#WAVEOFFSET 0
#JACKET ""
#REQUEST "ticks_per_beat 480"
#00002: 4
#BPM01: 150
#00008: 01
#TIL00: ""
#HISPEED 00
#MEASUREHS 00
#00112:12
#00116:0000001200000000
#00118:12
#0081c:0012120000000000
#00817:00000013000000000000000000000000
#00819:00000000000012001200000000000013
#00814:00000000000000130000000000000000
#00812:2300000000121200
#00816:00000000000000000000001300000000
#00815:0000000000000012
#0081b:23
#00810:41
#00912:0000000000130013
#00918:00000000000000000000001300000013
#00915:12000013
#0091b:00000000000000000000000000130000
#0091c:0012120000000000
#00917:00000013000000000000000000000000
#00919:0000001212000000
#00914:00000000000000130000000000000000
#01218:00000000120000000000001300000000
#01212:23000013000000000000000000001200
#01215:00000000000000130000130013000000
#0121c:0012
#0121a:0012001200000000
#01217:00000000000000000000000000000013
#0121b:23
#01518:00001300000000000013000000001300
#01515:00000013000000001300000000130000
#0151b:0000001300131300
#01512:13000000130013000000000000000013
#01812:0013000000000000
#01815:00000000130013130000000000001300
#0181b:2300000000130000
#01818:00130013
#01816:23
#01912:1300001300130000
#01914:0013000000000000
#01916:00130000
#0191b:1313131300000000
#01915:00000013
#01918:0000000000000013
#01910:41
#02015:0013000000001300
#0201b:13130000
#02012:13000000000013130000130000000000
#02018:00000013000000130000130000001300
#0211b:13
#02112:1300131313001313
#02117:0013
#03212:0000001300000000
#0321b:00131313
#03218:1200000000000013
#03216:00000013130000000000000000000000
#03315:1300001300130000
#03318:0013000000001300
#0331b:00000000130013000000000000000013
#03312:00131313
#03316:00000000000000000000000000000013
#03514:0000000000000013
#03516:13
#03512:0013000000130000
#03517:00131300
#0351b:0000001300001300
#03612:13131313
#0361b:0000001300001300
#03615:0000000000000013
#03617:00000013130000000000000000000000
#0421b:0000000000000000130000000000000000000000000000000013000000000000
#04216:0000000000000000130000000000000000000013000000000000000000000000
#04212:1300000013000013
#04214:0013001300000000
#04217:00000000000000001300001300000000
#04317:0000000000000000130000000000000000000013000000000000000000000000
#04319:0013001300000000
#04312:0000000000000000130000000000000000000000000000000013000000000000
#0431b:1313
#04316:00000000000000001300001300000000
#04519:00000013
#0451a:0000130000000013
#04512:13
#04515:0013
#04513:00130013
#04514:0000001300000000
#04518:0000000000130000
#0481b:2300130013000013
#04815:0013
#04812:2300001300130000
#04818:0000001300000000
#04816:00130000
#04817:0000000000130000
#0481f:21
#04916:00000013000000000000000000000000
#0491b:0000130000130000
#04914:00000018
#04917:0013000000000000000000001300000000000000000000000000000013000000
#04912:0000001300000013
#04910:41
#05012:0000130013130000
#05017:0013
#05015:1313000000000000
#05019:0000001300000000
#0511b:0000130000130000
#05112:0000001300000013
#05117:1300001300000013
#05119:0013000000001300
#05114:0013
#05116:0000000000130000
#05218:0000000000130000
#05215:00000013
#0521b:0000000013000013
#05217:00000013000000000000000000000000
#0531b:0013001300000013
#05318:00130000
#05315:0000001300000000
#05312:00000013
#05316:0000000000000013
#05317:13000013
#05412:0013000000000000
#05414:00130000
#05417:0000000000130000
#05416:0000000000000013
#05419:0013
#05518:0000000000130000
#05519:00000013
#0551a:0000000000000013
#05517:1313
#05516:00000000000013000000000000000013
#05512:1313
#05514:00000013
#07015:00001300000013001300001300000013
#07018:00000013000000130000130000001300
#07012:00130013
#0701b:00130013
#0701c:12
#07115:00001313000000000000000000000000
#0711b:0000131300000000
#07112:0000001300130000
#07118:13000000000000001313000012001200
#07116:00000000000000000000000000120012
#07215:0013000000130000
#07218:2600130013001212
#07216:00000000000000000000000000120012
#07212:2300002600000000
#0721b:0000002300000000
#07318:26001300000000000000130000120012
#07315:00131300
#07316:0000000000001212
#07312:2300002600000000
#0731b:0000002300000000
#07619:0013000000000000
#07617:00130000
#07614:0013
#07616:0000000000130012
#07612:2313132600001200
#0761c:00000000000000000000000000120000
#07618:26000000000000000000000000000012
#0761b:0000002313130000
#07818:2613000000000000
#07815:00000000130000000012000000000000
#07812:23000000000013000000000000000012
#0781c:0012
#0781b:0000000000120000
#07814:00000000000000000000001200000000
#0781a:00000012
#07819:0000000000000012
#07813:00000000000000000000000000120000
#07918:1212141416161616
#07914:00000000001400140000000000000000
#07916:00120012000000000000000000000000
#07912:00000000000000000016001600160016
#0801c:12
#0801a:00120000
#08018:0012
#08116:12
#00018:12
#0001a:00120000
#0001c:0012
#02412:0013000000000000
#02418:00000000130000130000000000000000
#02415:00000013000013000000130000001300
#02413:00000013
#0241b:0000000000000000000000000000000000000000001300000000000000000000
#02414:0013
#02417:23
#06312:0000000000130000
#06318:0000000000001313
#06315:00000000000000000000000000130000
#0631b:0000000000130000
#0821c:00120000
#0821a:0012
#08318:12
#0831c:0000001200000000
#01416:00130000
#0141b:23
#01418:00000000003333330000000000000000
#01412:00000000000000000033333300000000
#01417:00000000000000000000000000333333
#0031c:12
#00318:0000001200000000
#00316:12
#00216:12
#00214:00120000
#00212:0012
#00512:12
#00516:0000001200000000
#00518:12
#00418:12
#0041a:00120000
#0041c:0012
#00616:12
#00614:00120000
#00612:0012
#0071c:12
#00713:00120000000000000000000000000000
#0071b:0012000000000000
#00714:00000012000000000000000013000000
#0071a:00120000
#00715:00000000001200000000000000000000
#00719:0000001200001300
#00716:00000000000000120000000000000000
#00718:0012
#0161a:00130000
#01614:0013000013000000
#01615:00000013
#01617:00000013000000000000000000000000
#01612:0000001300130013
#0161b:23000000000000130000000000000000
#01618:0000000000000000000000000000000000000000001300000000000000000000
#01713:00130000
#01719:0013000013000000
#01716:00000013000000000000000000000000
#01718:00000013
#0171b:0000001300130013
#01712:23000000000000130000000000000000
#01715:0000000000000000000000000000000000000000001300000000000000000000
#01717:23
#02212:13130000
#02218:0013000000001300
#0221b:00000000000013130000130000000000
#02215:00000013000000130000130000001300
#02312:1300000000130000
#0231b:1300131313001300
#02319:0000000000000013
#02316:00000000000000001300000000130000
#02317:0000000000130000
#02314:00000000000000000000000000000013
#0251b:2313000000000000
#02515:00000000130000130000000000000000
#02518:00000013000013000000130000001300
#0251a:00000013
#02512:2300000000000000000000000000000000000000001300000000000000000000
#02519:0013
#0261b:2313000000000000
#02618:00000000130013130000000000001300
#02612:2300000000130000
#02615:00130013
#0271b:1300001300130000
#02719:0013000000000000
#02717:00130000
#02712:1313131300000000
#02718:00001313
#02715:0000000000000013
#02818:00001300000013000000000013000013
#02812:13130000
#02815:00000013000000130000001300001300
#0281b:13000000000000130000130000000000
#02912:13
#02916:0013
#0291b:0000001300000013
#02910:41
#0301b:13130000
#03015:00001300000013000000000013000013
#03018:00000013000000130000001300001300
#03012:00000000000000130000130000000000
#0311b:13
#03112:0000001312000000
#03118:0012
#03114:00000000000000000000120000000012
#0311a:0000000000120012
#0311c:00000012
#03116:00000000000000000000000000120000
#0341b:2300000000000013
#03718:1300001300130000
#03715:0013000000001300
#03712:00000000130013000000000000000013
#0371b:00131313
#03717:00000000000000000000000000000013
#03916:0000130013000013
#03917:13
#0391b:0013000000130013
#03912:0000001300001300
#03910:41
#04014:1314
#04019:13
#04012:0013001400000013
#04017:0013000000000000
#0401b:00130000
#04016:0000000000140000
#04018:00000014
#0401a:0000000000000014
#0401f:11
#03812:2300000000000013
#04112:0000000000000000000000001300000000000000000000000013000000000000
#04116:00000000000000001300001300000000
#0411b:0000000013000013
#04117:0000000000000000000000000000000000000013000000000000000000000000
#04412:13
#04414:00130013
#04416:0013
#04712:1300000000130000
#0471b:1300000000130000
#04719:00000013
#04714:00000013
#04716:0000000000000014
#06113:00000013
#06114:0000130013000013
#06117:0000001300000000
#06112:0013001300130000
#06116:13
#06119:00130000
#05612:2300130013000013
#05618:0013
#0561b:2300001300130000
#05615:0000001300000000
#05617:00130000
#05616:0000000000130000
#05717:00000013000000000000000000000000
#05712:0000130000130000
#05714:00000018
#05716:0013000000000000000000001300000000000000000000000000000013000000
#0571b:0000001300000013
#0581b:0000130013130000
#05816:0013
#05818:1313000000000000
#05814:0000001300000000
#05912:0000130000130000
#0591b:0000001300000013
#05916:1300001300000013
#05914:0013000000001300
#05919:0013
#05917:0000000000130000
#06016:00000013000000000000000000000000
#06012:0000000013000013
#06015:0000000000130000
#06018:00000013
#06215:00130000000000000013000000000000
#06218:0013000000130000
#0621b:00000013000000000000001300000000
#06216:00130013
#06219:00000000001300000000000000130000
#06214:0000001300000013
#06217:00000000000000130000000000000013
#06212:2323
#0641b:2312000000130000
#06415:00000013000000000000000000000000
#06418:00000000120000130000000000000000
#06413:0000001200000000
#06416:00000000000000001200001300000000
#06419:00000013
#06417:0000000000000013
#06412:23000000000000000000000000000013
#06410:41
#06515:13000000000000130000000000000000
#06513:0012000000000000
#06518:00000013000000001200000000000000
#06516:0000120000000013
#0651b:00000000000012000000001300130013
#06512:0000000000130000
#06514:00000013
#06812:00120000
#06817:00000013000012000000000000000013
#0681a:00000000000000130000000000000000
#06815:2312
#06818:0000000000120000
#0681b:00000000000000000000001300000000
#06816:00000012
#06814:0012000000000012
#07714:0013000000000000
#07716:00000000130000000000000000000012
#07719:0013
#07717:0000000000130000
#0771c:00000012
#07712:26000000000023001300130000120000
#07718:0000002600000012
#0771b:2313130000000000
#01012:2312120000000000
#01016:00000013000000000000000000000000
#01015:0000001212000000
#01019:00000000000000130000000000001200
#0101c:0000000000121200
#01017:00000000000000000000001300000000
#01014:00000000000000000000000000000013
#0101b:23
#0111b:0000000000130013
#01115:00000000000012001200001300000013
#01118:00000013
#01112:00001200120000000000000000130000
#01119:12000000000000130000000000000000
#01116:00000013000000000000000000000000
#01312:1212
#01316:00120000
#0131b:00000013000000000000000000000000
#01318:00000000000000130000130000000000
#01315:00000000000000000000001300000000
#01319:00000013
#01314:00001200000012000000000000130000
#0131a:0000000000000013
#01313:00000000000000000000000000000013
#06613:0012000000000000
#06618:23000013000000001200000000000000
#06616:0000120000000013
#0661b:00000000000012000000000000000013
#06615:00000000000000130000000000000000
#06612:0000000000130000
#06617:00000000000000000000001300000000
#06614:00000013
#06718:13000000120000130000000000000000
#0671b:0012000000130000
#06715:00000013000000000000000000000000
#06713:0000001200000000
#06716:0012
#06712:00000000000000000000001300130013
#06719:00000013
#06717:0000000000000013
#0691c:00120000
#06916:00000013000000000000120000000013
#06913:00000000000000130000000000000000
#06919:0012
#06912:22000000000000000000001300000000
#06918:00000012
#0691a:0012000000000012
#06917:0000001200000000
#06914:00000000000000000000000000130000
#07418:00001300000026000000130000120012
#07415:00131300
#07416:0000000000001212
#07412:2600002300000000
#0741b:23
#07515:0013000000130000
#07518:0000132613001212
#07516:00000000000000000000000000120012
#07512:2600002300000000
#0751b:23
#0461b:2323000000000000
#04612:0000002323000000
#04618:0000000000002323
#00156:0000001200000000
#00158:52
#01855:00000000000000530000000000000000
#01858:00530000
#0195b:0000005300000000
#0215b:53
#02157:0053
#02152:1313
#02458:00000000000000530000000000000000
#0245b:0000000000000000000000000000000000000000002300000000000000000000
#0335b:0000005300000000
#03252:0000006300000000
#04852:3300000000530000
#0485b:4300000000000053
#04857:0000000000130000
#05152:0000000000000063
#05257:00000023000000000000000000000000
#05457:0000000000530000
#05557:63
#0565b:4300000000630000
#05652:3300000000000063
#05656:0000000000130000
#04957:0023000000000000000000000000000000000000000000000000000053000000
#04952:0000005300000000
#00358:0000001200000000
#00356:62
#00556:0000001200000000
#00558:52
#0165b:00000000000000630000000000000000
#01658:0000000000000000000000000000000000000000002300000000000000000000
#02352:63
#0235b:13
#02658:00000000000000630000000000000000
#02655:00630000
#02752:0000006300000000
#02952:63
#02956:0063
#0315b:53
#03557:0053
#03552:0000000000530000
#0355b:00000053
#0365b:0000005300000000
#03752:0000006300000000
#03956:0063
#0395b:0000000000630000
#0405a:0000000000000054
#0415b:0000000053000043
#04156:00000000000000000000005300000000
#04157:0000000000000000000000000000000000000023000000000000000000000000
#04152:0000000000000000000000000000000000000000000000000023000000000000
#04252:0000000063000033
#04256:0000000000000000000000000000000000000023000000000000000000000000
#04257:00000000000000000000006300000000
#0425b:0000000000000000000000000000000000000000000000000023000000000000
#0435b:0053
#04357:0000000000000000000000000000000000000023000000000000000000000000
#04356:00000000000000000000005300000000
#04352:0000000000000000000000000000000000000000000000000023000000000000
#0475b:53
#04752:53
#05355:0000001300000000
#06157:0000005300000000
#05756:0023000000000000000000000000000000000000000000000000000063000000
#0575b:0000006300000000
#0595b:0000000000000053
#06056:00000023000000000000000000000000
#01752:00000000000000530000000000000000
#01755:0000000000000000000000000000000000000000002300000000000000000000
#02555:00000000000000630000000000000000
#02552:0000000000000000000000000000000000000000002300000000000000000000
#07258:16
#07252:0000001600000000
#07358:16
#07352:0000001600000000
#07452:16
#07458:0000001600000000
#07552:16
#07558:0000001600000000
#07658:16
#07652:0000001600000000
#07752:16
#07758:0000001600000000
#07858:16
#01552:00330000
#0155b:0000000000430000
#000320:12
#000340:00320000
#000360:0022
#001380:12
#0013c0:0000002200000000
#0023c0:12
#0023a0:00320000
#002380:0022
#003360:12
#003320:0000002200000000
#004320:12
#004340:00320000
#004360:0022
#005380:12
#0053c0:0000002200000000
#0063c0:12
#0063a0:00320000
#006380:0022
#0143b0:00130000
#014380:00000000003333332300000000000000
#014351:0013
#014321:00000000000000000033333323000000
#0143b0:00000013
#014370:00000000000000000000000000333333
#015370:23
#0163b0:00000000000000130000000000002300
#016380:0000000000000000000000000000000000000000005300000000000000000000
#017320:00000000000000130000000000002300
#017350:0000000000000000000000000000000000000000005300000000000000000000
#018380:00130000
#0183b0:00000000000000230000000000000000
#018351:00000000000000130000000000000000
#018321:0000000000230000
#0193b1:0000001300000000
#019381:0000000000230000
#0213b1:13
#021371:0000002300000000
#021371:0013
#0223b1:23
#023321:13
#023361:0000002300000000
#024381:00000000000000130000000000002300
#0243b1:0000000000000000000000000000000000000000005300000000000000000000
#025351:00000000000000130000000000002300
#025321:0000000000000000000000000000000000000000005300000000000000000000
#026351:00130000
#026321:00000000000000230000000000000000
#026380:00000000000000130000000000000000
#0263b0:0000000000230000
#027320:0000001300000000
#027350:0000000000230000
#029320:13
#029360:0000002300000000
#0293b1:13230000
#029360:0013
#030320:23
#0293b1:00001323
#0313b0:13
#031370:0000002300000000
#031321:13230000
#032320:0000001300000000
#032360:00000023
#0333b0:0000001300000000
#033380:0000000000230000
#034360:13
#034340:00330000000000000000000000000000
#034320:0023000000000000
#034371:0013000000000000
#0343b1:00230000
#034360:00130000
#034320:0000002300000000
#034371:0000001300000000
#034391:00000000000000330000000000000000
#0343b1:0023
#034350:0000000013230000
#034381:0000000000132300
#034320:00000013
#034340:00000000000000000000000000330000
#034360:0000000000000023
#0353b0:13
#035390:00330000000000000000000000000000
#035370:0023000000000000
#035320:00132300
#035340:00000000003300330000000000000000
#035360:0000003300000000
#035371:0013
#0353b1:0000000000230000
#035320:0000000000130000
#035360:00000023
#0353b1:00000013
#036371:23
#0363b1:0000001300000000
#036371:0000000000230000
#037321:0000001300000000
#037351:0000000000230000
#038371:13
#038391:00330000000000000000000000000000
#0383b1:0023000000000000
#038360:0013000000000000
#038320:00230000
#038371:00130000
#0383b1:0000002300000000
#038360:0000001300000000
#038340:00000000000000330000000000000000
#038320:0023
#038381:0000000013230000
#038350:0000000000132300
#0383b1:00000013
#038391:00000000000000000000000000330000
#038371:0000000000000023
#039321:13
#039341:00330000000000000000000000000000
#039361:0023000000000000
#0393b1:00132300
#039391:00000000003300330000000000000000
#039371:0000003300000000
#039360:0013
#039320:0000000000230000
#0393b1:0000000000130000
#039371:00000023
#0403a1:0000000000000014
#041361:0000002400000000
#0413b1:00000000000000001300002300000000
#041371:0000000000000000000000000000000000000053000000000000000000000000
#041360:00000000000000000000001300002300
#041320:0000000000000000000000000000000000000000000000000053000000000000
#042320:00000000000000001300002300000000
#042360:0000000000000000000000000000000000000053000000000000000000000000
#042371:00000000000000000000001300002300
#0423b1:0000000000000000000000000000000000000000000000000053000000000000
#0433b1:00000000000000001300002300000000
#043371:0000000000000000000000000000000000000053000000000000000000000000
#043360:00000000000000000000001300002300
#043320:0000000000000000000000000000000000000000000000000053000000000000
#0433b1:00000000000000000000000000001353
#043391:0000000000000000000000000000000000000000000000000000000000530053
#0443b1:53535353535353535353535353535353
#044391:0053005300530053005300530053005300530053005300530053005300530053
#0453b1:23
#046361:1323000000000000
#046371:0000001323000000
#046351:0000000000001323
#0473b1:13
#047381:0023
#047320:13
#047350:0023
#048320:0000000000130000
#048360:0000000000000023
#0483b1:0000000000000013
#049371:0053000000000000000000000000000000000000000000000000000000000000
#0493b1:00000023000000000000000000000000
#049321:0000001300000000
#049361:0000000000230000
#049371:0000000000000013
#0503b1:00230000
#050361:0000000000140000
#0503b1:00000000000000000000005300002300
#050360:0000000000000014
#050320:00000000000000000000000000000053
#051320:00230000
#051320:0000000000000013
#052370:00000053000000000000000000000000
#052320:0023
#052320:0000000000000013
#053320:0023000000000000
#054370:0013000000000000
#054390:00330000
#0543b0:0000002300000000
#054361:0000001300000000
#054341:0033
#054321:0000000000230000
#054370:0000000000130000
#0543b0:0000000000000023
#055370:13
#0553b0:0000002300000000
#0563b0:0000000000130000
#056370:0000000000000023
#056321:0000000000000013
#057361:0053000000000000000000000000000000000000000000000000000000000000
#057321:00000023000000000000000000000000
#0573b1:0000001300000000
#057371:0000000000230000
#057361:0000000000000013
#058321:00230000
#058361:0000000000140000
#058321:00000000000000000000005300002300
#058360:0000000000000014
#0583b0:00000000000000000000000000000053
#0593b0:00230000
#0593b0:0000000000000013
#060360:00000053000000000000000000000000
#0603b0:0023
#0603b0:0000000000000013
#0613b0:0023000000000000
#061370:0000001300000000
#0623b0:23
#063320:1c2c
#081320:0000001200000000
#083320:0000002200000000
