This file was generated by Ched 2.7.0.0.
#TITLE ""
#ARTIST ""
#DESIGNER ""
#DIFFICULTY 0
#PLAYLEVEL
#SONGID ""
#WAVE ""
#WAVEOFFSET 0
#JACKET ""
#REQUEST "ticks_per_beat 480"
#00002: 4
#BPM01: 150
#00008: 01
#TIL00: ""
#HISPEED 00
#MEASUREHS 00
#0001b:13
#00215:13
#00919:14
#0091a:0014
#00913:00140000
#00914:00000014
#01018:14
#01014:0014
#0101a:00000014
#01312:14
#0131a:0014
#01316:00140000
#01314:00000014
#01618:1414
#01614:00140000
#01818:1414
#01812:00140014
#0191a:1414
#01914:00140000
#01910:41
#04814:00140000
#04818:2614
#04812:00000014
#0481f:21
#0491a:14
#04914:00140000
#04918:0014
#04912:00000014
#04910:41
#05013:14
#05018:0014
#05014:00000014
#05019:14
#05213:14
#05219:14
#05212:00000014
#0521a:00000014
#00118:13
#00312:13
#00818:0014
#00812:25000014
#00819:25
#00810:41
#01214:1414
#01218:00000014
#02418:1414
#02412:00140014
#0251a:1414
#02514:00140014
#02612:00140014
#02618:1414
#0271a:14
#02712:00000014
#02714:00140000
#02718:0014
#04018:1414
#04012:00140000
#0401f:11
#0411a:00140000
#04114:1414
#04314:00140000
#04318:0014
#04312:00000014
#0431a:24
#0511a:14
#05112:00140000
#05118:0014
#05114:00000014
#05314:00140014
#05318:1414
#04514:14
#04418:14
#02013:1414
#02219:1414
#02812:1414
#02818:1414
#0301a:1414
#03014:1414
#08012:13
#08015:00130000
#08018:0013
#08115:13
#0811b:0000001300000000
#08215:00130000
#08218:0013
#0831b:13
#08315:0000001300000000
#01718:00140000
#01714:1414
#04214:00140000
#04218:0014
#04212:00000014
#0421a:24
#05417:00000014
#0541a:14
#05418:0034
#05419:00340000
#06118:00140014
#06114:1414
#0601a:00000014
#06019:14
#06013:14
#06012:00000014
#06215:0014
#06212:14
#06214:00340034
#06512:14
#0651a:00000014
#06514:0014
#06518:00140000
#06612:14000014
#06618:1414
#06414:0014
#0641a:00000014
#06418:26
#06410:41
#06814:1414
#06818:00000014
#0681a:14
#06912:14
#06916:00140000
#0691a:0014
#06914:00000014
#07112:16
#07118:0000001600000000
#04714:18
#03612:14
#0361a:14
#03712:14
#0371a:14
#01113:14
#01112:0014
#01119:00140000
#01118:00000014
#03212:14
#0321a:14
#0331a:14
#03312:14
#05618:00140000
#05614:0014
#0561a:00000014
#05612:26
#05712:14
#05718:00140000
#05714:0014
#0571a:00000014
#05819:14
#05814:0014
#05818:00000014
#05813:14
#05912:14
#0591a:00140000
#05914:0014
#05918:00000014
#0671a:14
#06712:00000014
#06718:0014
#06714:00140000
#07912:0000001600000000
#07918:16
#07218:0014
#07214:00000014
#07212:26
#07414:0014
#07418:00000014
#0761a:0014
#07612:00000014
#07813:0014
#07819:0014
#07318:14340000
#07319:0034
#0731a:00000034
#07514:14340000
#07513:0034
#07512:00000034
#07718:14340000
#07719:0034
#0771a:00000034
#00716:3434343400000000
#00616:3434343434343434
#00516:34343434
#00416:00343434
#05519:00340000
#05518:34
#03419:00340000
#0341a:0034
#03513:00340000
#03512:0034
#03914:0034
#03913:00340000
#03910:41
#03818:0034
#03819:00340000
#0311a:0000003400000000
#02912:0000003400000000
#02910:41
#02153:0014
#02359:0014
#03158:0014
#02954:0014
#05457:00000024
#0545a:54
#06252:54
#06255:0024
#04554:54
#04458:54
#07152:16
#07158:0000001600000000
#04754:58
#04858:16
#05652:16
#07952:0000001600000000
#07958:16
#07358:54
#07554:64
#07758:54
#004360:14343434
#005360:34343434
#006360:3434343434343434
#007360:3434343400000000
#007330:002a
#014380:14000024
#015340:14000024
#021330:1400003424000000
#023390:1400003424000000
#029320:1400003400000000
#029340:0024
#0313a0:1400003400000000
#031380:0024
#034380:14
#034390:00340000
#0343a0:00003424
#035340:14
#035330:00340000
#035320:00003424
#0383a0:14
#038390:00340000
#038380:00003424
#039320:14
#039330:00340000
#039340:00003424
#044380:14
#0443a0:00000024
#045340:14
#045320:00000024
#046340:1838003838003838
#047340:58
#047360:0024
#0543a0:14
#054390:00340000
#054380:0034
#054370:00000034
#055380:34
#055390:00340000
#0553a0:0024
#062320:14
#062340:00340034
#062350:0034
#063320:24
#070380:1424
#073380:14340000
#073390:0034
#0733a0:00000034
#0743a0:24
#075340:14340000
#075330:0034
#075320:00000034
#076320:24
#077380:14340000
#077390:0034
#0773a0:00000034
#0783a0:24
