This file was generated by Ched 2.7.0.0.
#TITLE ""
#ARTIST ""
#DESIGNER ""
#DIFFICULTY 0
#PLAYLEVEL
#SONGID ""
#WAVE ""
#WAVEOFFSET 0
#JACKET ""
#REQUEST "ticks_per_beat 480"
#00002: 4
#BPM01: 140
#00008: 01
#TIL00: ""
#HISPEED 00
#MEASUREHS 00
#00119:14
#00219:14
#00313:14
#00413:14
#0051a:14
#0061a:14
#00812:14
#00712:14
#01014:14
#0111a:14
#01214:14
#01318:14
#01412:14
#01518:14
#01612:14
#0181a:14
#01914:14
#02014:14
#02118:14
#02218:14
#02312:14
#02412:14
#02410:41
#02619:14
#02913:1414
#03013:14
#03318:2616
#0331f:21
#03918:0016
#03912:16
#03512:1616
#03718:16
#03712:0016
#03818:16
#04012:16
#04118:2616
#04718:0016
#04712:16
#04312:1616
#04518:16
#04512:0016
#0501a:0014
#05214:0014
#05418:0014
#05612:0014
#05914:14
#06018:14
#06112:14
#06218:14
#06314:14
#0641a:14
#02519:2414
#0251f:11
#03418:16
#03410:41
#03612:16
#05713:1414
#05719:1414
#05710:41
#0171a:24
#01710:41
#0091a:24
#00910:41
#0581a:24
#04910:41
#027390:14
#028390:24
#031330:14
#032330:24
#042380:1626
#044320:1626
#046380:1626
#048320:1626
#049380:14
#0503a0:24
#051320:14
#052340:24
#0533a0:14
#054380:24
#055340:14
#056320:24
#065350:16000026
