This file was generated by Ched 2.7.0.0.
#TITLE ""
#ARTIST ""
#DESIGNER ""
#DIFFICULTY 0
#PLAYLEVEL
#SONGID ""
#WAVE ""
#WAVEOFFSET 0
#JACKET ""
#REQUEST "ticks_per_beat 480"
#00002: 4
#BPM01: 140
#00008: 01
#TIL00: ""
#HISPEED 00
#MEASUREHS 00
#0051c:1200001212000000
#00518:0000120000000012
#0051a:0012000000000000
#0061a:0012000000000000
#0061c:0000001212000000
#00718:1200001212000000
#0071a:0012000000000012
#0071c:00120000
#00915:1313
#00918:13130000
#0091b:0013001300000000
#00912:0013001300000000
#00919:00000013
#00914:00000000000000000000001300000000
#00916:0000000000000014
#00910:41
#01014:0014
#01018:14
#01012:00000000000014000000001300000000
#0101b:0000000000130000
#01016:0000000000000014
#0101a:0014000000000000
#01112:13000000000013000000000000130013
#0111b:1300130000131300
#01118:0013000000000000
#01115:0013
#01116:00000000000000000000001400001400
#01218:00001313
#01215:00000000000000000013000000130000
#0121b:0000000000130000
#01212:00000000000000000000001300000000
#01216:0000000000000014
#0121a:23
#01213:00230000
#01612:0013
#0161b:00000000000000000013000000000000
#01615:0000000000130000
#01618:00000000000000000000001300000000
#01518:00000000120000000000000012000013
#01516:0012
#0151b:00001300000000130000130000000000
#01512:00000013000013000000000000001300
#01515:00000000000000000000001300000000
#01519:13
#01514:13
#01718:00000000000000000013000000000000
#01712:0013000013000000
#01716:00000000000000000000001300000000
#0171b:00000000000000000000001300000000
#01710:41
#01912:00001300000000000013000000000000
#01918:0013
#01914:00130000
#01916:00000000000013000000001300000000
#0191b:00000000000000000000001300000000
#02019:00000000130000000000001300000000
#02014:00000000000000000000001300000000
#02017:0000001300000013
#02012:0000000000000013
#0201b:0013000013000000
#02016:0013
#02317:13130000
#0231b:0013000000000013
#02312:1300130000000013
#02316:0013000000000000
#0251b:0000000000000013
#02519:0000001300000000
#02512:00130013
#02516:0013
#02514:0000001300000013
#02517:00130000
#0251f:11
#02618:0013000000130000
#0261b:0000001300000013
#02616:13
#02612:0000130000000013
#02614:0013001300000000
#02712:13130000
#02715:0000000000000013
#0271b:00000013000013001300000000000000
#02718:0000000000131300
#02717:13
#02812:1300001300000013
#02818:0000001300000013
#0281b:0000000000130000
#02814:00000012
#02817:13
#02815:00000013130000000000000000000000
#0281a:00000012
#0321b:13
#03219:0013000000000000
#03214:0013140000000000
#03218:00000000001400000000000000000000
#03215:00000000000000160000000000000000
#03216:00000000000000000014000000000000
#03212:13
#03217:00000000000000000000002200000000
#03316:0013000000000000
#0331b:00001300000000000000001300000000
#03312:0000130013000013
#03317:00000000130000000013000000000000
#0331a:0000001300000000
#03315:00000000000013000000001300000000
#0331f:21
#03516:00000000140000000000001300000000
#0351b:00001300000000000000001300000000
#03515:0013000000000000
#03518:0000001313000000
#03512:00000000000013000013000000000000
#03517:0000000000000013
#0391b:1300001300000000
#03913:13
#03915:00000013000000000000000000000000
#03912:0000000013000013
#03918:00000000000000000000001300000000
#03917:0000001300000000000000000000000000000000000000000000000000000000
#03916:0000000000000000000000000000000000000013000000000000000000000000
#0401a:13
#04013:13
#04016:0014000000000000
#04015:00000000001300000000000023000000
#04018:0000130000230000
#0401b:0000000000000000000000130000000000000000000000000000000023000000
#04012:0000001300000023
#04116:00000013000000000000001300000000
#0411b:00001300130000000000001300000000
#04117:00000000000000130013000000000000
#04112:0000001313000000
#0431b:00001300000000001300001300000000
#04316:00000000000000000000001300000000
#04312:00000000000000000013000000000000
#04315:00000013000000130000000000000000
#04318:0000131300000000
#04516:0014141400000000
#04515:0013
#04518:0013
#0451b:0013001300000000
#04512:00130000
#04514:0000000000000013
#04519:0000000000000013
#04616:14000000001300000000000000001400
#04614:0013000000000000
#04619:0013000000000000
#0461b:00130013
#04617:0000000000130000
#04612:00000013
#04912:1212
#04916:00120012
#04914:0000001200120012
#04917:1313
#0491b:0000001300001300
#04919:00000033000000000000130000000000
#04918:0000000000000013
#04910:41
#0501c:0012
#05018:00000012
#0501a:0000000000120012
#05012:12
#05013:0000000000000033
#0511c:12
#05118:00130000
#05119:000000000000000000130000000000000000000033000000
#0511a:000000000000000000000000130000000000003300000000
#0511b:0000000000130000
#05318:0000001300000000
#05312:0013000000000000
#0531b:13
#05315:00130000
#05414:0000000000000013
#05419:0000000000000013
#0541b:0000001300000000000000001300000000000000000000001300000000000000
#05412:0000000000000000001300000000130000000000000000001300000000000000
#05418:1300000013130000
#05415:13000013000000000013000000000000
#03712:0013000013000000
#0371b:0013001300000000
#03718:00130000
#03715:0000001300000000
#03717:00000000000000000013000000001300
#03716:00000000000000000000001300000000
#0011c:12
#0011a:0000001212000000
#00118:0000000000000012
#00112:12
#00114:0012
#00218:0012001200000000
#0021a:0012
#00214:0012000012000000
#0571a:00001324
#05718:0000000000130000
#05715:0013
#05713:0000000000130000
#05712:13000013000013000000000000000000
#0571b:13000013000000000000000000000000
#05717:0000001300000000
#05714:00000024
#05710:41
#01314:00000013
#01319:00000000000000000000001300000000
#01316:0000000000000014
#01318:1313
#01315:13130000
#01312:0013001300000000
#0131b:0013001300000000
#0141b:00000000000000000000001300000000
#01412:0014000000130000
#01416:0000000000000014
#01418:0014
#01414:14
#0141a:0000001400000000
#01815:00000000000000000013000000000000
#0181b:0013000013000000
#01817:00000000000000000000001300000000
#01812:00000000000000000000001300000000
#02117:00000000000000000013000000000000
#02112:0013
#02116:00001300000000000000001300000000
#0211b:00000000000000000000001300000000
#02118:0000000000000000000000000000000000000000000000000013000000000000
#02216:00000000000000000013000000000000
#0221b:0013
#02217:00001300000000000000001300000000
#02212:00000000000000000000001300000000
#02215:0000000000000000000000000000000000000000000000000013000000000000
#02417:13130000
#02419:00130013001300000000000000000000
#0241b:0013000000002300
#02416:0000001300000000
#02414:00000012000000130013000000000000
#02412:12001323
#0241c:0000000000120000
#02410:41
#02912:2300000000000013
#02914:0000001300000000
#0291b:23130013
#02917:0013
#02919:0000001300000013
#02916:00130000
#03015:0013000000130000
#03012:0000001300000013
#03017:13
#0301b:0000130000000013
#03019:0013001300000000
#03116:0000000000000014
#0311b:13
#03112:13
#03118:0000002400000000
#0381b:0013000013000000
#03812:0013001300000000
#03815:00130000
#03818:0000001300000000
#03816:00000000000000000013000000001300
#03817:00000000000000000000001300000000
#0521b:13000013
#05212:0013001300000000
#05215:00130000
#05218:0000000000130013
#05818:1313
#05815:1300130000000012
#05812:0013001300001300
#0581b:00001300000013000000001300000000
#05819:0000000000000012
#05918:0014
#05914:14
#0591b:00000000000000000000001300000000
#05912:0012000000130000
#05915:0000000000000012
#0591c:0000001200000000
#05919:0000000000000012
#0601b:0013001300000000
#06012:1300001300000014
#06015:0013000000131300
#06018:00000000000000001300000000130013
#0601a:00000000000000000000001400000000
#06115:00001313
#06118:00000000000000000013000000130000
#06112:0000000000130000
#0611b:00000000000000000000001300000000
#06116:0000000000000014
#06113:23
#0611a:00230000
#0081c:12
#00818:0014000023000000
#00814:0012001400000000
#00812:0000120000130000
#0081a:0000001200000000
#0081b:0000000000130000
#00815:0023
#03417:0013000000000000
#03412:00001300000000000000001300000000
#0341b:0000130013000013
#03416:00000000130000000013000000000000
#03413:0000001300000000
#03418:00000000000013000000001300000000
#03410:41
#03617:00000000000000000000001300000000
#03612:00001300000000000000001300000000
#03618:0013000000000000
#03616:0000140000000013
#03615:0000001313000000
#0361b:00000000000013000013000000000000
#04212:00001300130000000000001300000000
#04217:00000013000000000000001300000000
#04216:00000000000000130013000000000000
#0421b:0000001313000000
#04412:00001300000000001300001300000000
#04417:00000000000000000000001300000000
#0441b:00000000000000000013000000000000
#04418:00000013000000130000000000000000
#04415:0000131300000000
#06314:0014
#06318:14
#06312:00000000000012000000001300000000
#0631b:0000000000130000
#06319:0000000000000012
#0631c:0012000000000000
#06315:0000000000000012
#0621b:0013001300001300
#06212:00001300000013000000001300000000
#06219:0000000000000012
#06215:1300000013000012
#06218:13130000
#06513:00000012
#06416:00120012
#06418:00000000000000001200001300000000
#06412:00001300000000130000130000000000
#0641b:00000013000013000000000000001300
#06414:13
#06419:13
#06415:00000000000000000000000000000013
#00312:12
#00314:0000001212000000
#00316:0000000000000012
#0031c:12
#0031a:0012
#00416:0012001200000000
#00414:00001228
#0041a:0012000012000000
#04715:0000000023000026
#04718:0023
#04712:2300002c00000000
#0471b:23
#04817:00000024
#05518:0023
#05515:0000000023000026
#0551b:23
#05512:2300002c00000000
#05615:00000024
#00858:0014000053001300
#00854:0000001400000000
#0085b:0000000000530000
#00852:0000000000630000
#00855:00006313
#00454:00000018
#01152:63
#0115b:00530000
#01756:00000000000000000000005300000000
#0175b:00000000000000000000005300000000
#01757:0000000000000013
#01752:0000000000000013
#02052:0000000000000013
#02057:0000000000000013
#02054:00000000000000000000003300000000
#02059:00000000000000000000003300000000
#0205b:0013
#02056:0013
#02752:00630000
#0395b:5300005300000000
#03952:0063
#03955:00000053000000000000000000000000
#03958:00000000000000000000005300000000
#03957:0000002300000000000000000000000000000000000000000000000000000000
#03956:0000000000000000000000000000000000000023000000000000000000000000
#04055:00000000005300000000000033000000
#04058:0000630000430000
#0405b:0000000000000000000000230000000000000000000000000000000043000000
#04052:0000002300000033
#04558:0063
#04555:0053
#0455b:00000000000000000000001300000000
#04552:00000000000000000000001300000000
#04758:00000043000000006300000000000000
#04752:63000000000000000000004300000000
#0475b:53000000000000000000003300000000
#04755:00000033000000005300000000000000
#00958:00630000
#0095b:0000002300000000
#00952:0023000000000000
#00955:53
#03357:00000000000000000063000000001300
#03352:0000000000000013
#0335b:00000000000000000000005300000000
#03552:00000000000000000063000000001300
#03556:00000000000000000000005300000000
#03557:0000000000000013
#03757:00000000000000000063000000001300
#03752:0000000000000013
#03756:00000000000000000000005300000000
#04157:00000000000000000063000000001300
#0415b:00000000000000000000005300000000
#04156:00000000000000000000005300000000
#04152:0000000000000013
#04352:00000000000000000063000000001300
#04357:0000000000000013
#0435b:00000000000000000000005300000000
#04356:00000000000000000000005300000000
#05458:53
#05455:00000053000000000000000000000000
#0545b:0000002300000000000000000000000000000000000000000000000000000000
#05452:0000000000000000002300000000000000000000000000000000000000000000
#01857:00000000000000000000006300000000
#01852:00000000000000000000006300000000
#01856:0000000000000013
#0185b:0000000000000013
#0195b:00000000000000000000005300000000
#01957:0000000000000013
#01952:00000000000000000053000000001300
#01956:00000000000000000000005300000000
#02156:00000000000000000000005300000000
#0215b:00000000000000000000005300004300
#02152:0000000000000013
#02158:0000000000000000000000000000000000000000000000000023000000000000
#02257:00000000000000000000006300000000
#02252:00000000000000000000006300003300
#02255:0000000000000000000000000000000000000000000000000023000000000000
#0225b:0000000000000013
#02457:23230000
#0245b:0023000000000000
#02459:00530053005300000000000000000000
#02456:0000002300000000
#02454:00000000000000630063000000000000
#02452:0023
#0255b:13
#02552:13
#02857:53
#02852:0000005300000000
#03856:00000000000000000053000000001300
#03857:00000000000000000000006300000000
#0385b:0000000000000013
#04857:00000014
#05558:00000043000000006300000000000000
#05555:00000033000000005300000000000000
#0555b:53000000000000000000003300000000
#05552:63000000000000000000004300000000
#05655:00000014
#0575a:00000014
#05754:00000014
#04958:0000000000000053
#05855:00530000
#0585b:0023000000000000
#05852:0000002300000000
#05858:53
#0605b:0053000000000000
#06052:0000006300000000
#03452:00000000000000000000006300000000
#0345b:0000000000000013
#03456:00000000000000000053000000001300
#03657:00000000000000000000006300000000
#0365b:00000000000000000053000000001300
#03656:0000000000000013
#04252:00000000000000000000006300000000
#04257:00000000000000000000006300000000
#04256:00000000000000000053000000001300
#0425b:0000000000000013
#04452:00000000000000000000006300000000
#04457:00000000000000000000006300000000
#0445b:00000000000000000053000000001300
#04456:0000000000000013
#0315b:53
#03152:53
#01655:0000000000530000
#01658:00000000000000000000005300000000
#01652:0000000000000013
#0165b:0000000000000013
#01355:00530000
#0135b:0023000000000000
#01352:0000002300000000
#01358:63
#06258:00630000
#06252:0023000000000000
#0625b:0000002300000000
#06255:63
#03257:00000000000000000000002200000000
#03254:0000000000000018
#005320:12
#008320:26
#008380:00001323
#0083b0:0000000000330000
#008351:00001323
#008321:0000000000330000
#009351:13230000
#009321:0053000000000000
#009380:00132300
#0093b0:0000005300000000
#010340:14240000
#010330:0054005400540054005400540054005400540054005400540054005400540054000000000000000000000000000000000000000000000000000000000000000000000000000000000000000000000000000000000000000000000000000000000000000000000000000000000000000000000000000000000000000000000000
#010350:00545454545454545454545454545454000000000000000000000000000000000000000000000000000000000000000000000000000000000000000000000000
#010381:00142400
#010391:0000000000000000000000000000000000000000000000000000000000000000005400540054005400540054005400540054005400540054005400540054005400000000000000000000000000000000000000000000000000000000000000000000000000000000000000000000000000000000000000000000000000000000
#010371:00000000000000000000000000000000005454545454545454545454545454540000000000000000000000000000000000000000000000000000000000000000
#011321:13
#011351:0033230000000000
#0113b0:00130000
#011380:0000003323000000
#0123a0:13230000
#012390:0053005300530053005300530053005300530053005300530053005300530053000000000000000000000000000000000000000000000000000000000000000000000000000000000000000000000000000000000000000000000000000000000000000000000000000000000000000000000000000000000000000000000000
#0123b0:00535353535353535353535353535353000000000000000000000000000000000000000000000000000000000000000000000000000000000000000000000000
#012331:00132300
#012341:0000000000000000000000000000000000000000000000000000000000000000005300530053005300530053005300530053005300530053005300530053005300000000000000000000000000000000000000000000000000000000000000000000000000000000000000000000000000000000000000000000000000000000
#012321:00000000000000000000000000000000005353535353535353535353535353530000000000000000000000000000000000000000000000000000000000000000
#013381:13230000
#0133b1:0053000000000000
#013350:00132300
#013320:0000005300000000
#014380:14240000
#014390:0054005400540054005400540054005400540054005400540054005400540054000000000000000000000000000000000000000000000000000000000000000000000000000000000000000000000000000000000000000000000000000000000000000000000000000000000000000000000000000000000000000000000000
#014370:00545454545454545454545454545454000000000000000000000000000000000000000000000000000000000000000000000000000000000000000000000000
#014341:00142400
#014331:0000000000000000000000000000000000000000000000000000000000000000005400540054005400540054005400540054005400540054005400540054005400000000000000000000000000000000000000000000000000000000000000000000000000000000000000000000000000000000000000000000000000000000
#014351:00000000000000000000000000000000005454545454545454545454545454540000000000000000000000000000000000000000000000000000000000000000
#016331:14
#016361:0022000000000000
#016390:0014000000000000
#016380:00220000
#016321:00130000
#016361:0000002200000000
#0163b0:0000001300000000
#016380:0022
#016350:0000000000130000
#016320:0000000000000023
#016381:00000000000000000000001300000000
#0163b1:0000000000000023
#017371:0013000000000000
#017391:00230000
#017330:00130000
#017350:0000002300000000
#017391:0000001300000000
#0173b1:0023
#0173b1:00000000000000000000001300000000
#017371:0000000000000023
#017360:00000000000000000000001300000000
#017320:0000000000000023
#018360:0013000000000000
#018340:00230000
#0183a1:00130000
#018381:0000002300000000
#018340:0000001300000000
#018320:0023
#018320:00000000000000000000001300000000
#018360:0000000000000023
#018371:00000000000000000000001300000000
#0183b1:0000000000000023
#019371:0013000000000000
#0193b1:0000002300000000
#019321:00000000000000000013000000002300
#019361:00000000000000000000003300000000
#0193b0:00000000000000000000001300000000
#019370:0000000000000023
#020360:0013000000000000
#020320:0000002300000000
#0213b0:0013000000000000
#021390:00230000
#021321:00130000
#021341:0000002300000000
#021390:0000001300000000
#021370:0023
#0213b0:00000000000000000000001300002300
#021380:0000000000000000000000000000000000000000000000000053000000000000
#021361:00000000000000000000001300000000
#021321:0000000000000023
#022321:0013000000000000
#022341:00230000
#0223b0:00130000
#022390:0000002300000000
#022341:0000001300000000
#022361:0023
#022321:00000000000000000000001300002300
#022351:0000000000000000000000000000000000000000000000000053000000000000
#022370:00000000000000000000001300000000
#0223b0:0000000000000023
#023390:0000000000000000000000001353535353535353535353532300000000000000
#023380:00000000000000000000000000000000000000000000000000550055005500550055005500550055005500550055005500000000000000000000000000000000
#023341:0000000000000000000000001353535353535353535353532300000000000000
#023331:00000000000000000000000000000000000000000000000000550055005500550055005500550055005500550055005500000000000000000000000000000000
#024371:13530000
#024391:00530033005300000000000000000000
#0243b1:0053002300000000
#024360:0000001300230000
#024340:00000000000000530053000000000000
#024320:0053
#024320:0000000000001333
#024330:00000000000000000000000000330033
#025320:23
#0243b1:0000000000001333
#0243a1:00000000000000000000000000330033
#0253b1:23
#0253b1:0013
#025371:00000022
#026361:0013
#026321:00000022
#027321:00130000
#027361:0000003323000000
#027321:0000000000132300
#027341:00000000000000000000003300000000
#028371:13
#0283b1:00000023000000000000000000000000
#028321:0000001300000000
#028351:0000000000230000
#029321:0013
#029371:00000022
#030371:0013
#0303c1:00000022
#0313b1:13
#031381:00000033230000000000000000000000
#031320:13
#031350:00000033230000000000000000000000
#031380:000000000000000000145454545454545454240000000000
#031360:000000000000000000000000000000000000000000000000000000000000000000000000000000000000000000000000000000000000000000000000000000000000000000000000000000000000000000000000000000000000000000000000000000000000000000000000000000000000000000000000000000000000000000000000000000000000000000000000000000000000000000000000000000000000000000000000000000000000000000000000000000000000000000000000000000000000000000000000000000000000000000000000000000000000000000000000000000000000000000000000000000000000000000000000000000000000000000000000000000000000000000000000000000000000000000000000000000000000000000000000000000000000000000000000000000000000000000000000000000000000000000000000000000000000000000000000000000000000000000000000000000000000000000000000000000000000000000000000000000000000000000000000000000000000000000000000000000000000000000000000000000000000000000000000000000000000000000000000000000000000000000000000000000000000000000000000000000000000000000000000000000000000000000000000000000000000000000000000000000000000000000000000000000000000000000000000000000000000000000000000000000000000000000000000000000000000000000000000000000000000000000000000000000000000000000000000000000000000000000000000000000000000000000000000000000000000000000000000000000000000000000000000000000000000000000000000000000000000000000000000000000000000000000000000000000000000000000000000000000000000000000000000000000000000000000000000000000000000000000000000000000000000000000000000000000000000000000000000000000000000000000000000000000580000000000000000000000000000000000000000000000000000000000000000000000000000000000000000000000000000000000000000000000000000000000000000000000000000000000000000580000000000000000000000000000000000000000000000000000000000000000000000000000000000000000000000000000000000000000000000000000000000000000000000000000000000005800000000000000000000000000000000000000000000000000000000000000000000000000000000000000000000000000000000000000000000000000000000000000000000000000000000000000005800000000000000000000000000000000000000000000000000000000000000000000000000000000000000000000000000000000000000000000000000000000000000000000000000000000000058000000000000000000000000000000000000000000000000000000000000000000000000000000000000000000000000000000000000000000000000000000000000000000000000000000000000000058000000000000000000000000000000000000000000000000000000000000000000000000000000000000000000000000000000000000000000000000000000000000000000000000000000000000580000000000000000000000000000000000000000000000000000000000000000000000000000000000000000000000000000000000000000000000000000000000000000000000000000000000000000580000000000000000000000000000000000000000000000000000000000000000000000000000000000000000000000000000000000000000000000000000000000000000000000000000000000005800000000000000000000000000000000000000000000000000000000000000000000000000000000000000000000000000000000000000000000000000000000000000000000000000000000000000000000000000000000000000000000000000000000000000000000000000000000000000000000000000000000000000000000000000000000000000000000000000000000000000000000000000000000000000000000000000000000000000000000000000000000000000000000000000000000000000000000000000000000000000000000000000000000000000000000000000000000000000000000000000000000000000000000000000000000000000000000000000000000000000000000000000000000000000000000000000000000000000000000000000000000000000000000000000000000000000000000000000000000000000000000000000000000000000000000000000000000000000000000000000000000000000000000000000000000000000000000000000000000000000000000000000000000000000000000000000000000000000000000000000000000000000000000000000000000000000000000000000000000000000000000000000000000000000000000000000000000000000000000000000000000000000000000000000000000000000000000000000000000000000000000000000000000
#031341:000000000000000000145454545454545454240000000000
#031321:000000000000000000000000000000000000000000000000000000000000000000000000000000000000000000000000000000000000000000000000000000000000000000000000000000000000000000000000000000000000000000000000000000000000000000000000000000000000000000000000000000000000000000000000000000000000000000000000000000000000000000000000000000000000000000000000000000000000000000000000000000000000000000000000000000000000000000000000000000000000000000000000000000000000000000000000000000000000000000000000000000000000000000000000000000000000000000000000000000000000000000000000000000000000000000000000000000000000000000000000000000000000000000000000000000000000000000000000000000000000000000000000000000000000000000000000000000000000000000000000000000000000000000000000000000000000000000000000000000000000000000000000000000000000000000000000000000000000000000000000000000000000000000000000000000000000000000000000000000000000000000000000000000000000000000000000000000000000000000000000000000000000000000000000000000000000000000000000000000000000000000000000000000000000000000000000000000000000000000000000000000000000000000000000000000000000000000000000000000000000000000000000000000000000000000000000000000000000000000000000000000000000000000000000000000000000000000000000000000000000000000000000000000000000000000000000000000000000000000000000000000000000000000000000000000000000000000000000000000000000000000000000000000000000000000000000000000000000000000000000000000000000000000000000000000000000000000000000000000000000000000000000000000005800000000000000000000000000000000000000000000000000000000000000000000000000000000000000000000000000000000000000000000000000000000000000000000000000000000000058000000000000000000000000000000000000000000000000000000000000000000000000000000000000000000000000000000000000000000000000000000000000000000000000000000000000000058000000000000000000000000000000000000000000000000000000000000000000000000000000000000000000000000000000000000000000000000000000000000000000000000000000000000580000000000000000000000000000000000000000000000000000000000000000000000000000000000000000000000000000000000000000000000000000000000000000000000000000000000000000580000000000000000000000000000000000000000000000000000000000000000000000000000000000000000000000000000000000000000000000000000000000000000000000000000000000005800000000000000000000000000000000000000000000000000000000000000000000000000000000000000000000000000000000000000000000000000000000000000000000000000000000000000005800000000000000000000000000000000000000000000000000000000000000000000000000000000000000000000000000000000000000000000000000000000000000000000000000000000000058000000000000000000000000000000000000000000000000000000000000000000000000000000000000000000000000000000000000000000000000000000000000000000000000000000000000000058000000000000000000000000000000000000000000000000000000000000000000000000000000000000000000000000000000000000000000000000000000000000000000000000000000000000000000000000000000000000000000000000000000000000000000000000000000000000000000000000000000000000000000000000000000000000000000000000000000000000000000000000000000000000000000000000000000000000000000000000000000000000000000000000000000000000000000000000000000000000000000000000000000000000000000000000000000000000000000000000000000000000000000000000000000000000000000000000000000000000000000000000000000000000000000000000000000000000000000000000000000000000000000000000000000000000000000000000000000000000000000000000000000000000000000000000000000000000000000000000000000000000000000000000000000000000000000000000000000000000000000000000000000000000000000000000000000000000000000000000000000000000000000000000000000000000000000000000000000000000000000000000000000000000000000000000000000000000000000000000000000000000000000000000000000000000000000000000000000000000000000000000000000
#032371:00000000000000000000001200000000
#032341:0000000000000028
#033371:00000000000000000013000000002300
#0333b1:00000000000000000000003300000000
#034361:00000000000000000013000000002300
#034321:00000000000000000000003300000000
#035321:00000000000000000013000000002300
#035361:00000000000000000000003300000000
#0363b1:00000000000000000013000000002300
#036371:00000000000000000000003300000000
#037371:00000000000000000013000000000000
#0373b1:00000000000000000000002300000000
#037360:00000000000000000000001300000000
#037320:0000000000000023
#038360:00000000000000000013000000000000
#038320:00000000000000000000002300000000
#038371:00000000000000000000001300000000
#0383b1:0000000000000023
#0393b1:13000023000000000000000000000000
#039371:0000005300000000000000000000000000000000000000000000000000000000
#039350:00000013000000000000000000000000
#039320:0000002300000000
#0393b1:0000001300000000
#039381:0023
#039320:00000000000000001300002300000000
#039360:0000000000000000000000000000000000000053000000000000000000000000
#039381:00000000000000000000001300000000
#0393b1:0000000000000023
#040381:00000000130000330000230000000000
#0403b1:0000000000000000000000530000000000000000000000000000000000000000
#040350:00000000001300330000000023000000
#040320:0000005300000000
#0403b1:0000000000001323
#041371:00000000000000000013000000002300
#0413b1:00000000000000000000003300000000
#041360:00000000000000000000001300000000
#041320:0000000000000023
#042360:00000000000000000013000000002300
#042320:00000000000000000000003300000000
#042371:00000000000000000000001300000000
#0423b1:0000000000000023
#043321:00000000000000000013000000002300
#043361:00000000000000000000003300000000
#0433b0:00000000000000000000001300000000
#043370:0000000000000023
#0443b0:00000000000000000013000000002300
#044370:00000000000000000000003300000000
#044321:00000000000000000000001300000000
#044361:0000000000000023
#045381:0013
#0453b1:00000000000000000000002300000000
#045350:0013
#045320:00000000000000000000002300000000
#046320:00000000000000130000230000000000
#047320:13
#047350:00000023000000000000000000000000
#0473b1:13
#047381:00000023000000000000000000000000
#047351:0013
#047321:00000000000000000000002300000000
#047380:0013
#0473b0:00000000000000000000002300000000
#048320:13000023000000000000000000000000
#0483b1:13000023000000000000000000000000
#048391:00000000000014542400000000000000
#0483a1:000000000000000000000000000000000000005400000000000000000000000000000000000000000000000000000000
#048381:000000000054000000000000
#048330:00000000000000001454240000000000
#048340:000000000000000000000000000000000000000000000000005400000000000000000000000000000000000000000000
#048320:000000000000000000000000005400000000000000000000
#048371:00000000000000000000145424000000
#048381:000000000000000000000000000000000000000000000000000000000000005400000000000000000000000000000000
#048361:000054
#0493b1:0013000000000000
#049391:00000033000000000000000000000000
#049381:00230000
#049381:0000000000000013
#0503b1:00230000
#050320:00130033
#050360:0033
#050330:0000000000000033
#051350:33
#052320:23
#0513b1:00000013
#0513a1:000000000000000000000000000000000000003300000000
#051391:000000000033
#051381:0000000000000023
#052380:0013000000000000
#0523b0:00332300
#052370:0000003300000000
#052351:0013
#052321:0000000000330033
#052361:00000033
#053361:23
#0533b1:0013
#053381:0000000000230000
#053350:0013
#053320:0000000000230000
#0533b0:00000000000000000000001300000000
#053380:0000000000000023
#053351:00000000000000000000001300000000
#053321:0000000000000023
#054381:13000023000000000000000000000000
#0543b1:0000005300000000000000000000000000000000000000000000000000000000
#054350:00000013000023000000000000000000
#054320:0000000000000000005300000000000000000000000000000000000000000000
#0553b0:13
#055380:00000023000000000000000000000000
#055321:13
#055351:00000023000000000000000000000000
#055381:0013
#0553b1:00000000000000000000002300000000
#055350:0013
#055320:00000000000000000000002300000000
#0563b0:13000023000000000000000000000000
#056321:13000023000000000000000000000000
#056331:00000000000014542400000000000000
#056321:000000000000000000000000000000000000005400000000000000000000000000000000000000000000000000000000
#056341:000000000054000000000000
#056390:00000000000000001454240000000000
#056380:000000000000000000000000000000000000000000000000005400000000000000000000000000000000000000000000
#0563a0:000000000000000000000000005400000000000000000000
#056351:00000000000000000000145424000000
#056341:000000000000000000000000000000000000000000000000000000000000005400000000000000000000000000000000
#056361:000054
#058381:13230000
#0583b1:0053000000000000
#058350:00132300
#058320:0000005300000000
#059380:14240000
#059390:0054005400540054005400540054005400540054005400540054005400540054000000000000000000000000000000000000000000000000000000000000000000000000000000000000000000000000000000000000000000000000000000000000000000000000000000000000000000000000000000000000000000000000
#059370:00545454545454545454545454545454000000000000000000000000000000000000000000000000000000000000000000000000000000000000000000000000
#059341:00142400
#059331:0000000000000000000000000000000000000000000000000000000000000000005400540054005400540054005400540054005400540054005400540054005400000000000000000000000000000000000000000000000000000000000000000000000000000000000000000000000000000000000000000000000000000000
#059351:00000000000000000000000000000000005454545454545454545454545454540000000000000000000000000000000000000000000000000000000000000000
#0603b1:1333000000000000
#060381:00230000
#060320:0000133300000000
#060350:0023
#061330:13230000
#061340:0053005300530053005300530053005300530053005300530053005300530053000000000000000000000000000000000000000000000000000000000000000000000000000000000000000000000000000000000000000000000000000000000000000000000000000000000000000000000000000000000000000000000000
#061320:00535353535353535353535353535353000000000000000000000000000000000000000000000000000000000000000000000000000000000000000000000000
#0613a1:00132300
#061391:0000000000000000000000000000000000000000000000000000000000000000005300530053005300530053005300530053005300530053005300530053005300000000000000000000000000000000000000000000000000000000000000000000000000000000000000000000000000000000000000000000000000000000
#0613b1:00000000000000000000000000000000005353535353535353535353535353530000000000000000000000000000000000000000000000000000000000000000
#062351:13230000
#062321:0053000000000000
#062380:00132300
#0623b0:0000005300000000
#063340:14240000
#063330:0054005400540054005400540054005400540054005400540054005400540054000000000000000000000000000000000000000000000000000000000000000000000000000000000000000000000000000000000000000000000000000000000000000000000000000000000000000000000000000000000000000000000000
#063350:00545454545454545454545454545454000000000000000000000000000000000000000000000000000000000000000000000000000000000000000000000000
#063381:00142400
#063391:0000000000000000000000000000000000000000000000000000000000000000005400540054005400540054005400540054005400540054005400540054005400000000000000000000000000000000000000000000000000000000000000000000000000000000000000000000000000000000000000000000000000000000
#063371:00000000000000000000000000000000005454545454545454545454545454540000000000000000000000000000000000000000000000000000000000000000
#065391:14
#065381:0022000000000000
#065330:0014000000000000
#065360:00220000
#0653b1:00130000
#065381:0000002200000000
#065320:0000001300000000
#065360:0022
#0653b1:0000000012322200
#0653a1:00000000000000000032003200000000
