This file was generated by Ched 2.7.0.0.
#TITLE ""
#ARTIST ""
#DESIGNER ""
#DIFFICULTY 0
#PLAYLEVEL
#SONGID ""
#WAVE ""
#WAVEOFFSET 0
#JACKET ""
#REQUEST "ticks_per_beat 480"
#00002: 4
#BPM01: 140
#00008: 01
#TIL00: ""
#HISPEED 00
#MEASUREHS 00
#00518:1300001313000000
#00512:0000001313000000
#00515:0000000000000013
#00918:00000000000000001300001300000000
#00915:0013001300000013
#00912:00000000000000000000001300000000
#0091b:1300130000000013
#00910:41
#01014:0014
#01015:00000000000000000000001300000000
#01018:0000001400130013
#01112:1313
#0111b:0000130000000013
#01115:0000000000130000
#01118:00000013
#0171b:00001300000000000000001300000000
#01718:00131300
#01715:00000000000013000013000000000000
#01710:41
#02014:00000000000000000000001400000000
#02018:0000130000000014
#0201a:0014
#02012:0013000000000000
#02015:0000001300000000
#0231b:13
#02315:0013000000000000
#02318:00130000
#02319:0000000000000014
#02313:0000000000000014
#02518:0000001300000000
#02512:00130000
#02515:0013
#0251b:0000000000000013
#0251f:11
#0261b:0000000013000013
#02612:0000130000000013
#02615:1313
#02618:0013001300000000
#02715:1300130000000013
#02718:00000013000013000000130013000000
#02712:0000000000131300
#03215:00000000130000000013000000000000
#03218:00001300001300000000002300000000
#03212:13000000000000130000000000000000
#03312:00001300000000000000001300000000
#03318:00130000
#03315:00000000000013000013000000000000
#0331b:0013
#0331f:21
#03515:00000000130000000000001300000000
#0351b:0013
#03512:00001300000000000013000000000000
#03518:0000001300000000
#03912:13
#03915:0000001300000000000000001300000000000000000000000000000000000000
#0391b:0013
#03918:0000000000000000000000000000000000000013000000000000000013000000
#04012:13000000000000130000000000002300
#0401b:0013000000000000
#04015:0000130000230000
#04018:00000000001300000000000023000000
#0411b:0013000000000000
#04118:00000000130013000013000000000000
#04112:00000000000013000000001300000000
#04115:0013000013000000
#04516:0000001313000000
#04512:0013000000000013
#04517:0013000000000000
#04519:00130000
#04514:00130000
#0451b:0000001313000000
#05012:0013
#05018:00000013
#05015:0000000000130013
#05112:13130000
#05118:0000001300000000
#05115:0013
#0511b:0000000000130000
#05114:000000000000000000000000000000000000003300000000
#05113:000000000033
#05318:00000000000013000000001300000000
#05312:0013000000000013
#0531b:1313
#05315:0000130000130000
#03712:0013000013000000
#0371b:0013000000000000
#03718:00000000130000000013000000000000
#03715:00000000000013000000001300000000
#0011a:0000001300000000
#00113:0013
#00118:0000000000000013
#00112:13
#00215:0013000013000000
#00218:0000001300000000
#05715:0000000000130000
#05718:0013
#05712:14000014000013000000000024000000
#0571a:14000014000000000000000024000000
#05710:41
#03118:1300130000000013
#03115:00000013000000000000000000000000
#03114:0000002400000000
#04612:00000013
#04615:13000000001300000000000000000000
#04618:0013000000000013
#0461b:00130000
#04918:1300000000130013
#0491b:0000001300000000
#04915:0013
#04912:00000013
#04913:00000033000000000000000000000000
#04910:41
#0521b:0013000013000000
#05218:00130013
#05215:0000001300000013
#05212:0000000000130000
#00818:0014001400000000
#00814:14140000
#00815:0000000000130000
#00812:0023
#00618:0013000000000000
#0061b:0000001313000000
#00615:0000001313000000
#00715:1300001313000000
#0071b:0000001313000000
#00718:0000000000000013
#01212:00130000
#0121b:0000000000130000
#01218:00000013
#01215:2300000000000013
#01315:00000000000000001300001300000000
#01318:0013001300000013
#0131b:00000000000000000000001300000000
#01312:1300130000000013
#01418:00000000000000001400001300000000
#01415:0000000000130013
#01414:0000001400000000
#0151b:1313
#01512:0000130000000013
#01518:0000000000130000
#01515:00000013
#0161b:1313000013130000
#01615:1313000013130000
#01612:0000131300000000
#01618:0000131300000000
#01812:00001300000000000000001300000000
#01815:00131300
#01818:00000000000013000013000000000000
#0191b:00001300000000001300001300000000
#01915:00000000130000000013000000000000
#01918:0000001300000000
#0211b:00001300000000001300001300000000
#02112:0013000000000000
#02115:00000000130000000013000000000000
#02118:0000001300000000
#02212:00001300000000001300001300000000
#0221b:0013000000000000
#02218:00000000130000000013000000000000
#02215:0000001300000000
#02413:1414140000000000
#02414:00140000001400000000000000000000
#02412:00000014000000000000000023333333
#02419:1414140000000000
#0241a:00140000001400000000000000000000
#02418:00000014000000000000000023333333
#0241b:0000000000130000
#02415:0000000000130000
#02410:41
#02815:00000013000013000000000000001300
#02818:13130013
#0281b:0000000000130000
#02915:0000001300000000
#0291b:23130000
#02918:0013
#02912:2300000000000013
#03018:1313
#03015:0013001300000000
#0301b:0000130000000013
#03012:0000000013000013
#0341b:00001300000000000000001300000000
#03415:00130000
#03418:00000000000013000013000000000000
#03412:0013
#03410:41
#03618:00000000130000000000001300000000
#03612:0013
#0361b:00001300000000000013000000000000
#03615:0000001300000000
#0381b:0013000013000000
#03812:0013000000000000
#03815:00000000130000000013000000000000
#03818:00000000000013000000001300000000
#04212:0013000000000000
#04215:00000000130013000013000000000000
#0421b:00000000000013000000001300000000
#04218:0013000013000000
#0431b:00001300000013000000001300000000
#04318:00000000130000000013000000000000
#04312:0013001300000000
#04315:00000000000000001300001300000000
#04412:00001300000013000000001300000000
#04415:00000000130000000013000000000000
#0441b:0013001300000000
#04418:00000000000000001300001300000000
#04818:0000001300130000
#04815:00001323
#0541b:1300001300000000
#05418:00000013000000000000000000000000
#05415:0000000000000013
#05615:0000001300130000
#05618:00001323
#05818:1300000013000013
#05815:00001300000000000000001300000000
#05812:0000001300000013
#0581b:00000000130000000000001300000000
#05918:0014
#0591b:00000000000000000000001300000000
#05915:0000000000130013
#05914:0000001400000000
#0601b:1313
#06012:0000130000000013
#06015:0000000000130000
#06018:00000013
#0611b:00130000
#06112:0000000000130000
#06115:00000013
#06118:2300000000000013
#06215:1300000013000013
#06218:00001300000000000000001300000000
#0621b:0000001300000013
#06212:00000000130000000000001300000000
#06314:0014
#06312:00000000000000000000001300000000
#06318:0000001400130013
#06412:1313
#0641b:0000130000000013
#06418:0000000000130000
#06415:00000013
#06512:1313000000000000
#06518:1313000000000000
#0651b:0000131300000000
#06515:0000131300000000
#00313:0000001300000000
#0031a:0013
#00315:0000000000000013
#0031b:13
#00418:0013000013000000
#00415:0000001300000000
#00414:00000024
#04715:0000000023000026
#04712:23
#04718:0000002300000000
#05518:0023
#0551b:23
#05515:0000002300000026
#00454:00000014
#01152:63
#0115b:00530000
#0175b:00000000000000000000005300000000
#01758:0000000000000013
#02058:0000000000000014
#0205a:0014
#02054:00000000000000000000001400000000
#03952:63
#03955:0000002300000000000000000000000000000000000000000000000000000000
#0395b:0053
#03958:0000000000000000000000000000000000000023000000000000000000000000
#04556:0053
#04552:00000000000000000000001300000000
#0455b:0053
#04557:00000000000000000000001300000000
#04752:63000000000000000000001300000000
#04755:00000013000000005300000000000000
#03355:00000000000000000063000000001300
#03352:00000000000000000000005300000000
#03552:00000000000000000063000000001300
#03555:00000000000000000000005300000000
#03752:0000000000000013
#03755:00000000000000000000005300000000
#0575a:00000014
#05752:00000014
#04958:0000000000000053
#00858:0014001400000000
#00855:0000000000530000
#00852:00005313
#01658:0000000000000013
#0165b:0000000000530000
#01655:0000000000530000
#01652:0000000000000013
#01255:53
#01252:00530000
#0155b:53
#01552:00630000
#01852:00000000000000000000006300000000
#01855:0000000000000013
#0195b:00000000000000000000005300000000
#01958:0000000000000013
#0215b:00000000000000000000005300000000
#02158:0000000000000013
#02252:00000000000000000000006300000000
#02255:0000000000000013
#02453:5454540000000000
#02454:00240000002400000000000000000000
#02452:00000024000000000000000000000000
#02459:5454540000000000
#0245a:00240000002400000000000000000000
#02458:00000024000000000000000000000000
#02555:1353
#0255b:13
#02958:0063
#03258:00000000000000000000005300000000
#0325b:0000000000000013
#0345b:00000000000000000000006300000000
#03458:00000000000000000053000000001300
#03658:00000000000000000000006300000000
#0365b:00000000000000000053000000001300
#03858:00000000000000000000006300000000
#0385b:0000000000000013
#04055:0000000000130000
#04052:00000000000000530000000000001300
#04058:00000013
#04152:00000000000000000000005300000000
#04155:0000000000000013
#0425b:00000000000000000000006300000000
#04258:0000000000000013
#04355:00000000000000000000006300000000
#04352:0000000000000013
#0435b:00000000000000000000006300000000
#04358:0000000000000013
#04458:00000000000000000000005300000000
#04452:00000000000000000000005300000000
#0445b:0000000000000013
#04455:0000000000000013
#04855:00000013
#0545b:5300005300000000
#05458:00000053000000000000000000000000
#05558:00000013000000006300000000000000
#0555b:53000000000000000000001300000000
#05658:00000013
#0605b:53
#06052:00630000
#0615b:00630000
#06158:63
#06452:63
#0645b:00530000
#008320:00001323
#008350:0000000000330000
#010330:15250000
#010320:0055005500550055005500550055005500550055005500550055005500550055000000000000000000000000000000000000000000000000000000000000000000000000000000000000000000000000000000000000000000000000000000000000000000000000000000000000000000000000000000000000000000000000
#010340:00555555555555555555555555555555000000000000000000000000000000000000000000000000000000000000000000000000000000000000000000000000
#011320:13
#011350:0023000000000000
#0113b0:00130000
#011380:0000002300000000
#012350:1323
#012320:00330000
#014380:15250000
#014390:0055005500550055005500550055005500550055005500550055005500550055000000000000000000000000000000000000000000000000000000000000000000000000000000000000000000000000000000000000000000000000000000000000000000000000000000000000000000000000000000000000000000000000
#014370:00555555555555555555555555555555000000000000000000000000000000000000000000000000000000000000000000000000000000000000000000000000
#0153b0:13
#015380:0023000000000000
#015320:00130000
#015350:0000002300000000
#0163b0:0000000000130000
#016380:0000000000000023
#016351:0000000000130000
#016321:0000000000000023
#0173b1:00000000000000000000001300000000
#017381:0000000000000023
#018321:00000000000000000000001300000000
#018351:0000000000000023
#0193b1:00000000000000000000001300000000
#019381:0000000000000023
#0213b1:00000000000000000000001300000000
#021381:0000000000000023
#022321:00000000000000000000001300000000
#022351:0000000000000023
#023331:0000000000000000000000001454545454545454545454542400000000000000
#023321:00000000000000000000000000000000000000000000000000560056005600560056005600560056005600560056005600000000000000000000000000000000
#024331:1454542400000000
#024341:00540000005400000000000000000000
#024321:00000034000000000000000000000000
#024390:1454542400000000
#0243a0:00540000005400000000000000000000
#024380:00000034000000000000000000000000
#024320:00000000000000000000000013333333
#025350:23
#024381:00000000000000000000000013333333
#0253b1:23
#025351:0013
#025321:00000023
#029381:0013
#0293b1:00000023
#031341:000000000000000000145454545454545454240000000000
#031321:000000000000000000000000000000000000000000000000000000000000000000000000000000000000000000000000000000000000000000000000000000000000000000000000000000000000000000000000000000000000000000000000000000000000000000000000000000000000000000000000000000000000000000000000000000000000000000000000000000000000000000000000000000000000000000000000000000000000000000000000000000000000000000000000000000000000000000000000000000000000000000000000000000000000000000000000000000000000000000000000000000000000000000000000000000000000000000000000000000000000000000000000000000000000000000000000000000000000000000000000000000000000000000000000000000000000000000000000000000000000000000000000000000000000000000000000000000000000000000000000000000000000000000000000000000000000000000000000000000000000000000000000000000000000000000000000000000000000000000000000000000000000000000000000000000000000000000000000000000000000000000000000000000000000000000000000000000000000000000000000000000000000000000000000000000000000000000000000000000000000000000000000000000000000000000000000000000000000000000000000000000000000000000000000000000000000000000000000000000000000000000000000000000000000000000000000000000000000000000000000000000000000000000000000000000000000000000000000000000000000000000000000000000000000000000000000000000000000000000000000000000000000000000000000000000000000000000000000000000000000000000000000000000000000000000000000000000000000000000000000000000000000000000000000000000000000000000000000000000000000000000000000000000580000000000000000000000000000000000000000000000000000000000000000000000000000000000000000000000000000000000000000000000000000000000000000000000000000000000000000580000000000000000000000000000000000000000000000000000000000000000000000000000000000000000000000000000000000000000000000000000000000000000000000000000000000005800000000000000000000000000000000000000000000000000000000000000000000000000000000000000000000000000000000000000000000000000000000000000000000000000000000000000005800000000000000000000000000000000000000000000000000000000000000000000000000000000000000000000000000000000000000000000000000000000000000000000000000000000000058000000000000000000000000000000000000000000000000000000000000000000000000000000000000000000000000000000000000000000000000000000000000000000000000000000000000000058000000000000000000000000000000000000000000000000000000000000000000000000000000000000000000000000000000000000000000000000000000000000000000000000000000000000580000000000000000000000000000000000000000000000000000000000000000000000000000000000000000000000000000000000000000000000000000000000000000000000000000000000000000580000000000000000000000000000000000000000000000000000000000000000000000000000000000000000000000000000000000000000000000000000000000000000000000000000000000005800000000000000000000000000000000000000000000000000000000000000000000000000000000000000000000000000000000000000000000000000000000000000000000000000000000000000000000000000000000000000000000000000000000000000000000000000000000000000000000000000000000000000000000000000000000000000000000000000000000000000000000000000000000000000000000000000000000000000000000000000000000000000000000000000000000000000000000000000000000000000000000000000000000000000000000000000000000000000000000000000000000000000000000000000000000000000000000000000000000000000000000000000000000000000000000000000000000000000000000000000000000000000000000000000000000000000000000000000000000000000000000000000000000000000000000000000000000000000000000000000000000000000000000000000000000000000000000000000000000000000000000000000000000000000000000000000000000000000000000000000000000000000000000000000000000000000000000000000000000000000000000000000000000000000000000000000000000000000000000000000000000000000000000000000000000000000000000000000000000000000000000000000000000
#032381:00000000000000000000001300000000
#0323b1:0000000000000023
#033351:00000000000000000013000000002300
#033321:00000000000000000000003300000000
#034381:00000000000000000013000000002300
#0343b1:00000000000000000000003300000000
#035321:00000000000000000013000000002300
#035351:00000000000000000000003300000000
#0363b1:00000000000000000013000000002300
#036381:00000000000000000000003300000000
#037351:00000000000000000000001300000000
#037321:0000000000000023
#038381:00000000000000000000001300000000
#0383b1:0000000000000023
#039321:13000023000000000000000000000000
#039351:0000005300000000000000000000000000000000000000000000000000000000
#0393b1:00000000000000001300002300000000
#039381:0000000000000000000000000000000000000053000000000000000000000000
#040321:00000000000000130000000000000000
#040351:0000000000230000
#041321:00000000000000000000001300000000
#041351:0000000000000023
#0423b1:00000000000000000000001300000000
#042381:0000000000000023
#043351:00000000000000000000001300000000
#043321:0000000000000023
#0433b0:00000000000000000000001300000000
#043380:0000000000000023
#044380:00000000000000000000001300000000
#0443b0:0000000000000023
#044321:00000000000000000000001300000000
#044351:0000000000000023
#045361:0013
#045321:00000000000000000000002300000000
#0453b0:0013
#045370:00000000000000000000002300000000
#046380:00000000000000130000230000000000
#047320:13
#047350:00000023000000000000000000000000
#047350:0013
#047320:00000000000000000000002300000000
#048320:13000023000000000000000000000000
#0483b1:13000023000000000000000000000000
#049351:0013000000000000
#049331:00000033000000000000000000000000
#049321:00230000
#049381:0000000000000013
#0503b1:00230000
#051351:00000013
#051341:000000000000000000000000000000000000003300000000
#051331:000000000033
#051321:0000000000000023
#0543b1:1300003300000000
#054381:00000033000000000000000023000000
#0553b1:13
#055381:00000023000000000000000000000000
#055381:0013
#0553b1:00000000000000000000002300000000
#0563b1:13000023000000000000000000000000
#056320:13000023000000000000000000000000
#059380:15250000
#059370:0055005500550055005500550055005500550055005500550055005500550055000000000000000000000000000000000000000000000000000000000000000000000000000000000000000000000000000000000000000000000000000000000000000000000000000000000000000000000000000000000000000000000000
#059390:00555555555555555555555555555555000000000000000000000000000000000000000000000000000000000000000000000000000000000000000000000000
#0603b0:13
#060380:0023000000000000
#060320:00130000
#060350:0000002300000000
#061380:1323
#0613b0:00330000
#063330:15250000
#063340:0055005500550055005500550055005500550055005500550055005500550055000000000000000000000000000000000000000000000000000000000000000000000000000000000000000000000000000000000000000000000000000000000000000000000000000000000000000000000000000000000000000000000000
#063320:00555555555555555555555555555555000000000000000000000000000000000000000000000000000000000000000000000000000000000000000000000000
#064320:13
#064350:0023000000000000
#0643b0:00130000
#064380:0000002300000000
#065330:0000000013332300
#065320:00000000000000000033003300000000
#065391:0000000013332300
#065381:00000000000000000033003300000000
