This file was generated by Ched 2.7.0.0.
#TITLE ""
#ARTIST ""
#DESIGNER ""
#DIFFICULTY 0
#PLAYLEVEL
#SONGID ""
#WAVE ""
#WAVEOFFSET 0
#JACKET ""
#REQUEST "ticks_per_beat 480"
#00002: 4
#BPM01: 140
#00008: 01
#TIL00: ""
#HISPEED 00
#MEASUREHS 00
#00114:1200001212000012
#0011a:1212
#00118:0000001200000012
#00214:0012001212000000
#0021c:0012000000000000
#0021a:0012
#00218:0000001200000000
#00918:1300130000000014
#0091b:0013001300130000
#00912:0013001300000000
#00915:1313
#00916:00000000000000000000001313000000
#00914:00000000000000000000000000000014
#00910:41
#01014:0014
#01018:14000000000000000000000000000013
#01015:0000000000000013
#0101c:0012000000000000
#01012:0000001200130000
#01017:00000000000000000000001313000000
#01112:13000000000013000000001400140014
#0111b:13130000
#01118:0013001300000012
#01115:0013000013000000
#0111c:0000000000120000
#0111a:00000012
#0121b:00001313
#01218:00000000000000000013001300001300
#01215:00000000000000000000130000130013
#01217:0012001200000000
#01212:00000013
#0121a:23
#01213:00230000
#01618:00120013000000000016001600000000
#01612:0000141416160000
#01616:12
#01615:0013000000000000
#0161a:00000000001400140000000000000000
#02012:1200001313000000
#02017:0000001313120000
#02019:00000000130000000000001300120000
#02014:00000000130000000000001300000000
#0201b:0013000000000013
#02016:0013000000000013
#02319:12
#0231c:0012000000000000
#02318:00120000
#0231a:0000000000000012
#02314:1200000000000012
#02316:0012000000000000
#02312:00120000
#02418:00000012000000120000000016000000
#02416:00120000001200000012000000160000
#02414:1212121212000016
#02412:00000012000000120000000000000016
#0241a:1212121212000000
#0241c:00120000001200000012000000000000
#02410:41
#03316:0014141414000000
#0331b:1313001300000000
#03312:13000000130000000012001300000000
#03314:00000000000000120000000000000000
#0331a:00000000000000000012000000000000
#03317:00000000000000000000001300000000
#0331f:21
#0401b:13000000000000000013000000000000
#04012:1300141300220023
#04018:00001200140000140000001400000014
#04016:00000012000000000000000000000000
#04014:00001424
#0401c:00000000000000000000000000120000
#03912:14001400001400001400001300001400
#0391a:14000000000014001400140000140000
#0391b:00000013000000000000000000000000
#04116:00001300000000000000001300000000
#0411b:00001300000000000000001300000000
#04117:00000000130000120013000000000000
#04119:0000001300000000
#04114:1800001300000000
#04115:0012
#04112:00000000130000000013000000001300
#04316:00001300000000001200001300000000
#0431b:00001300000013000000001300000000
#04317:00130000
#04315:0000001300000000
#04319:00000000000000000013000000000000
#04318:1400000000000000000000000000120000000000000000000013000000000000
#04314:14
#04312:00000000130000000013000000000000
#04517:1212121200000000
#0451b:0013001300000000
#04512:13130000
#04513:0000000000000013
#0451a:0000000000000013
#04518:0013
#04515:0013
#04616:14
#04612:0000000013000000000000000000001300000000000000000000000000000000
#0461b:0000000013000000000000000000000000130000000000000000000000000000
#04618:00000000130000130000000013001500
#04615:00000000001300000000000013000000
#04613:0000000000000015
#0531b:0000001300000000
#05312:1400001200130013
#05315:00000000130000000000001300000000
#0531a:14
#05318:00001300130000001300000013000013
#05415:13000000000000000013000000001300
#05418:00000013000000000000130000001300
#05412:00000013000000000000000024000000
#0541b:13
#0541a:000000000033000000240000
#05414:000000000033000000000000
#05413:000000000000000000000033000000000000000000000000
#05419:000000000000000000000033000000000000000000000000
#01512:1300130000130000
#0151b:1300000013000013
#01518:00001300000000130000000013000013
#01515:00000013000013000000001300000000
#0491a:00000012000000000000000000000000
#04916:12000012
#0491c:00120000
#04912:0012000000000014
#0491b:00000000000000000000131300000000
#04910:41
#05218:00000000130000000000001300000000
#0521b:0013001300000013
#05216:00000000000000000000000000000013
#05219:13
#05215:00000000000000130000000000000000
#05212:0000000000130000
#05016:12
#05012:0014000000130013
#0501b:00000000000013000000000000130000
#05015:00000000000000130000000013000000
#05018:00000000130000000000001300000013
#05118:0012000000000000
#0511b:13
#0511a:000000000000000000000000000000000000003300000000
#05119:000000000033
#05719:0015000000000000
#05712:00000000001500000000000000000000
#05717:22000022000022000000000000000000
#05716:0024
#05715:0000000000260000
#05714:00000028
#05710:41
#0031a:1200001212000012
#00314:1212
#00316:0000001200000012
#0041a:0012001212002400
#00412:0012000000002400
#00414:0012
#00416:0000001200000000
#0051c:12121200
#00518:0000001200000000
#0051a:0012000000000012
#00612:0012000012000000
#00616:0000001200000000
#00614:00120000
#00718:0000001200000000
#0071c:00121200
#0071a:0012000000000012
#0081c:1200001200000000
#00814:00140000000014000000000000000000
#00818:00001400001400000000000000000000
#00812:0012120023000000
#0081b:0023
#01418:0000000014000013
#01414:14
#01412:0012000000000000
#0141c:0000001200000000
#01416:00000000000000000000001313000000
#0141b:0000000000130000
#01415:00000000000000000000000000000013
#01317:00000000000000000000001313000000
#01314:0000000000000014
#01312:0013001300130000
#01318:13000000000000001300000000000014
#01315:13130000
#0131b:0013001300000000
#01718:0013001300000000
#0171b:00000000130000000000001300000000
#01719:00000000000000001313000000000000
#01712:12001212
#01714:0012001200120012
#01716:00120000
#01710:41
#0181b:00001300000000001313000000000000
#01819:00130000
#01817:00000000000013000000001300000000
#01812:12001212
#01814:0012001200120012
#01816:00120000
#01917:0013000000000000
#01919:00130000
#0191b:00000000000013000000001300000000
#01918:00000000000000001313000000000000
#01912:12001212
#01914:0012001200120012
#01916:00120000
#02115:0013001300000000
#02112:00000000130000000000001300000000
#02114:00000000000000001313000000000000
#0211c:12001212
#0211a:0012001200120012
#02118:00120000
#02212:00001300000000001313000000000000
#02214:00130000
#02216:00000000000013000000001300000000
#0221c:12001212
#0221a:0012001200120012
#02218:00120000
#02518:00000013130000130000130000001300
#02512:00130013
#02515:00000000000013001300000000000013
#0251b:00000013
#0251f:11
#02514:28
#02618:13000013000000130000130013000000
#02615:00001300000013000000001300001300
#02612:00131300
#0261b:00000000130000001300000000130000
#02717:1300000000131300
#02716:00000013130013000000000000000000
#02712:13000000000000000000001300130000
#0271b:00000000001300000000000000000000
#02719:0000000000000013
#02714:00000000000000000000000000000013
#0281b:1300000000130000
#02812:00000013130013000000000013000000
#02817:00000000001300000000000013000000
#02819:0000000000000013
#02814:0000000000000013
#02915:00000013130000130000130000001300
#0291b:00130013
#02918:24000000000013001300000000000013
#02912:00000013
#02914:24
#03015:13000013000000130000130013000000
#03018:00001300000013000000001300001300
#0301b:00131300
#03012:00000000130000001300000000130000
#0311b:13
#03118:0000000000000013
#03115:0000000000000013
#03112:23
#03212:13000000000000130000000000000000
#0321b:13000000000000130000000000000000
#03218:00001300000000000000002300000000
#03215:00000013000000000000002300000000
#03216:00000000141400000000000000000000
#03214:00000000000000000013000000000000
#03219:00000000000000000013000000000000
#03416:00001400140014001400001300000000
#03412:1313001300000000
#0341b:13000000130000000000001300000000
#0341c:00000000000000000012000000000000
#0341a:00000000000000120000000000000000
#03414:00000000000000000012000000000000
#03410:41
#03516:0014141414000000
#0351b:13000013000000000000000000000000
#03512:13000013000000000012001300000000
#0351a:00000000000000120000000000000000
#0351c:00000000000000000012000000000000
#03517:00000000000000000000001300000000
#03515:0000000000000000000000000000000000000000000000000013000000000000
#03616:00001400140014001400001300000000
#03612:13000013000000000012000000000000
#0361b:13000013000000000000001300000000
#03614:00000000000000120000000000000000
#0361c:00000000000000000012000000000000
#03618:0000000000000000000000000000000000000000000000000013000000000000
#03716:0013000000000000
#0371b:1300000013000000000000000000000000000000000000000013000000000000
#03714:00130000
#03719:00130000
#03717:0000001313000000
#03712:13000000000013000012001300000000
#03715:0000000000000000000000000000120000000000000000000013000000000000
#0371a:00000000000000000012000000000000
#03718:00000000000000000000001300000000
#03817:0013000000000000
#03812:1300000013000000000000000000000000000000000000000013000000000000
#03819:00000000130000120000000000000000
#03814:00000000130000000012000000000000
#03816:0000001313000000
#0381b:13000000000013000000001300000000
#0381c:00000000000000000012000000000000
#03815:00000000000000000000001300000000
#03818:0000000000000000000000000000000000000000000000000013000000000000
#04217:00001300000000120000001300000000
#04212:00001300000000000000001300000000
#04216:00000000130000000013000000000000
#04214:1800001300000000
#04219:0000001312000000
#0421b:00000000130000000013000000001300
#04417:00001300000000000000001300000000
#04412:00001300000013000000001300000000
#04416:00000000130000120000000000000000
#04418:1400001312000000
#04414:14000000000000000013000000000000
#0441b:00000000130000000013000000000000
#04415:0000000000000000000000000000000000000000000000000013000000000000
#0481c:12
#04812:12
#04813:00000022
#0481b:00000022
#05612:12
#0561c:12
#0561b:00000022
#05613:00000022
#05815:13000000130000000000001300000000
#05812:0013001200130000
#0581b:0000001300000000
#0581c:0012000000000000
#05818:13000000000000001300000013000014
#05814:0000000000000014
#05918:00000000000000001400001300001300
#05914:14
#05912:0012000000000000
#0591c:0000001200000000
#05915:00000000000000000000000013000013
#0591b:0000000000130000
#0601b:1300001300000000
#06012:1300130000120000
#06015:0013001300000000
#06018:0013000013000000
#0601a:00000000000000000000001400140014
#06014:00000012
#06016:0000000000000012
#06112:00001313
#06115:00000000000000000013001300001300
#06118:00000000000000000000130000130013
#06117:0012001200000000
#0611b:00000013
#06113:23
#0611a:00230000
#06415:00001300000000130000000013000013
#06418:00000013000013000000001300000000
#0641b:1300130000130000
#06412:1300000013000013
#06515:00000013000000000013000000000000
#06518:1213000013121200
#06516:00120000000000000000001200000000
#0651a:0000141400000000
#06512:00000000001400140000000000000000
#06218:13000000130000000000001300001400
#0621b:0013000000001300
#06212:0012001300000000
#0621c:0000001200000000
#06215:1300000013130000
#06214:00000000000000000000000000000014
#06314:0014
#06318:14000000000000000000130000000013
#06315:00000000000000000000001300001300
#0631c:0012000000000000
#06312:0000001200001300
#04715:0000000000000022
#04719:0000000000000022
#0471c:22
#04712:2200002300000000
#04718:0022
#04716:0022
#0471b:0000002300000000
#05519:0000000000000022
#05515:0000000000000022
#05512:2200002300000000
#0551c:22
#05516:0022
#05518:0022
#0551b:0000002300000000
#00452:00000014
#0045a:00000014
#00958:00630000
#00952:0053000000000000
#0095b:0000005300000000
#00955:53
#01152:63
#0115b:00530000
#01155:0053000000000000
#01158:0000005300000000
#02052:0013
#02057:0013
#0205b:0000000000000013
#02056:0000000000000013
#02059:00000000000000000000004300000000
#02054:00000000000000000000004300000000
#0395a:5400004400000000
#0395b:00000053000000000000000000000000
#03952:00000000000000006400006300003400
#05355:00530000
#05352:1400002200000000
#0535a:14
#02554:18
#05452:00000053000000000000000014000000
#0545a:00000014
#05455:53
#0545b:53
#05458:00000053000000000000000000000000
#0085b:00000013
#00852:00000013
#00858:0014000000000000
#00854:0000001400000000
#04157:00000000000000000063000000001300
#0415b:00000000000000000000005300000000
#04152:0000000000000013
#05754:00000018
#01652:0000000000560012
#01658:00000000000000000000005600000000
#0165c:0000000000000012
#01757:0000000000000013
#0175b:00000000000000000000005300000000
#01857:00000000000000000000005300000000
#0185b:0000000000000013
#0195b:00000000000000000000005300000000
#01957:0000000000000013
#02152:00000000000000000000006300000000
#02156:0000000000000013
#02256:00000000000000000000006300000000
#02252:0000000000000013
#02454:5252525252000000
#02456:00220000002200000022000000000000
#02452:00000022000000220000000000000000
#0245a:5252525252000000
#0245c:00220000002200000022000000000000
#02458:00000022000000220000000000000000
#02757:53
#02756:0000005300000000
#0285b:53
#02852:0000005300000000
#0315b:53
#03152:53
#03258:0000000000000016
#03252:0000000000000016
#03357:00000000000000000000005300000000
#03352:00000000000000000000005300000000
#0335b:0000000000000013
#03356:0000000000000013
#0345b:00000000000000000000006300000000
#03456:00000000000000000000006300000000
#03452:0000000000000013
#03457:0000000000000013
#03552:00000000000000000000005300003300
#03557:00000000000000000000005300000000
#0355b:0000000000000013
#03555:0000000000000000000000000000000000000000000000000023000000000000
#0365b:00000000000000000000006300004300
#03656:00000000000000000000006300000000
#03658:0000000000000000000000000000000000000000000000000023000000000000
#03652:0000000000000013
#03752:00000000000000000000005300003300
#03758:00000000000000000000005300003300
#0375b:0000000000000000000000000000000000000000000000000023000000000000
#03755:0000000000000000000000000000000000000000000000000023000000000000
#0385b:00000000000000000000006300004300
#03855:00000000000000000000006300004300
#03852:0000000000000000000000000000000000000000000000000023000000000000
#03858:0000000000000000000000000000000000000000000000000023000000000000
#04356:00000000000000000000005300000000
#04352:0000000000000013
#0435b:00000000000000000000005300001300
#04358:0000000000000000000000000000000000000000000000000053000000000000
#04558:0053
#04555:0053
#0455b:00000000000000000000003300000000
#04552:00000000000000000000004300000000
#04052:0000000000120013
#04054:00000014
#04655:00000000005300000000000000000000
#04658:00000000000000530000000000000000
#04652:0000000000000000000000000000002300000000000000000000000000000000
#0465b:0000000000000000000000000000000000230000000000000000000000000000
#04758:00000012000000006200000000000000
#04756:00000012000000005200000000000000
#0475c:52000000000000000000001200000000
#04752:62000000000000000000001200000000
#04853:00000032
#0485b:00000032
#0485c:22
#04852:22
#05652:22
#0565c:22
#0565b:00000042
#05653:00000042
#05855:00530000
#05852:0000002200000000
#0585c:0022000000000000
#05858:53
#0605b:53
#06052:00630000
#06058:0063000000000000
#06055:0000006300000000
#04457:00000000000000000000006300000000
#04455:0000000000000000000000000000000000000000000000000063000000000000
#04452:00000000000000000000006300001300
#0445b:0000000000000013
#05552:62000000000000000000001200000000
#0555c:52000000000000000000001200000000
#05556:00000012000000005200000000000000
#05558:00000012000000006200000000000000
#04256:00000000000000000053000000001300
#04252:00000000000000000000006300000000
#0425b:0000000000000013
#01355:00530000
#0135b:0063000000000000
#01352:0000006300000000
#01358:63
#06258:00630000
#06252:0022000000000000
#0625c:0000002200000000
#06255:63
#005320:12
#006320:26
#0063c1:12
#007371:27
#007320:12
#008320:28
#0083b0:0000000013332300
#008390:00000000000000000033003300000000
#008321:0000000013332300
#008341:00000000000000000033003300000000
#009351:13230000
#009321:0033000000000000
#009380:00132300
#0093b0:0000003300000000
#010340:14240000
#010330:0054005400540054005400540054005400540054005400540054005400540054000000000000000000000000000000000000000000000000000000000000000000000000000000000000000000000000000000000000000000000000000000000000000000000000000000000000000000000000000000000000000000000000
#010350:00545454545454545454545454545454000000000000000000000000000000000000000000000000000000000000000000000000000000000000000000000000
#010381:00142400
#010391:0000000000000000000000000000000000000000000000000000000000000000005400540054005400540054005400540054005400540054005400540054005400000000000000000000000000000000000000000000000000000000000000000000000000000000000000000000000000000000000000000000000000000000
#010371:00000000000000000000000000000000005454545454545454545454545454540000000000000000000000000000000000000000000000000000000000000000
#011321:13230000
#011351:0033000000000000
#0113b0:00132300
#011380:0000003300000000
#0123a0:13230000
#012390:0053005300530053005300530053005300530053005300530053005300530053000000000000000000000000000000000000000000000000000000000000000000000000000000000000000000000000000000000000000000000000000000000000000000000000000000000000000000000000000000000000000000000000
#0123b0:00535353535353535353535353535353000000000000000000000000000000000000000000000000000000000000000000000000000000000000000000000000
#012331:00132300
#012341:0000000000000000000000000000000000000000000000000000000000000000005300530053005300530053005300530053005300530053005300530053005300000000000000000000000000000000000000000000000000000000000000000000000000000000000000000000000000000000000000000000000000000000
#012321:00000000000000000000000000000000005353535353535353535353535353530000000000000000000000000000000000000000000000000000000000000000
#013381:13230000
#0133b1:0033000000000000
#013350:00132300
#013320:0000003300000000
#014380:14240000
#014390:0054005400540054005400540054005400540054005400540054005400540054000000000000000000000000000000000000000000000000000000000000000000000000000000000000000000000000000000000000000000000000000000000000000000000000000000000000000000000000000000000000000000000000
#014370:00545454545454545454545454545454000000000000000000000000000000000000000000000000000000000000000000000000000000000000000000000000
#014341:00142400
#014331:0000000000000000000000000000000000000000000000000000000000000000005400540054005400540054005400540054005400540054005400540054005400000000000000000000000000000000000000000000000000000000000000000000000000000000000000000000000000000000000000000000000000000000
#014351:00000000000000000000000000000000005454545454545454545454545454540000000000000000000000000000000000000000000000000000000000000000
#016321:0000000000160022
#016380:00000000000000000000001600000000
#0163c0:0000000000000022
#0173b0:00000000000000000000001300000000
#017370:0000000000000023
#018370:00000000000000000000001300000000
#0183b0:0000000000000023
#0193b0:00000000000000000000001300000000
#019370:0000000000000023
#021320:00000000000000000000001300000000
#021360:0000000000000023
#022360:00000000000000000000001300000000
#022320:0000000000000023
#0233a0:0000000000000000000000001252525252525252525252522200000000000000
#023390:00000000000000000000000000000000000000000000000000540054005400540054005400540054005400540054005400000000000000000000000000000000
#023341:0000000000000000000000001252525252525252525252522200000000000000
#023331:00000000000000000000000000000000000000000000000000540054005400540054005400540054005400540054005400000000000000000000000000000000
#024341:1252523252220000
#024361:00520000005200000052000000000000
#024321:00000032000000520000000000000000
#0243a0:1252523252220000
#0243c0:00520000005200000052000000000000
#024380:00000032000000520000000000000000
#027370:13
#0273b0:00230000
#027360:0000001300000000
#027320:0000000000230000
#0283b0:13
#028370:00230000
#028320:0000001300000000
#028360:0000000000230000
#0313b0:13
#031380:0000000033003353335353533353535333535353335353532300000000000000
#031360:000000000000000000000000000000000000000000000000000000000000000000000000000000000000000000000000000000000000000000000000000000000000000000000000000000000000000000000000000000000000000000000000000000000000000000000000000000000000000000000000000000000000000000000000000000000000000000000000000000000000000000000000000000000000000000000000000000000000000000000000000000000000000000000000000057000000000000000000000000000000000000000000000000000000000000000000000000000000000000000000000000000000000000000000000000000000000000000000000000000000000000000000000000000000000000000000000000000000000000000000000000000000000000000000000000000000000000000000000000000000000000000000000000000000000000000000000000000000000000000000000000000000000000000000000000000000000000000000000000000000000000000000000000000000000000000000000000000000000000000000000000000000000000000000000000000000000000000000000000000000000000000000000000000000000000000000000000000000000000000000000000000000000000000000000000000000000000000000000000000000000000000000000000000000000000000000000000000000000000000000000000000000000000000000000000000000000000000000000000000000000000000000000000000000000000000000000000000000000000000000000000000000000000000000000000000000000000000000000000000000000000000000000000000000000000000000000000000000000000000000000000000000000000000000000000000000000000000000000000000000000000000000000000000000000000570000000000000000000000000000000000000000000000000000000000000000000000000000000000000000000000000000000000000000000000000000000000000000000000000000000000000000000000000000000000000000000000000000000000000000000000000000000000000000000000000000000000000000000000000000000000000000000000000000000000000000000000000000000000000000000000000000000000000000000000000000000000000000000000000000000000000000000000000000000000000000000000000000000000000000000000000000000000000000000000000000000000000000000000000000
#031350:000000000000000000000000000000000000000000000000000000000000000000000000000000000000000000000000000000000000000000000000000000000000000000000000000000000000000000000000000000000000000000000000000000000000000000000000000000000000000000000000000000000000000000000000000000000000000000000000000000000000000000000000000000000000000000000000000000000000000000000000000000000000000000000000000000000000000000000000000000000000000000000000000000000000000000000000000000000000000000000000000000000000000000000000000000000000000000000000000000000000000000000000000000000000000000000000000000000000000000000000000000000000000000000000000000000000000000000000000000000000000000000000000000000000000000000000000000000000000000000000000000000000000000000000000000000000000000000000000000000000000000000000000000000000000000000000000000000000000000000000000000000000000000000000000000000000000000000000000000000000590000000000000000000000000000000000000000000000000000000000000000000000000000000000000000000000000000000000000000005900000000000000000000000000000000000000000000000000000000000000000000000000000000000000000000000000000000000000000000000000590000000000000000000000000000000000000000000000000000000000000000000000000000000000000000000000000000000000000000000000000000000000000000000000000000000000000000000000000000000000000000000000000000000000000000000000000000000000000000000000000000000000000000000000000000000000000000000000000000000000000000000000000000000000000000000000000000000000000000000000000000000000000000000000000000000000000000000000000000000000000000000000000000000000000000000000000000000000000000000000000000000000000000000000000000000000000000000000000000000000000000000000000000000000000000000000000000000000000000000000000000000000000000000000000000000000000000000000000000000000000000000000000000000000000000000000000000000000000000000000000000000000000000000000000000000000000000000000000000000000000000000000000000000000000000000000000000000000000000000000000000000000000000000000000000000000000000000000000000000000000000000000000000000000000000000000000000000000000000000000000000000000000000000000000000000000000000000000000000000000000000000000000000000000000000000000000000000000000000000000000000000000000000000000000000000000000000000000000000000000000000000000000000000000000000000000000000000000000000000000000000000000000000000000000000000000000000000000000000000000000000000000000000000000000000000000000000000000000000005900000000000000000000000000000000000000000000000000000000000000000000000000000000000000000000000000000000000000000000000000590000000000000000000000000000000000000000000000000000000000000000000000000000000000000000000000000000000000000000000059000000000000000000000000000000000000000000000000000000000000000000000000000000000000000000000000000000000000000000000000000000000000000000000000000000000000000000000000000000000000000000000000000000000000000000000000000000000000000000000000000000000000000000000000000000000000000000000000000000000000000000000000000000000000000000000000000000000000000000000000000000000000000000000000000000000000000000000000000000000000000000000000000000000000000000000000000000000000000000000000000000000000000000000000000000000000000000000000000000000000000000000000000000000000000000000000000000000000000000000000000000000000000000000000000000000000000000000000000000000000000000000000000000000000000000000000000000000000000000000000000000000000000000000000000000000000000000000000000000000000000000000000000000000000000000000000000000000000000000000000000000000000000000000000000000000000000000000000000000000000000000000000000000000000000000000000000000000000000000000000000000000000000000000000000000000000000000000000000000000000000000000000000000000000000000000000000000000000000000000000000000000000000000000000000000000000000000000000000000000000
#031340:000000000000000000000000000000000000000000000000000000000000000000000000000000000000000000000000000000000000000000000000000000000000000000000000000000000000000000000000000000000000000000000000000000000000000000000000000000000000000000000000000000000000000000000000000000000000000000000000000000000000000000000000000000000000000000000000000000000000000000000000000000000000000000000000000000000000000000000000000000000000000000000000000000000000000000000000000000000000000000000000000000000000000000000000000000000000000000000000000000000000000000000000000000000000000000000000000000000000000000000000000000000000000000000000000000000000000000000000000000000000000000000000000000000000000000000000000000000000000000000000000000000000000000000000000000000000000000000000000000000000000000000000000000000000000000000000000000000000000000000000000000000000000000000000000000000000000000000000000000000000000000000000000000000000000000000000000000000000000000000000000000000000000000000000000000000000000000000000000000000000000000000000000000000000000000000000000000000000000000000000000000000000000000000000000000000000000000000000000000000000000000000000000000000000000000000000000000000000000000000000000000000000000000000000000000000000000000000000000000005a000000000000000000000000000000000000000000000000000000000000000000000000000000000000000000000000000000000000000000000000005a000000000000000000000000000000000000000000000000000000000000000000000000000000000000000000000000000000000000000000005a0000000000000000000000000000000000000000000000000000000000000000000000000000000000000000000000000000000000000000000000005a0000000000000000000000000000000000000000000000000000000000000000000000000000000000000000000000000000000000000000000000000000000000000000000000000000000000000000000000000000000000000000000000000000000000000000000000000000000000000000000000000000000000000000000000000000000000000000000000000000000000000000000000000000000000000000000000000000000000000000005a000000000000000000000000000000000000000000000000000000000000000000000000000000000000000000000000000000000000000000000000005a000000000000000000000000000000000000000000000000000000000000000000000000000000000000000000000000000000000000000000005a0000000000000000000000000000000000000000000000000000000000000000000000000000000000000000000000000000000000000000000000005a0000000000000000000000000000000000000000000000000000000000000000000000000000000000000000000000000000000000000000000000000000000000000000000000000000000000000000000000000000000000000000000000000000000000000000000000000000000000000000000000000000000000000000000000000000000000000000000000000000000000000000000000000000000000000000000000000000000000000000000000000000000000000000000000000000000000000000000000000000000000000000000000000000000000000000000000000000000000000000000000000000000000000000000000000000000000000000000000000000000000000000000000000000000000000000000000000000000000000000000000000000000000000000000000000000000000000000000000000000000000000000000000000000000000000000000000000000000000000000000000000000000000000000000000000000000000000000000000000000000000000000000000000000000000000000000000000000000000000000000000000000000000000000000000000000000000000000000000000000000000000000000000000000000000000000000000000000000000000000000000000000000000000000000000000000000000000000000000000000000000000000000000000000000000000000000000000000000000000000000000000000000000000000000000000000000000000000000000000000000000000000000000000000000000000000000000000000000000000000000000000000000000000000000000000000000000000000000000000000000000000000000000000000000000000000000000000000000000000000000000000000000000000000000000000000000000000000000000000000000000000000000000000000000000000000000000000000000000000000000000000000000000000000000000000000000000000000000000000000000000
#031330:00000000000000000000000000000000000000000000000000000000000000000000000000000000000000000000000000000000000000000000000000000000000000000000000000000000000000000000000000000000000000000000000000000000000000000000000000000000000000000000000000000000000000000000000000000000000000000000000000000000000000000000000000000000000000000000000000000000000000000000000000000000000000000000000000000000000000000000000000000000000000000000000000000000000000000000000000000000000000000000000000000000000000000000000000000000000000000000000000000000000000000000000000000000000000000000000000000000000000000000000000000000000000000000000000000000000000000000000000000000000000000000000000000000000000000000000000000000000000000000000000000000000000000000000000000000000000000000000000000000000000000000000000000000000000000000000000000000000000000000000000000000000000000000000000000000000000000000000000000000000000000000000000000000000000000000000000000000000000000000000000000000000000000000000000000000000000000000000000000000000000000000000000000000000000000000000000000000000000000000000000000000000000000000000000000000000000000000000000000000000000000000000000000000000000000000000000000000000000000000000000000000000000000000000000000000000000000000000000000000000000000000000000000000000000000000000000000000000000000000000000000000000000000000000000000000000000000000000000000000000000000000000000000000000000000000000000000000000000000000000000000000000000000000000000000000000000000000000000000000000000000000000000000000000000000000000000000000000000000000000000000000000000000000000000000000000000000000000000000000000000000000000000000000000000000000000000000000000000000000000000000000000000000000000000000000000000000000000000000000005b0000000000000000000000000000000000000000000000000000000000000000000000000000000000000000000000000000000000000000000000005b0000000000000000000000000000000000000000000000000000000000000000000000000000000000000000000000000000000000000000000000000000000000000000000000000000000000000000000000000000000000000000000000000000000000000000000000000000000000000000000000000000000000000000000000000000000000000000000000000000000000000000000000000000000000000000000000000000000000000000000000000000000000000000000000000000000000000000000000000000000000000000000000000000000000000000000000000000000000000000000000000000000000000000000000000000000000000000000000000000000000000000000000000000000000000000000000000000000000000000000000000000000000000000000000000000000000000000000000000000000000000000000000000000000000000000000000000000000000000000000000000000000000000000000000000000000000000000000000000000000000000000000000000000000000000000000000000000000000000000000000000000000000000000000000000000000000000000000000000000000000000000000000000000000000000000000000000000000000000000000000000000000000000000000000000000000000000000000000000000000000000000000000000000000000000000000000000000000000000000000000000000000000000000000000000000000000000000000000000000000000000000000000000000000000000000000000000000000000000000000000000000000000000000000000000000000000000000000000000000000000000000000000000000000000000000000000000000000000000000000000000000000000000000000000000000000000000000000000000000000000000000000000000000000000000000000000000000000000000000000000000000000000000000000000000000000000000000000000000000000000000000000000000000000000000000000000000000000000000000000000000000000000000000000000000000000000000000000000000000000000000000000000000000000000000000000000000000000000000000000000000000000000000000000000000000000000000000000000000000000000000000000000000000000000000000000000000000000000000000000000000000000000000000000000000000000000000000000000000000000000000000000000000000000000000000000000000000000000000000000000000000000000000000000000000000000000000000000000000000000000
#031321:1300000000000000000000000000000000000000000000000000000000000000000000000000000000000000000000000000000000000000000000000000000000000000000000000000000000000000000000000000000000000000000000000000000000000000000000000000000000000000000000000000000000000000000000000000000000000000000000000000000000000000000000000000000000000000000000000000000000000000000000000000000000000000000000000000000000000000000000000000000000000000000000000000000000000000000000000000000000000000000000000000000000000000000000000000000000000000000000000000000000000000000000000000000000000000000000000000000000000000000000000000000000000000000000000000000000000000000000000000000000000000000000000000000000000000000000000000000000000000000000000000000000000000000000000000000000000000000000000000000000000000000000000000000000000000000000000000000000000000000000000000000000000000000000000000000000000000000000000000000059000000000000000000000000000000000000000000000000000000000000000000000000000000000000000000000000000000000000000000000000005900000000000000000000000000000000000000000000000000000000000000000000000000000000000000000000000000000000000000000059000000000000000000000000000000000000000000000000000000000000000000000000000000000000000000000000000000000000000000000000005a0000000000000000000000000000000000000000000000000000000000000000000000000000000000000000000000000000000000000000005a000000000000000000000000000000000000000000000000000000000000000000000000000000000000000000000000000000000000000000000000005a0000000000000000000000000000000000000000000000000000000000000000000000000000000000000000000000000000000000000000005a000000000000000000000000000000000000000000000000000000000000000000000000000000000000000000000000000000000000000000000000005b000000000000000000000000000000000000000000000000000000000000000000000000000000000000000000000000000000000000000000005b0000000000000000000000000000000000000000000000000000000000000000000000000000000000000000000000000000000000000000000000005a000000000000000000000000000000000000000000000000000000000000000000000000000000000000000000000000000000000000000000005a0000000000000000000000000000000000000000000000000000000000000000000000000000000000000000000000000000000000000000000000005a0000000000000000000000000000000000000000000000000000000000000000000000000000000000000000000000000000000000000000005a00000000000000000000000000000000000000000000000000000000000000000000000000000000000000000000000000000000000000000000000000590000000000000000000000000000000000000000000000000000000000000000000000000000000000000000000000000000000000000000000059000000000000000000000000000000000000000000000000000000000000000000000000000000000000000000000000000000000000000000000000590000000000000000000000000000000000000000000000000000000000000000000000000000000000000000000000000000000000000000000000000000000000000000000000000000000000000000000000000000000000000000000000000000000000000000000000000000000000000000000000000000000000000000000000000000000000000000000000000000000000000000000000000000000000000000000000000000000000000000000000000000000000000000000000000000000000000000000000000000000000000000000000000000000000000000000000000000000000000000000000000000000000000000000000000000000000000000000000000000000000000000000000000000000000000000000000000000000000000000000000000000000000000000000000000000000000000000000000000000000000000000000000000000000000000000000000000000000000000000000000000000000000000000000000000000000000000000000000000000000000000000000000000000000000000000000000000000000000000000000000000000000000000000000000000000000000000000000000000000000000000000000000000000000000000000000000000000000000000000000000000000000000000000000000000000000000000000000000000000000000000000000000000000000000000000000000000000000000000000000000000000000000000000000000000000000000000000000000000000000000
#031351:0000000033003353335353533353535333535353335353532300000000000000
#031331:000000000000000000000000000000000000000000000000000000000000000000000000000000000000000000000000000000000000000000000000000000000000000000000000000000000000000000000000000000000000000000000000000000000000000000000000000000000000000000000000000000000000000000000000000000000000000000000000000000000000000000000000000000000000000000000000000000000000000000000000000000000000000000000000000000570000000000000000000000000000000000000000000000000000000000000000000000000000000000000000000000000000000000000000000000000000000000000000000000000000000000000000000000000000000000000000000000000000000000000000000000000000000000000000000000000000000000000000000000000000000000000000000000000000000000000000000000000000000000000000000000000000000000000000000000000000000000000000000000000000000000000000000000000000000000000000000000000000000000000000000000000000000000000000000000000000000000000000000000000000000000000000000000000000000000000000000000000000000000000000000000000000000000000000000000000000000000000000000000000000000000000000000000000000000000000000000000000000000000000000000000000000000000000000000000000000000000000000000000000000000000000000000000000000000000000000000000000000000000000000000000000000000000000000000000000000000000000000000000000000000000000000000000000000000000000000000000000000000000000000000000000000000000000000000000000000000000000000000000000000000000000000000000000000000057000000000000000000000000000000000000000000000000000000000000000000000000000000000000000000000000000000000000000000000000000000000000000000000000000000000000000000000000000000000000000000000000000000000000000000000000000000000000000000000000000000000000000000000000000000000000000000000000000000000000000000000000000000000000000000000000000000000000000000000000000000000000000000000000000000000000000000000000000000000000000000000000000000000000000000000000000000000000000000000000000000000000000000000000000000
#032381:00000000000000000000001300002600
#032350:00000000000000000000001300000000
#032320:0000000000000026
#033370:00000000000000000000001300000000
#0333b0:0000000000000023
#033321:00000000000000000000001300000000
#033361:0000000000000023
#034361:00000000000000000000001300000000
#034321:0000000000000023
#0343b0:00000000000000000000001300000000
#034370:0000000000000023
#035370:00000000000000000000001300000000
#0353b0:0000000000000023
#035321:00000000000000000000001300002300
#035351:0000000000000000000000000000000000000000000000000053000000000000
#036361:00000000000000000000001300000000
#036321:0000000000000023
#0363b0:00000000000000000000001300002300
#036380:0000000000000000000000000000000000000000000000000053000000000000
#037380:00000000000000000000001300002300
#0373b0:0000000000000000000000000000000000000000000000000053000000000000
#037321:00000000000000000000001300002300
#037351:0000000000000000000000000000000000000000000000000053000000000000
#038351:00000000000000000000001300002300
#038321:0000000000000000000000000000000000000000000000000053000000000000
#0383b0:00000000000000000000001300002300
#038380:0000000000000000000000000000000000000000000000000053000000000000
#0393a0:14
#039360:0024000000000000
#0393b0:00000013000000000000000000000000
#039360:00000000002300000000000000000000
#039320:0014
#039360:0000000000240000
#039320:00000000000000000000001300000000
#039370:00000000000000000000000000230000
#041370:00000000000000000013000000002300
#0413b0:00000000000000000000003300000000
#042360:00000000000000000013000000002300
#042320:00000000000000000000003300000000
#0433b0:00000000000000000000001300002300
#043380:0000000000000000000000000000000000000000000000000053000000000000
#043361:00000000000000000000001300000000
#043321:0000000000000023
#044321:00000000000000000000001300002300
#044351:0000000000000000000000000000000000000000000000000053000000000000
#044370:00000000000000000000001300000000
#0443b0:0000000000000023
#045380:0013
#0453b0:00000000000000000000332300000000
#045351:0013
#045321:00000000000000000000332300000000
#046351:00000000001300000000230000000000
#046321:0000000000000000000000000000005300000000000000000000000000000000
#046380:00000000000000130000230000000000
#0463b0:0000000000000000000000000000000000530000000000000000000000000000
#0473c0:12
#047380:00000022000000000000000000000000
#047321:12
#047361:00000022000000000000000000000000
#047381:0012
#0473c1:00000000000000000000002200000000
#047360:0012
#047320:00000000000000000000002200000000
#0483c0:12
#048380:00000022000000000000000000000000
#048321:12
#048361:00000022000000000000000000000000
#048391:00000000000012522200000000000000
#0483a1:000000000000000000000000000000000000005200000000000000000000000000000000000000000000000000000000
#048381:000000000052000000000000
#048350:00000000000000001252220000000000
#048360:000000000000000000000000000000000000000000000000005200000000000000000000000000000000000000000000
#048340:000000000000000000000000005200000000000000000000
#0483b1:00000000000000000000125222000000
#0483c1:000000000000000000000000000000000000000000000000000000000000005200000000000000000000000000000000
#0483a1:000052
#0493b1:13
#049381:0022000000000000
#049321:00120000
#049361:0000002200000000
#049380:0000001200000000
#0493c0:0022
#049331:000000000000000000000000000000000000000000000000000000000000000000000000000000000000000000000000125252525252525252525252220000000000000000000000000000000000000000000000000000000000000000000000
#049321:000000000000000000000000000000000000000000000000000000000000000000000000000000000000000000000000000000000000000000000000000000000000000000000000000000000000000000000000000000000000000000000000005400540054005400540054005400540054005400540054000000000000000000000000000000000000000000000000000000000000000000000000000000000000000000000000000000000000000000000000000000000000000000000000
#0493a1:000000000000000000000000000000000000000000000000000000000000000000000000000000000000000000000000000000000000000000000000000000000000000000000000000000000000000000000000125252525252525252525252
#049391:000000000000000000000000000000000000000000000000000000000000000000000000000000000000000000000000000000000000000000000000000000000000000000000000000000000000000000000000000000000000000000000000000000000000000000000000000000000000000000000000000000000000000000000000000000000000000000000000000000000000000000000000000000000000000000000000005400540054005400540054005400540054005400540054
#0503a1:525252525252525252525252220000000000000000000000000000000000000000000000000000000000000000000000000000000000000000000000000000000000000000000000000000000000000000000000000000000000000000000000
#050391:005400540054005400540054005400540054005400540054000000000000000000000000000000000000000000000000000000000000000000000000000000000000000000000000000000000000000000000000000000000000000000000000000000000000000000000000000000000000000000000000000000000000000000000000000000000000000000000000000000000000000000000000000000000000000000000000000000000000000000000000000000000000000000000000
#050351:00130000
#050321:0000002300000000
#050381:0013
#0503b1:0000000000230000
#051351:13
#051321:00230000
#0513a0:0000122200000000
#051361:0000001200000000
#051321:0022
#051380:0012
#0513c0:0000000000220000
#051341:0000000000122200
#0513b0:00000013
#0513a0:000000000000000000000000000000000000003300000000
#051390:000000000033
#051370:0000000000000023
#051331:000000000000000000000000000000000000000000000000000000000000000000000000000000000000000000000000000000000000000000000000000000000000000000000000000000000000000000000000125252525252525252525252
#051321:000000000000000000000000000000000000000000000000000000000000000000000000000000000000000000000000000000000000000000000000000000000000000000000000000000000000000000000000000000000000000000000000000000000000000000000000000000000000000000000000000000000000000000000000000000000000000000000000000000000000000000000000000000000000000000000000005400540054005400540054005400540054005400540054
#052331:525252525252525252525252220000000000000000000000000000000000000000000000000000000000000000000000000000000000000000000000000000000000000000000000000000000000000000000000000000000000000000000000
#052321:005400540054005400540054005400540054005400540054000000000000000000000000000000000000000000000000000000000000000000000000000000000000000000000000000000000000000000000000000000000000000000000000000000000000000000000000000000000000000000000000000000000000000000000000000000000000000000000000000000000000000000000000000000000000000000000000000000000000000000000000000000000000000000000000
#052361:00120000
#052321:0000002200000000
#052381:0012
#0523c1:0000000000220000
#052361:00000012
#052321:0000000000000022
#053351:00132300
#053321:0000005200000000
#054351:13000000005333000000000000000000
#054321:00005333000000002300000000000000
#054341:000000000033000000000000
#054331:000000000000000000000033000000000000000000000000
#0543b0:13000000005333000000000000000000
#054380:00005333000000002300000000000000
#0543a0:000000000033000000000000
#054390:000000000000000000000033000000000000000000000000
#055320:12
#055360:00000022000000000000000000000000
#0553c1:12
#055381:00000022000000000000000000000000
#055361:0012
#055321:00000000000000000000002200000000
#055380:0012
#0553c0:00000000000000000000002200000000
#056320:12
#056360:00000022000000000000000000000000
#0563c1:12
#056381:00000022000000000000000000000000
#056351:00000000000012522200000000000000
#056341:000000000000000000000000000000000000005200000000000000000000000000000000000000000000000000000000
#056361:000000000052000000000000
#056390:00000000000000001252220000000000
#056380:000000000000000000000000000000000000000000000000005200000000000000000000000000000000000000000000
#0563a0:000000000000000000000000005200000000000000000000
#056331:00000000000000000000125222000000
#056321:000000000000000000000000000000000000000000000000000000000000005200000000000000000000000000000000
#056341:000052
#058381:13230000
#0583c1:0032000000000000
#058350:00132300
#058320:0000003200000000
#059380:14240000
#059390:0054005400540054005400540054005400540054005400540054005400540054000000000000000000000000000000000000000000000000000000000000000000000000000000000000000000000000000000000000000000000000000000000000000000000000000000000000000000000000000000000000000000000000
#059370:00545454545454545454545454545454000000000000000000000000000000000000000000000000000000000000000000000000000000000000000000000000
#059341:00142400
#059331:0000000000000000000000000000000000000000000000000000000000000000005400540054005400540054005400540054005400540054005400540054005400000000000000000000000000000000000000000000000000000000000000000000000000000000000000000000000000000000000000000000000000000000
#059351:00000000000000000000000000000000005454545454545454545454545454540000000000000000000000000000000000000000000000000000000000000000
#0603b1:13230000
#060381:0033000000000000
#060320:00132300
#060350:0000003300000000
#061330:13230000
#061340:0053005300530053005300530053005300530053005300530053005300530053000000000000000000000000000000000000000000000000000000000000000000000000000000000000000000000000000000000000000000000000000000000000000000000000000000000000000000000000000000000000000000000000
#061320:00535353535353535353535353535353000000000000000000000000000000000000000000000000000000000000000000000000000000000000000000000000
#0613a1:00132300
#061391:0000000000000000000000000000000000000000000000000000000000000000005300530053005300530053005300530053005300530053005300530053005300000000000000000000000000000000000000000000000000000000000000000000000000000000000000000000000000000000000000000000000000000000
#0613b1:00000000000000000000000000000000005353535353535353535353535353530000000000000000000000000000000000000000000000000000000000000000
#062351:13230000
#062321:0032000000000000
#062380:00132300
#0623c0:0000003200000000
#063340:14240000
#063330:0054005400540054005400540054005400540054005400540054005400540054000000000000000000000000000000000000000000000000000000000000000000000000000000000000000000000000000000000000000000000000000000000000000000000000000000000000000000000000000000000000000000000000
#063350:00545454545454545454545454545454000000000000000000000000000000000000000000000000000000000000000000000000000000000000000000000000
#063381:00142400
#063391:0000000000000000000000000000000000000000000000000000000000000000005400540054005400540054005400540054005400540054005400540054005400000000000000000000000000000000000000000000000000000000000000000000000000000000000000000000000000000000000000000000000000000000
#063371:00000000000000000000000000000000005454545454545454545454545454540000000000000000000000000000000000000000000000000000000000000000
