This file was generated by Ched 2.7.0.0.
#TITLE ""
#ARTIST ""
#DESIGNER ""
#DIFFICULTY 0
#PLAYLEVEL
#SONGID ""
#WAVE ""
#WAVEOFFSET 0
#JACKET ""
#REQUEST "ticks_per_beat 480"
#00002: 4
#BPM01: 140
#00008: 01
#TIL00: ""
#HISPEED 00
#MEASUREHS 00
#0011a:1414
#0021a:1414
#00312:1414
#00412:1414
#01112:14
#0111a:0014
#01714:00140000
#01718:2414
#01710:41
#0191a:1414
#01912:00140000
#02012:1414
#0201a:00140000
#02118:14
#0211a:0014
#02114:00140000
#0251a:2414
#02514:2414
#0251f:11
#0261a:1414
#02614:1414
#02612:00140000
#02618:00140000
#02912:1414
#02918:1414
#03018:1414
#03012:1414
#03014:00140000
#0301a:00140000
#03318:26001414
#03312:00140000
#0331f:21
#0351a:14
#03512:00140000
#03518:00001414
#03718:14
#03714:00140000
#0371a:0014
#03712:00000014
#00912:0014
#0091a:24
#00910:41
#01018:1414
#01014:00140000
#01214:1414
#01218:00140000
#00518:1414
#00613:1515
#01814:1414
#01818:00140000
#0271a:14343400
#02716:00000014
#03112:14343400
#03116:00000014
#03412:14
#0341a:00140000
#03414:00001414
#03410:41
#03612:14
#0361a:00140000
#03614:00001414
#03818:14
#03814:00140000
#0381a:0014
#03812:00000014
#04912:0014
#04918:00000014
#0491a:00140000
#04910:41
#05118:14
#05112:00140000
#0511a:0014
#05114:00000014
#00718:1616
#00812:16000024
#01318:14140000
#01314:00001414
#01418:15150000
#01413:00001515
#01518:16160000
#01512:00001616
#02414:0014
#0241a:00140000
#02412:14
#02410:41
#02318:0014
#02312:00140000
#0231a:14
#02212:0014
#02218:00140000
#02214:14
#04114:00001414
#0411a:00140000
#04112:26
#04312:14
#0431a:00140000
#04314:00001414
#04514:14
#04518:00140000
#04512:0014
#0451a:00000014
#0421a:14
#04212:00140000
#04218:00001414
#0441a:14
#04412:00140000
#04418:00001414
#04614:14
#04618:00140000
#04612:0014
#0461a:00000014
#05312:16
#05314:00160000
#05316:0016
#05318:00000016
#06012:14
#0601a:0014
#05812:0014
#0581a:24
#05918:1414
#05914:00140000
#06114:1414
#06118:00140000
#06218:14140000
#06214:00001414
#06318:15150000
#06313:00001515
#06418:16160000
#06412:00001616
#04714:14
#0471a:0014
#05518:14
#05512:0014
#01616:18181800
#05418:16
#05416:00160000
#05414:0016
#05412:00000016
#05718:26
#05710:41
#0281a:34340000
#03212:34340000
#0275a:54
#02756:00000024
#03152:64
#03156:00000024
#03358:16
#00852:66000014
#05758:16
#04952:16
#05552:0054
#05558:54
#0475a:0054
#04754:54
#008320:16000024
#0273a0:14343400
#027360:00000034
#0283a0:34342400
#031320:14343400
#031360:00000034
#032320:34342400
#039370:14
#039380:00340000
#039390:0034
#0393a0:00000024
#040350:14
#040340:00340000
#040330:0034
#040320:00000024
#047340:14
#047320:00240000
#0473a0:0014
#047380:00000024
#048320:16003636
#049320:26
#050320:1434
#050340:00340024
#0523a0:1434
#052380:00340024
#055380:14
#0553a0:00240000
#055320:0014
#055340:00000024
#056380:16003636
#057380:26
#065340:1838383838000000
#065360:00000024
