This file was generated by Ched 2.7.0.0.
#TITLE ""
#ARTIST ""
#DESIGNER ""
#DIFFICULTY 0
#PLAYLEVEL
#SONGID ""
#WAVE ""
#WAVEOFFSET 0
#JACKET ""
#REQUEST "ticks_per_beat 480"
#00002: 4
#BPM01: 154
#00008: 01
#TIL00: ""
#HISPEED 00
#MEASUREHS 00
#0071a:14
#0141a:14
#00918:14
#03018:16
#01718:14
#01818:14
#05514:14
#05712:14
#01012:14
#00814:14
#00614:14
#01514:14
#01510:41
#01614:14
#02918:2616
#03418:16
#03318:1616
#03310:41
#06118:2616
#0611f:21
#06512:0016
#06518:16
#07012:14
#07118:14
#07214:14
#0731a:14
#07412:14
#07518:14
#07614:14
#03112:1616
#06312:1616
#06718:0016
#06712:16
#03212:16
#03812:16
#03718:0016
#03712:26
#04212:16
#04118:0016
#04112:16
#03918:16
#03912:0016
#04018:16
#05418:14
#0561a:14
#05818:14
#01118:14
#01212:14
#01912:14
#02012:14
#04614:0014
#0481a:0014
#05012:0014
#0531f:11
#05312:24
#0051a:24
#00510:41
#0131a:24
#0691a:24
#06210:41
#02510:41
#04310:41
#001390:14
#002390:24
#003330:14
#004330:24
#0213a0:14
#0223a0:24
#023340:14
#024340:24
#025380:14
#026380:24
#027320:14
#028320:24
#035320:16
#036320:26
#043380:16
#044380:26
#045340:14
#046340:24
#0473a0:14
#0483a0:24
#049320:14
#050320:24
#051380:14
#052380:24
#059340:14
#060340:24
#062380:1626
#064320:1626
#066380:1626
#068320:1626
#077330:1424
#077391:1424
