This file was generated by Ched 2.7.0.0.
#TITLE ""
#ARTIST ""
#DESIGNER ""
#DIFFICULTY 0
#PLAYLEVEL
#SONGID ""
#WAVE ""
#WAVEOFFSET 0
#JACKET ""
#REQUEST "ticks_per_beat 480"
#00002: 4
#BPM01: 154
#00008: 01
#TIL00: ""
#HISPEED 00
#MEASUREHS 00
#0011b:1313
#00112:1313
#00212:13000024
#0021b:13
#00213:0024
#00219:0024
#0021a:00000024
#01114:00130000000000000000140000000000
#01117:13
#0111a:0013000014000000
#01112:00000013000000001400000000000000
#0111b:00130000
#01113:00000000001300000000000000000000
#01119:0000001300000000
#01116:00000000000000130000000015000000
#01118:0000000000000016
#01312:0013
#0131b:2300000000130013
#01315:0000000000130013
#01318:00000013
#02218:0013000013000000
#02215:00000013000000000000000000000000
#0221b:0000000000130000
#02212:00000013
#02412:13131313
#0241b:00000000130000001300000000130000
#02415:0000000000130013
#02418:00000000000000000000001300000013
#02416:0014001400000000
#02618:0013000000000013
#02615:00000013000000000000000013000000
#0261b:1313
#02612:13
#0271a:2414001424001400
#02712:1424002414000000
#02716:0000000000140014
#03518:0013000000130000
#03515:0000001300000000
#0351a:24242424
#03512:24242424
#05218:00000012
#05214:0000000000000012
#05212:1400001400000000
#05216:0014000000000000
#0521a:0000141400000000
#0601a:14141400
#06016:0014001400000000
#06012:00141400
#06015:0000000000131313
#06018:00000000000000000000001300130013
#00312:13
#00315:0013
#0031b:0013
#00318:13
#00619:000000000000000000000000000000000033000000130000
#0061a:000000000000140000000000000000000000000000130000000000000000000033000000000000000000000000000000
#00613:0000001300000000
#00618:00000000001300000000000000000000
#00615:00130000
#00614:0000000000000013
#00612:2424
#00713:00000000001300000000000000000013
#00718:0000130000000013
#00715:00000000000000130000000000130000
#0071a:2400001324001300
#00712:0014000000140000
#00515:0000130000000013
#0051a:00001400001300000000140000000013
#00513:0000001300001300
#00518:00000000000000130000000000130000
#00512:2424
#00510:41
#00814:0000000000130013
#00819:00000000000000000013000000001300
#00816:00241300
#0081b:00000000000000000000001300000000
#00812:0024000000001300
#0081a:2400002400000000
#00916:2414000024140000
#00918:00000000130000000000000000130000
#00915:00000000001300000000000013000000
#0091b:00000000000013000000000000000013
#00912:00000000000000130000000000001300
#01412:1300000000130013
#0141b:0013
#01418:0000000000130013
#01415:00000013
#0151b:13
#01512:0000000000000013
#01518:0000000000130000
#01515:00000013
#01510:41
#01915:0000000000130013
#01912:13000013
#02812:1400001400000000
#02816:0014000000000000
#0281a:0000141400000000
#02815:00000013
#02818:0000000000000013
#03418:0000001300001300
#03415:0013000000000013
#0341b:0013
#02519:0000000000120000
#02517:000000000000000000000000000000000000000000000000000000000000000000000000000000000000000000000000000000000000000000000000000000000000001600000000000000000000000000000000000000000000000000000000
#02515:2200000000000000000000000000000000000000000000000000000000000000000000000000000000120000000000000000000000000000000000000000000000000000000000000000000000000000000000000000000000000000000000000000000000000000000000000000000000000000000000000000000000000000000000000000000000000000000000000000000000000000000000000000000000000000000000000000000000000000000000000000000000000000000000000000000000000000000000000000000000000000000000000000000000000000000000000000000000000000000000000000000000000000000000000000000000000000000000000000000000000000000000000000000000000000000000000000000000000000000000000000000000000000000000000000000000000000
#02513:000000000000000000000000000000000000001600000000000000000000000000000000000000000000000000000000000000000000000000000000000000000000000000000000000000000000000000000000000000000000000000000000
#02516:0028
#02510:41
#01215:0013
#01218:0013
#01212:2400002400000000
#0121a:00000024000000000000000000000000
#03616:0014001400000000
#03612:14141400
#0361a:14141413
#03618:0000000000130013
#03613:00000000000000000000000000130000
#03615:00000000000000000000001300000013
#01615:00000013000013000000000000000000
#01618:00001300000000130000000000000000
#01616:0000000000140000
#0161a:24240024
#01612:24002424
#0231b:00131300
#02317:00000013
#02312:13000013
#02316:00130000
#0501b:13000013
#05018:0013000000000000
#05015:00000013000000000000000000000000
#05016:0000000000000014
#05012:13000013
#05112:1323000013000000
#0511b:2313000023001300
#05115:0000002300130000
#05118:0000001300000013
#0531c:0012
#05314:0000000000000012
#05316:0012
#0531a:12
#05317:00000012000000000000000000000000
#0531f:11
#05418:12
#0541a:0032000000000012
#05416:00000012
#0541c:0012
#05412:00120000
#05414:0000003200000000
#0561c:00120000
#05616:12000012
#0561a:0000003200000012
#05612:0012
#05614:0032000000000000
#05712:1200000000000012
#0571a:0012120000000000
#05716:00000012000000000000001200000000
#05714:0000001212000000
#0571c:0000000000121200
#05718:00000000000000120000000000000012
#06616:00140000140000140000000014000000
#0661a:1414001414000014
#06612:00000014001400000000000000001400
#07014:000000000000000000000000000000000000000000130000000000000000000000003300000000000000130000000000
#07019:0000001300000013
#07012:00001600001300000000000000000000
#0701b:00130013
#07016:2424
#07013:000033
#06913:00000000000000130000000000000000
#06919:0000001300000000
#06915:00000000001300000000000000000000
#0691b:00130000
#06912:0016000000001300
#06918:26000000000000000000160000130000
#06914:0000000000000013
#0691a:00000000000000000000000000000013
#06916:0024
#03215:0000002600001300
#03218:0013000000000013
#03212:13252500
#03219:0025
#01716:13
#01717:00130000
#01712:0013
#01718:0000000000130000
#01715:00000013
#0171b:2300000000000013
#01812:00001313
#01815:13000013000000000000130000000000
#01818:13000013000000001300000013000000
#0181a:000000000013000000000000001300000000000000000000000000000000000000000000000000000000000000000000
#01813:000000000013000000000000001300000000000000000000000000000000000000000000000000000000000000000000
#0181b:0000000000130013
#03312:2300001300130013
#0331b:23000013000000001300000013000000
#03316:0013
#03310:41
#04016:00000013
#04013:0000000000000013
#04019:0000000000000013
#04015:13230000
#0401b:0013000000000000
#04012:0013000023000000
#04018:0000002300000000
#04117:0000000000000000001300000000000000000000000000000000000013000000
#04112:0000000012000013
#04116:2300000000120000
#04114:0000001300000000
#04113:0000001300000000000000000000000000000000000000000000000000000000
#04118:0012
#0411c:0000000000120000
#0411a:00000013000000000000000000000000
#03015:0013002600000013
#0301b:13
#03018:00000013
#03019:00252500
#03012:0025
#02918:00000013000000000000000000000000
#02916:0000001313000000
#02912:0000000000130013
#0291b:23001313
#0291b:00000023
#02915:23
#01016:2414000024000000
#01019:0000000000000013
#01014:000000000000000000000000000000000033000000130000
#0101b:00130000
#01012:00000000001300000000000000000000
#01018:0000001300000000
#01015:00000000000000130000000000000000
#01013:000033
#03115:00000013000000000000000000000000
#03117:0000001313000000
#0311b:0000000000130013
#03112:13001313
#03118:13
#03718:00000013000000000000000000000000
#03716:0000001313000000
#03712:2300000000130000
#0371b:23001313
#03715:0000000000000013
#03714:00000013000000000000000000000000
#03915:00000013000000000000000000000000
#03917:0000001313000000
#0391b:1300000000130000
#03912:13001313
#03918:0000000000000013
#03919:00000013000000000000000000000000
#03818:13230013
#03815:0000002300000013
#03812:0013000000000000
#0381b:0013000023000000
#04216:13130000
#0421b:13130000
#04217:0013001300000000
#04212:0013001300000000
#04215:00000013
#04218:0000000000000013
#04315:0013000000130000
#04318:0000001300000000
#04312:24242424
#0431a:24242424
#04310:41
#04615:0013000013000000
#04618:00000013000000000000000000000000
#04612:0000000000130000
#0461b:00000013
#0481b:13131313
#04818:0000000000130013
#04815:00000000000000000000001300000013
#04812:00000000130000001300000000130000
#04816:0014001400000000
#05512:0012
#0551a:0000000000000012
#05518:0012
#05514:12
#05517:00000012000000000000000000000000
#06415:0000002600001300
#06418:1300000000000013
#06412:130000333333000000000000250000000000000000000000
#06412:003300000000
#06419:00252500
#06512:00000013000000000000000013001300
#06518:00000013000000001300000000001300
#0651b:2300001300130000
#06515:23
#0611b:23000013000000000000000000000000
#06117:0013
#06118:0000000000000013
#06112:0013
#06115:2300001300000000
#0611f:21
#06218:0023001300001300
#06215:0013002300000013
#0621b:13130000
#06212:1313
#06210:41
#0631b:0000000013000013
#06312:13000013000000000000000000000000
#06316:0013
#06318:1300001300000000
#06315:0000000000000013
#06717:1400000000130000
#0671a:0014000000000000
#0671b:0013
#06712:0000140000000013
#06715:0000001400000000
#06716:00000013
#06719:00340034000000000033003300000000
#06714:00000000003400340000000000330033
#07519:00130000000000000000000000000000
#07516:13000025
#07513:0013000000000000
#0751b:00000013000000000000000000000000
#07512:00132400
#0751a:00000000001300002400000000000000
#07514:0000001300240000
#07517:00000000000000130000000000000000
#07518:0000000000000026
#0711b:00000000130000000000000000000013
#07115:00000000001300000000000000001300
#07118:00000000000013000000160000130000
#07112:00001600000000130000000013000000
#07116:2424
#07219:0000000000000013
#07214:00002600000000000013000000001300
#07217:0013
#0721a:0000000000130000
#07212:26000000000000000000001300000000
#0721b:00000013
#07216:00260000
#07218:0000002600000000
#07318:00001600000000000000000000330000
#07312:0000000000161300
#07314:0000003300000013
#0731b:00130000
#07319:0000001300000033
#07316:2424
#0731a:00000000000000000000000000000033
#07315:00000000003300000000000000000000
#07313:00000000000000330000000000000000
#07418:0016000000000000
#07414:0000003300000013
#07419:000000000000000000130000000000000033000000130000
#07412:00000013
#0741b:00130000
#07416:2424
#0741a:000033
#07415:00000000003300000000000000000000
#07413:00000000000000330000000000000000
#0771a:1400001400000000
#07716:00001400001400000000000000000000
#07712:14000014000000000000000000000000
#05818:00000000000000120000000012000000
#0581a:0012000000120000
#05812:1212
#0581c:00120000
#05816:00000012000000000000000000001200
#05814:00000000000012000000001200000000
#05914:1200003200000032
#0591b:00320000000000000032000000000000
#0591a:0032000000320000
#05919:00000032000000000000003200000000
#05915:00000000003200000000000000320000
#05913:00000000000000320000000000000032
#04415:13
#04418:2314251600002300
#04413:00150000
#04414:0024000000000000
#04412:0000002623000000
#04915:0000000000120000
#04913:000000000000000000000000000000000000000000000000000000000000000000000000000000000000000000000000000000000000000000000000000000000000001600000000000000000000000000000000000000000000000000000000
#04919:2200000000000000000000000000000000000000000000000000000000000000000000000000000000120000000000000000000000000000000000000000000000000000000000000000000000000000000000000000000000000000000000000000000000000000000000000000000000000000000000000000000000000000000000000000000000000000000000000000000000000000000000000000000000000000000000000000000000000000000000000000000000000000000000000000000000000000000000000000000000000000000000000000000000000000000000000000000000000000000000000000000000000000000000000000000000000000000000000000000000000000000000000000000000000000000000000000000000000000000000000000000000000000000000000000000000000000
#04917:000000000000000000000000000000000000001600000000000000000000000000000000000000000000000000000000000000000000000000000000000000000000000000000000000000000000000000000000000000000000000000000000
#04912:0028
#04712:00131300
#04716:00000013
#0471b:13000013
#04717:00130000
#07615:0013
#07618:00000026000000001300000000000000
#07616:0000000000000014
#07612:2600000000000000000000002600000000333333333333330000000000000000
#0761b:0000000000000000000000000000000000333333333333330000000000000000
#0761b:0000000000000000000000000000000000000000000000330000000000000000
#00417:1313
#00416:00130013
#00412:2424
#0041a:00240024
#02116:13
#02112:0013000023002300
#02117:0013
#0211b:2300230000130000
#0451b:00131300
#04512:13001313
#04516:0013000000000000
#04517:0000000000130000
#02018:13130000
#02015:1313
#02012:0013000000130000
#0201b:0000001300000000
#06813:00000000000000330000002300000000
#0681a:00000000003300000000230000000000
#06818:00232324
#06815:00000000000023000023000000000000
#06814:00000033000000000000000000240000
#06819:00330000000000000000000000002500
#06812:00002300000000000000000000000025
#0681b:23
#00452:3434
#0045a:00440044
#01252:3400003400001300
#0125a:00000044000000000000000000000000
#0125b:00000013
#01255:0053
#01258:0053
#0245b:4343
#02452:00330000
#02557:000000000000000000000000000000000000000000000000000000000000000000000000000000000000000000000000000000000000000000000000000000000000002600000000000000000000000000000000000000000000000000000000
#02553:000000000000000000000000000000000000002600000000000000000000000000000000000000000000000000000000000000000000000000000000000000000000000000000000000000000000000000000000000000000000000000000000
#02559:0000000000520000
#02555:0000000000000000000000000000000000000000000000000000000000000000000000000000000000520000000000000000000000000000000000000000000000000000000000000000000000000000000000000000000000000000000000000000000000000000000000000000000000000000000000000000000000000000000000000000000000000000000000000000000000000000000000000000000000000000000000000000000000000000000000000000000000000000000000000000000000000000000000000000000000000000000000000000000000000000000000000000000000000000000000000000000000000000000000000000000000000000000000000000000000000000000000000000000000000000000000000000000000000000000000000000000000000000000000000000000000000000
#0235b:0053
#02357:00000023
#02352:63
#02356:00230000
#02756:0000000000240024
#02752:0054
#0275a:00000064
#05052:0033
#0505b:0043
#0535c:0052
#05356:0052
#0535a:62
#05357:00000022000000000000000000000000
#05458:52
#05452:00620000
#0565c:00520000
#05656:62
#0605a:4444
#06052:00340000
#06952:0016000000000000
#06958:1600000000160000
#07052:0016000000000000
#0285a:0000004400000000
#02852:54340000
#02856:0024000000000000
#01756:53
#01757:00530000
#01852:00005353
#01855:63000063000000000000530000000000
#0185a:000000000023000000000000002300000000000000000000000000000000000000000000000000000000000000000000
#01858:53000053000000000000000000000000
#01853:000000000023000000000000002300000000000000000000000000000000000000000000000000000000000000000000
#0365a:4444
#03652:00340000
#05152:0053
#05155:0000000000230000
#0515b:00000063
#05158:0000000000000023
#05252:54340000
#05256:0024000000000000
#0525a:0000004400000000
#0225b:0000000000230000
#02258:0053
#04152:0000000062000053
#04158:0062
#04153:0000002300000000000000000000000000000000000000000000000000000000
#04157:0000000000000000002300000000000000000000000000000000000000000000
#0415c:0000000000220000
#04156:5300000000220000
#0415a:00000063000000000000000000000000
#05752:12
#0295b:13
#02958:00000053000000000000000000000000
#02952:0000000000230000
#02956:0063
#02955:53
#03055:0063000000000000
#0305b:53
#0335b:13000023000000000000000000000000
#03356:0063
#03352:5300000000230000
#03258:0053000000000000
#03252:63
#03155:00000063000000000000000000000000
#03157:0053
#0315b:0000000000230000
#03158:63
#03452:0033
#0345b:0043
#03758:00000053000000000000000000000000
#03756:0063
#03752:0000000000230000
#0375b:13
#03955:00000063000000000000000000000000
#03957:0053
#0395b:0000000000230000
#04256:63631300
#04252:0063006300000000
#04257:0063006300000000
#0425b:63631300
#04652:0000000000230000
#04655:0063
#05552:0062
#05558:0062
#05554:52
#05557:00000022000000000000000000000000
#0615b:00000053000000000000000000000000
#06157:0063
#06152:0063
#06155:53
#06558:0053
#0655b:0000000000230000
#06552:00000023000000000000000000000000
#06555:53
#0665a:0044
#06255:0023000000000000
#06258:0000002300000000
#0625b:00534300
#06252:63
#06352:00000063000000000000000000000000
#06356:0053
#06358:63
#0635b:0053
#06757:5400000000230000
#0675a:0024000000000000
#0675b:0063
#06752:0000540000000023
#06755:0000002400000000
#06756:00000063
#07152:0016000000000000
#07158:0000000000160000
#07358:0016000000000000
#07352:0000000000160000
#07458:0016000000000000
#07652:3600003600001300
#07658:00000046000000005300000000000000
#07655:0053
#0765b:00000013
#0455b:4363
#04552:53
#04556:0023000000000000
#04557:0000000000230000
#04955:0000000000520000
#04953:000000000000000000000000000000000000000000000000000000000000000000000000000000000000000000000000000000000000000000000000000000000000002600000000000000000000000000000000000000000000000000000000
#04959:0000000000000000000000000000000000000000000000000000000000000000000000000000000000520000000000000000000000000000000000000000000000000000000000000000000000000000000000000000000000000000000000000000000000000000000000000000000000000000000000000000000000000000000000000000000000000000000000000000000000000000000000000000000000000000000000000000000000000000000000000000000000000000000000000000000000000000000000000000000000000000000000000000000000000000000000000000000000000000000000000000000000000000000000000000000000000000000000000000000000000000000000000000000000000000000000000000000000000000000000000000000000000000000000000000000000000000
#04957:000000000000000000000000000000000000002600000000000000000000000000000000000000000000000000000000000000000000000000000000000000000000000000000000000000000000000000000000000000000000000000000000
#0485b:00430000
#04852:3333
#04752:0063
#04756:00000023
#0475b:53
#04757:00230000
#06452:23
#02156:63
#02152:0023000000000000
#02157:0053
#0215b:0000000000230000
#02058:13531300
#02055:53135313
#02052:0023000000230000
#0205b:0000002300000000
#0265b:0043
#02652:0033
#06855:0000005300000000
#06858:00530000
#0685b:53
#06852:0053000000000000
#00253:0034
#00252:00000034
#0025a:00000044
#00259:0044
#0013b0:00000013000023000000000000000000
#001361:00000013000000000000000000000000
#001321:0000002300000000
#001321:00000000000000000000001300002300
#001370:00000000000000000000001300000000
#0013b0:0000000000000023
#0023b0:00000013000023000000000000000000
#002361:00000013000000000000000000000000
#002321:0000002300000000
#0033b1:00000013000000000000000000000000
#003371:0000002300000000
#003320:00000013000023000000000000000000
#003320:00000000000000000000001300000000
#003360:0000000000000023
#0033b1:00000000000000000000001300002300
#0063b1:0000000000130000
#0063a1:000033
#006391:000000000000000000000000000000000033000000000000
#006371:00000023
#010321:0000000000130000
#010331:000033
#010341:000000000000000000000000000000000033000000000000
#010361:00000023
#012351:0013
#012321:00000023
#012380:0013
#0123b0:00000023
#013360:13
#013320:00230000
#013371:00130000
#0133b1:0023
#014371:13
#0143b1:00230000
#014360:00130000
#014320:0023
#015370:13
#015320:00230000
#015361:00130000
#0153b1:0023
#015350:0013
#015320:0000000000230000
#0153b0:00000013
#015380:0000000000000023
#016320:1424000000000000
#0163a0:0000142400000000
#017360:13
#017320:00230000
#017371:00130000
#0173b1:0023
#018381:13000033000023000000000000000000
#0183a1:000000000053000000000000005300000000000000000000000000000000000000000000000000000000000000000000
#018350:13000033000023000000000000000000
#018330:000000000053000000000000005300000000000000000000000000000000000000000000000000000000000000000000
#018320:00001353
#018350:0000000000530023
#019370:13
#0193b0:00230000
#019361:00130000
#019321:0023
#019380:00001353
#0193b0:0000000000530023
#020350:13230000
#020320:0053000000000000
#020381:00132300
#0203b1:0000005300000000
#020350:00001323
#020320:0000000000530000
#021360:13230000
#021320:0053000000000000
#021370:00001323
#0213b0:0000000000530000
#022350:13
#022320:0023000000000000
#022380:00130000
#0223b0:0000002300000000
#022351:0000001300000000
#022321:0023
#022380:00001323
#0223b0:0000000000530000
#023320:1323
#023360:00530000
#0233b1:0013
#023371:00000053
#0243b1:23
#025351:120000000000000000000000000000000000000000000000000000000000000000000000000000000000000000000000000000000000000000000000000000000000000000000000000000000000000000000000000000000000000000000000000000000000000000000000000000000000000000000000000000520000000000000000000000000000000000000000000000000000000000000000000000000000000000000000000000000000000000000000000000000000000000000000000000000000000000000000000000000000000000000000000000000000000000000000000000000000000000000022000000000000000000000000000000000000000000000000000000000000000000000000000000000000000000000000000000000000000000000000000000000000000000000000000000000000000000000000000000000000000000000000000000000000000000000000000000000000000000000000000000000000000000000000000000000000000000000000000000000000000000000000000000000000000000000000000000000000000000000000000000000000000000000000000000000000000000000000000000000000000000000000000000000000000000000000000000000000000000000000000000000000000000000000000000000000000000000000000000000000000000000000000000000000000000000000000000000000000000000000000000000000000000000000000000000000000000000000000000000000000000000000000000000000000000000000000000000000000000000000000000000000000000000000000000000000000000000000000000000000000000000000000000000000000000000000000000000000000000000000000000000000000000000000000000000000000000000000000000000000000000000000000000000000000000000000000000000000000000000000000000000000000000000000000000000000000000000000000000000000000000000000000000000000000000000000000000000000000000000000000000000000000000000000000000000000000000000000000000000000000000000000000000000000000000000000000000000000000000000000000000000000000000000000000000000000000000000000000000000000000000000000000000000000000000000000000000000000000000000000000000000000000000000000000000000000000000000000000000000000000000000000000000000000000000000000000000000000000000000000
#025321:0058000000000000
#025331:000000000000000000000000000000000000000000000000000000000000000000000000000000000000000000000000000000000000000000000000000000000000000000560000000000005600000000000000000000000000000000000000000000000000000000000000000000000000000000000000000000000000000000000000000000000000000000000000000000000000000000000000000000000000000000000000000000000000000000000000000000000000000000000000000000000000000000000000000000000000000000000000000000000000000000000000000000000000000000000000000000000000000000000000000000000000000000000000000000000000000000000000000000000000000000000000000000000000000000000000000000000000000000000000000000000000000000000000000000000000000000000000000000000000000000000000000000000000000000000000000000000000000000000000000000000000000000000000
#025361:0018
#025391:0000000000522200
#025371:000000000000000000000000000000000000000000000000000000000000000000000000000000000000000000000000000000000000000000000000000000000000000000000000000000000000000000000000000000000000000000000000000000000000000000000000000000000000000000000000000000000000000000000000000000000000000000000000000000000000000000000000000000000000000000000000000000000000000000000000000000000000000000000000000000000000000000000000000000000000000000000000000000000000000000000000000000000000000000000000000000000000000000000000000000000000000000560000000000005600000000000000000000000000000000000000000000000000000000000000000000000000000000000000000000000000000000000000000000000000000000000000000000000000000000000000000000000000000000000000000000000000000000000000000000000000000000000000
#0263b1:00130000
#026381:0000002300000000
#026350:0000001300000000
#026320:0023
#027320:00001424
#027360:0000000000540000
#0273a1:00000014
#027361:0000000000000054
#0283a1:24
#028320:14240000
#028360:0054000000000000
#029350:13
#029320:00000023000000000000000000000000
#029381:00000013000000000000000000000000
#0293b1:0000002300000000
#029361:00001323
#029321:0000000000530000
#0303b1:13
#030381:0023000000000000
#030350:0013000000000000
#030320:00230000
#031380:13
#0313b0:00000023000000000000000000000000
#031351:00000013000000000000000000000000
#031321:0000002300000000
#031371:00001323
#0313b1:0000000000530000
#032321:13
#032351:0023000000000000
#032380:0013000000000000
#0323b0:00230000
#033320:13
#033360:00000023000000000000000000000000
#0333b1:00000013000000000000000000000000
#033371:0000002300000000
#033361:00001323
#033321:0000000000530000
#0343b1:13230000
#034381:0033000000000000
#034320:00132300
#034350:0000003300000000
#037380:00000013000000000000000000000000
#0373b0:0000002300000000
#037360:00001323
#037320:0000000000530000
#038380:00130000
#0383b0:0000002300000000
#038351:0000001300000000
#038321:0023
#039351:00000013000000000000000000000000
#039321:0000002300000000
#039371:00001323
#0393b1:0000000000530000
#040351:00130000
#040321:0000002300000000
#040380:0000001300000000
#0403b0:0023
#041360:13000023000000000000000000000000
#041330:0000005300000000000000000000000000000000000000000000000000000000
#0413a1:00000013000023000000000000000000
#041371:0000000000000000005300000000000000000000000000000000000000000000
#041321:00001222
#041361:0000000000520000
#041380:00001222
#0413c0:0000000000520000
#041320:0000000000000013
#042360:33332300
#042320:0033003300000000
#0423b1:13332300
#042371:0033003300000000
#044321:0013
#044351:00000023
#044380:00000013
#0453b0:23
#045321:13230000
#045361:0053000000000000
#0453b1:00001323
#045371:0000000000530000
#046381:13
#0463b1:0023000000000000
#046351:00130000
#046321:0000002300000000
#046380:0000001300000000
#0463b0:0023
#046351:00001323
#046321:0000000000530000
#0473b1:1323
#047371:00530000
#047320:0013
#047360:00000053
#048320:23
#049390:120000000000000000000000000000000000000000000000000000000000000000000000000000000000000000000000000000000000000000000000000000000000000000000000000000000000000000000000000000000000000000000000000000000000000000000000000000000000000000000000000000520000000000000000000000000000000000000000000000000000000000000000000000000000000000000000000000000000000000000000000000000000000000000000000000000000000000000000000000000000000000000000000000000000000000000000000000000000000000000022000000000000000000000000000000000000000000000000000000000000000000000000000000000000000000000000000000000000000000000000000000000000000000000000000000000000000000000000000000000000000000000000000000000000000000000000000000000000000000000000000000000000000000000000000000000000000000000000000000000000000000000000000000000000000000000000000000000000000000000000000000000000000000000000000000000000000000000000000000000000000000000000000000000000000000000000000000000000000000000000000000000000000000000000000000000000000000000000000000000000000000000000000000000000000000000000000000000000000000000000000000000000000000000000000000000000000000000000000000000000000000000000000000000000000000000000000000000000000000000000000000000000000000000000000000000000000000000000000000000000000000000000000000000000000000000000000000000000000000000000000000000000000000000000000000000000000000000000000000000000000000000000000000000000000000000000000000000000000000000000000000000000000000000000000000000000000000000000000000000000000000000000000000000000000000000000000000000000000000000000000000000000000000000000000000000000000000000000000000000000000000000000000000000000000000000000000000000000000000000000000000000000000000000000000000000000000000000000000000000000000000000000000000000000000000000000000000000000000000000000000000000000000000000000000000000000000000000000000000000000000000000000000000000000000000000000000000000000000000000000
#049360:0058000000000000
#049370:000000000000000000000000000000000000000000000000000000000000000000000000000000000000000000000000000000000000000000000000000000000000000000560000000000005600000000000000000000000000000000000000000000000000000000000000000000000000000000000000000000000000000000000000000000000000000000000000000000000000000000000000000000000000000000000000000000000000000000000000000000000000000000000000000000000000000000000000000000000000000000000000000000000000000000000000000000000000000000000000000000000000000000000000000000000000000000000000000000000000000000000000000000000000000000000000000000000000000000000000000000000000000000000000000000000000000000000000000000000000000000000000000000000000000000000000000000000000000000000000000000000000000000000000000000000000000000000000
#049320:0018
#049350:0000000000522200
#049330:000000000000000000000000000000000000000000000000000000000000000000000000000000000000000000000000000000000000000000000000000000000000000000000000000000000000000000000000000000000000000000000000000000000000000000000000000000000000000000000000000000000000000000000000000000000000000000000000000000000000000000000000000000000000000000000000000000000000000000000000000000000000000000000000000000000000000000000000000000000000000000000000000000000000000000000000000000000000000000000000000000000000000000000000000000000000000000560000000000005600000000000000000000000000000000000000000000000000000000000000000000000000000000000000000000000000000000000000000000000000000000000000000000000000000000000000000000000000000000000000000000000000000000000000000000000000000000000000
#050320:00132300
#050350:0000003300000000
#0503b1:00132300
#050381:0000003300000000
#051321:00001323
#051351:0000000000530000
#0513b0:00000013
#051380:0000000000000053
#0523b0:23
#052321:14240000
#052361:0054000000000000
#0533a1:1200002200000000
#053371:00000032000000000000000000000000
#0533c1:0012
#053381:00000022
#053360:0012
#053320:00000022
#054380:12
#0543a0:0032000000000000
#0543c0:00220000
#054321:00120000
#054341:0000003200000000
#054361:0022
#055341:1200002200000000
#055371:00000032000000000000000000000000
#055321:0012
#055361:00000022
#055380:0012
#0553c0:00000022
#056360:12
#056340:0032000000000000
#056320:00220000
#0563c1:00120000
#0563a1:0000003200000000
#056381:0022
#0593c1:12
#0593b1:00320000000000000000000000000000
#0593a1:0032000000000000
#059391:00000032000000000000000000000000
#059381:00220000
#059360:00120000
#059350:00000000003200000000000000000000
#059340:0000003200000000
#059330:00000000000000320000000000000000
#059320:0022
#0593c1:0012
#0593b1:00000000000000000032000000000000
#0593a1:0000000000320000
#059391:00000000000000000000003200000000
#059381:00000022
#059360:00000012
#059350:00000000000000000000000000320000
#059340:0000000000000032
#059330:00000000000000000000000000000032
#060320:22
#061350:13
#061320:00000023000000000000000000000000
#0613b1:00000013000000000000000000000000
#061381:0000002300000000
#061371:0013
#0613b1:00000023
#061320:0013
#061360:00000023
#062320:13230000
#062350:0053000000000000
#0623b1:00132300
#062381:0000005300000000
#063381:13
#0633b1:00000023000000000000000000000000
#063320:00000013000000000000000000000000
#063350:0000002300000000
#063360:0013
#063320:00000023
#0633b1:0013
#063371:00000023
#064321:130000333333000000000000000000000000000000000000
#064351:00230000
#065351:1300002300000000
#065321:00000053000000000000000000000000
#065381:00001323
#0653b1:0000000000530000
#067371:14240000
#067391:00340034000000000000000000000000
#0673a1:0034000000000000
#067320:00142400
#067340:00000000003400340000000000000000
#067350:0000003400000000
#0673b1:00001323
#067391:00000000000000000033003300000000
#067371:0000000000330000
#067360:00000013
#067340:00000000000000000000000000330033
#067320:0000000000000033
#068360:23
#0683b1:13
#068391:00330000000000000000000000000000
#068381:0023000000000000
#068320:0013000000000000
#068340:00000033000000000000000000000000
#068350:00230000
#068381:00130000
#0683a1:00000000003300000000000000000000
#0683b1:0000002300000000
#068350:0000001300000000
#068330:00000000000000330000000000000000
#068320:0023
#070320:0000000000130000
#070330:000033
#070340:000000000000000000000000000000000033000000000000
#070360:00000023
#073360:00130000
#073350:00000000003300000000000000000000
#073340:0000003300000000
#073330:00000000000000330000000000000000
#073320:0023
#073370:00000013
#073380:00000000000000000000000000330000
#073390:0000000000000033
#0733a0:00000000000000000000000000000033
#0743b0:23
#074360:00130000
#074350:00000000003300000000000000000000
#074340:0000003300000000
#074330:00000000000000330000000000000000
#074320:0023
#0743b0:0000000000130000
#0743a0:000033
#074390:000000000000000000000000000000000033000000000000
#074370:00000023
#076350:0013
#076320:0000000000000000000000000000000000333333333333332300000000000000
#076381:0013
#0763b1:0000000000000000000000000000000000333333333333332300000000000000
#077321:0016
#077361:00000022
#077380:00001622
