This file was generated by Ched 2.7.0.0.
#TITLE ""
#ARTIST ""
#DESIGNER ""
#DIFFICULTY 0
#PLAYLEVEL
#SONGID ""
#WAVE ""
#WAVEOFFSET 0
#JACKET ""
#REQUEST "ticks_per_beat 480"
#00002: 4
#BPM01: 154
#00008: 01
#TIL00: ""
#HISPEED 00
#MEASUREHS 00
#0011b:13
#00112:0013
#00115:13
#00118:0013
#00215:13
#0021b:13
#00212:0024
#0021a:00000024
#0111a:0033003300000014
#01112:0000000000140000
#01116:00000014
#01117:00130000
#0111b:13330000000000330000000000000000
#01119:00000033003300000000000000000000
#01312:0000000000000013
#01315:0000000000130000
#0131b:00000013
#01318:0013
#02412:00140000
#0241a:1414
#02414:1414
#02418:00140000
#02618:0013130000000013
#02615:00000013000000000000000013000000
#0261b:1300001313000000
#02612:1300001313000000
#0601a:1414
#06012:00140000
#06015:00000013
#06018:0000140000000013
#06014:1414
#00312:13
#00315:0013
#0031b:0013
#00318:13
#00812:2400000000000014
#00814:0024000000000000
#00816:00240000
#00818:0000002400000000
#0051a:0014000024000000
#00512:2400000000140000
#00515:00000000130013000000000000130000
#00518:00000000001300000000000013001300
#00510:41
#0071a:0014000024000000
#00712:2400000000140000
#00715:00000000130013000000000000130000
#00718:00000000001300000000000013001300
#0141b:0000000000000013
#01418:0000000000130000
#01412:00000013
#01415:0013
#01512:0000000000000013
#01515:0000000000130000
#01518:00000013
#0151b:0013
#01510:41
#02816:00000014000000000000000000000000
#02812:14
#02815:00000013
#02818:0000000000000013
#01214:0013
#01219:0013
#01212:2600002600000000
#01218:00000026000000000000000000000000
#0571c:12
#05712:00120000
#05714:0012
#05716:00000012
#06612:0013001300001400
#06616:0000000000000014
#06615:13130000
#06618:13130000
#0661b:0013001300000000
#0661a:00000014
#01714:13
#01716:00000014
#01712:0000130000000014
#0171a:0000000000140000
#03612:00140000
#0361a:14
#03619:0014
#03618:00000013
#03615:0000000000000013
#03613:0014
#02716:0000000000140000
#0271a:2424002414000000
#02712:2424002400000000
#02912:0000000013000016
#02918:0013
#02915:2300001300000000
#0291b:23
#0531b:13
#05317:0013
#0531f:11
#0771a:14000014000014000000000000000000
#07712:14000014000014001500000000000000
#07719:0015
#0091a:00000000001300000000000013001300
#00913:00000000130013000000000000130000
#00916:2414000024140000
#01013:0000131300000000
#0101a:00000000001300000000140000000000
#01016:2414000024001400
#01012:0000000000000014
#0061a:0014000024000000
#00618:00000000001300000000140000000000
#00616:00000014
#00614:0000000000000014
#00615:0000131300000000
#00612:24
#07219:0000000000000014
#07213:0000000000000014
#07212:0026000000000000
#07215:00260000
#07218:2600002600000000
#06912:0016000026000013
#06918:00000000130000000000160000130000
#06915:00000000001300000000000013000000
#0691b:0000001300000000
#07112:0016000026001300
#07118:26000000000013000000160000130000
#0711b:00130000
#07115:00000000001300000000000000001300
#07318:00001600001300002600000013000000
#07312:2600001300160000
#07315:00000000130000000000000000130000
#0731b:0000000000000013
#07418:00001600001300002600000000000000
#07415:00130000
#07412:2600001300000000
#07413:0000000000000014
#07419:0000000000000014
#07414:000000000000000000000000000000003434000000000000
#07012:0016000026000016
#07018:2600130000160000
#07015:00000000001300000000000016000000
#0701b:0000001300000000
#02117:13131300
#0211a:0013001300000000
#01819:13
#01816:00000014
#0181a:0000000000000014
#01812:0000000000140000
#0181b:00130000
#01916:00000014
#01912:0000000000000014
#0191a:0000000000140000
#0201c:12
#02015:00120000
#02019:0012
#02012:00000012
#02318:1313
#02312:1313
#02315:00130000
#0231b:00130000
#03015:1600002600000013
#03018:0016000026001300
#03012:00260000
#0311b:0013
#03112:13
#03115:0013
#03118:1300001300000016
#03215:1600002600001300
#03212:0016000026000000
#03218:0000260000000013
#03319:0013
#0331b:2300001300000000
#03314:0013
#03312:2300001300000000
#03315:00000000000000000013000000001300
#03318:00000000000000000013000000000000
#03310:41
#04218:0013001300001300
#04212:0013001300000013
#04215:13130000
#0421b:13130000
#0371b:0013
#03718:2300001300130000
#03715:0013
#03712:2300000000130014
#03816:1400002400000000
#03812:0014000000000000
#03815:00000013
#03818:0000000000000013
#0381a:00242400
#04118:0000000000130013
#04112:1300001313000013
#04115:0000000000130000
#0411b:1300001313000000
#04018:00000013
#04015:0000000000000013
#04016:1400002400000000
#0401a:0014000000000000
#04012:00242400
#03912:0013
#0391b:1300000000130000
#03915:1300001300130000
#03918:0013
#0391a:0000000000000014
#04414:00000016
#04418:26262600
#04412:0026002600000000
#04617:13131300
#0461a:0013001300000000
#05418:00120000
#05414:0012
#0541c:0012
#05512:13
#05516:0013
#05616:00120000
#0561a:0012
#05612:0012
#05818:12
#0581a:00120012
#0581c:0012
#05814:00000012
#06112:0000000014000014
#0611a:2400001400000000
#06117:0014
#06115:2400001400000000
#0611f:21
#0621a:00141400
#06212:0014000000000000
#06216:1400001400000000
#06218:00000013
#06215:0000000000000013
#06210:41
#0631a:0014
#06312:1400001400000000
#06315:0014
#06317:1400001400000000
#06814:00000016
#06818:26262600
#06812:0026002600000000
#06817:00000000000000000036000000000036
#06816:0000000000360036
#06815:00000000000000000000003600360000
#07612:2600002615000000
#07619:0015
#07618:00000026000000000000000000000000
#02216:13131300
#02213:0013001300000000
#0481a:00140000
#04812:1414
#04818:1414
#04814:00140000
#05015:0013130000001300
#05018:00000013000000000000000000001300
#05012:1300001313000000
#0501b:1300001313000000
#05216:00000014000000000000000000000000
#0521a:14
#05116:0000000000140000
#05112:2424002414000000
#0511a:2424002400000000
#04715:1313
#0471b:1313
#04718:00130000
#04712:00130000
#0451b:00130000
#04516:00130000
#04519:0013
#04514:0013
#04512:00000013
#04517:00000013
#06512:2300000013000013
#06518:0000000000130000
#06514:0000001300000000
#06515:0000000000130000
#06519:0000001300000000
#0651b:2300000013000013
#06418:00000013
#06415:0000000000000013
#06419:0024
#06413:0024
#06412:000000343334000000240000000000000000000000000000
#06412:003400000000
#0641a:0000002400000000
#03418:00000013
#03415:0000000000000013
#03413:0013
#0341a:0013
#07517:00130000
#0751b:13330000000000330000000000000000
#07512:0000000000260000
#07515:00000026
#07518:0000000000000026
#0751a:0033003300000000
#07519:00000033003300000000000000000000
#00413:24
#00419:00240000
#00412:0024
#0041a:00000024
#01619:00000024
#01613:00000024
#01612:0024
#0161a:0024
#02516:23
#0251b:23
#02517:0023
#02512:0023
#02510:41
#04318:00230023
#0431a:2424
#04315:2323
#04312:00240024
#04310:41
#04917:23
#04912:23
#04916:0023
#0491b:0023
#03512:2323
#0351b:2323
#01252:00000013
#0125b:00000013
#01254:0053
#01259:0053
#01754:53
#01752:00230000
#02852:5400003400000000
#02856:00000024000000000000000000000000
#02756:0000000000240000
#0275a:0064
#0575c:12
#02952:0063
#02958:0053
#02955:53
#0295b:53
#0535b:63
#05357:0023
#00453:14
#00459:00140000
#00452:0014
#0045a:00000014
#01157:00230000
#0115b:63
#02157:53535300
#0215a:0023002300000000
#01859:63
#0185b:00230000
#0205c:12
#02055:00120000
#02059:0012
#02052:00000012
#02358:6363
#02352:6363
#0235b:00530000
#02355:00530000
#02556:63
#02557:0063
#02552:0023
#0255b:23
#0315b:0053
#03152:53
#03155:0063
#03158:53
#0375b:0053
#03755:0063
#03752:5300000000230000
#03758:5300000000230000
#04158:0000000000230053
#04152:5300000053000053
#04155:0000000000230000
#0415b:5353
#0425b:53531300
#04255:53531300
#04252:0053005300000000
#04258:0053005300000000
#03952:0063
#0395b:6300000000230000
#03958:0053
#03955:6300000000230000
#04458:0056
#04454:00000026
#04558:46
#04657:53535300
#0465a:0023002300000000
#05552:53
#05556:0023
#06152:0064
#06157:0054
#06155:54
#0615a:54
#0625a:0014
#0635a:0054
#06352:54
#06355:0064
#06357:54
#06854:00000026
#06858:0056
#06958:46
#07652:1600001665001300
#07659:0065
#07658:00000016000000000000000000000000
#0765b:00000013
#07759:0055
#07752:0055
#02256:63636300
#02253:0023002300000000
#05256:00000024000000000000000000000000
#0525a:6400004400000000
#05156:0000000000240000
#05152:0054
#04755:5353
#0475b:5353
#04758:00630000
#04752:00630000
#04957:53
#04952:23
#04956:0053
#0495b:0023
#06552:5300000053000053
#06558:0000000000230000
#06555:0000000000230000
#0655b:5300000053000063
#06655:53531300
#06652:0053005300000000
#06658:63631300
#0665b:0063006300000000
#07557:00230000
#0755b:63
#06054:1414
#06052:00140000
#0605a:1414
#06058:00140000
#04852:1414
#04858:1414
#04854:00140000
#0485a:00140000
#0365a:14
#03652:00140000
#03355:00000000000000000023000000000000
#03358:00000000000000000023000000000000
#03359:0053
#03354:0053
#03352:53
#0335b:53
#0245a:1414
#02454:1414
#02452:00140000
#02458:00140000
#0025a:00000014
#00252:0014
#0013b0:00000013000023000000000000000000
#001351:00000013000023000000000000000000
#001321:00000000000000000000001300002300
#001380:00000000000000000000001300002300
#0023b0:00000013000023000000000000000000
#002351:00000013000023000000000000000000
#003381:00000013000023000000000000000000
#003320:00000013000023000000000000000000
#003350:00000000000000000000001300002300
#0033b1:00000000000000000000001300002300
#0083a1:0014
#008391:00000000000000000034000000000000
#008381:0000000000340000
#008371:00000000000000000000003400000000
#008361:00000024
#0113b1:13330000000000332300000000000000
#0113a1:0033003300000000
#011391:00000033003300000000000000000000
#011371:00330000
#012341:0013
#012321:00000023
#012390:0013
#0123b0:00000023
#013360:13
#013320:00230000
#014370:13
#0143b0:00230000
#015320:13
#015360:00230000
#0163b0:13
#016370:00230000
#017340:13
#017320:00330000
#017360:0023
#018390:13
#0183b0:00330000
#018370:0023
#019340:13
#019320:0053005300000000
#019350:00330000
#019360:0023
#021370:13333300
#0213a0:0053005300000000
#0213b0:00000023
#022360:13333300
#022330:0053005300000000
#022320:00000023
#023380:1333
#0233b0:00330023
#023321:1333
#023351:00330023
#025361:13
#025321:00230000
#0253b0:13
#025370:00230000
#025370:0013
#0253b0:00000023
#025321:0013
#025361:00000023
#0273a1:00001424
#027361:0000000000540000
#028321:1400002400000000
#028361:00000054000000000000000000000000
#0293b1:13
#029381:00000023000000000000000000000000
#029350:13
#029320:00000023000000000000000000000000
#029380:0013
#0293b0:00000023
#029321:0013
#029351:00000023
#031321:13
#031351:00000023000000000000000000000000
#031380:13
#0313b0:00000023000000000000000000000000
#031350:0013
#031320:00000023
#0313b1:0013
#031381:00000023
#0333b1:13
#033381:00000023000000000000000000000000
#033320:13
#033350:00000023000000000000000000000000
#033340:0013
#033350:00000000000000000053000000000000
#033320:00000023
#033391:0013
#033381:00000000000000000053000000000000
#0333b1:00000023
#034381:13
#0343b1:0023000000000000
#034351:00130000
#034321:0000002300000000
#035321:13
#035361:00230000
#0353b0:13230000
#0353b0:0013
#035370:00000023
#035321:00001323
#037321:13
#037351:00000023000000000000000000000000
#037380:13
#0373b0:00000023000000000000000000000000
#037350:00001323
#037320:0000000000530000
#0373b1:00001323
#037381:0000000000530000
#0393b1:13
#039381:00000023000000000000000000000000
#039350:13
#039320:00000023000000000000000000000000
#039380:00001323
#0393b0:0000000000530000
#039321:00001323
#039351:0000000000530000
#041321:13
#041351:00000023000000000000000000000000
#0413b0:13
#041380:00000023000000000000000000000000
#041320:00001323
#041350:0000000000530000
#0413b1:00001323
#041381:0000000000530000
#041381:0000000000000013
#0423b1:33332300
#042381:0033003300000000
#041320:0000000000000013
#042350:33332300
#042320:0033003300000000
#044380:0016
#044340:00000056
#045380:26
#046370:13333300
#0463a0:0053005300000000
#0463b0:00000023
#047350:1333
#047320:00330023
#0473b1:1333
#047381:00330023
#049371:13
#0493b1:00230000
#049320:13
#049360:00230000
#049360:0013
#049320:00000023
#0493b1:0013
#049371:00000023
#051321:00001424
#051361:0000000000540000
#0523a1:1400002400000000
#052361:00000054000000000000000000000000
#0533b1:13
#053371:0033
#0543b1:23
#055321:13
#055361:0033
#056321:23
#059321:13
#059361:00230000
#0593b1:0013
#059371:00000023
#0613a1:14
#061371:00000024000000000000000000000000
#061350:14
#061320:00000024000000000000000000000000
#061370:0014
#0613a0:00000024
#061321:0014
#061351:00000024
#063321:14
#063351:00000024000000000000000000000000
#063370:14
#0633a0:00000024000000000000000000000000
#063350:0014
#063320:00000024
#0633a1:0014
#063371:00000024
#064321:140000343434000000000000000000000000000000000000
#064351:00240000
#065321:13
#065351:00000023000000000000000000000000
#0653b0:13
#065380:00000023000000000000000000000000
#065320:00001323
#065350:0000000000530000
#0653b1:00001323
#065381:0000000000530000
#065321:0000000000000013
#066351:33332300
#066321:0033003300000000
#0653b0:0000000000000013
#066380:33332300
#0663b0:0033003300000000
#0673a0:1424000000000000
#067340:0000142400000000
#067380:0000000014240000
#067320:0000000000001424
#068380:0016
#068370:00000000000000000036000000000036
#068360:0000000000360036
#068350:00000000000000000000003600360000
#068340:00000036
#069380:26
#0723b0:0013
#0723a0:00000000000000000033000000000000
#072390:0000000000330000
#072380:00000000000000000000003300000000
#072370:00000023
#074340:000000000000000000000000000000143434000000000000
#074360:00000024
#0753b0:13330000000000332300000000000000
#0753a0:0033003300000000
#075390:00000033003300000000000000000000
#075370:00330000
#076320:00001523
#076391:0015
#0763b1:00000023
#077321:0015
#077351:00000023
#077390:0015
#077380:00000023
