This file was generated by Ched 2.7.0.0.
#TITLE ""
#ARTIST ""
#DESIGNER ""
#DIFFICULTY 0
#PLAYLEVEL
#SONGID ""
#WAVE ""
#WAVEOFFSET 0
#JACKET ""
#REQUEST "ticks_per_beat 480"
#00002: 4
#BPM01: 154
#00008: 01
#TIL00: ""
#HISPEED 00
#MEASUREHS 00
#00117:13000013000000000000000000000000
#00116:00000000000000001300001300000000
#00112:1300001300000000
#0011b:0000000013000013
#00119:0000000000120000
#00115:0012000000000000
#00212:1300001328002300
#00217:13000013000000000000000000000000
#00215:0012000000000000
#00214:0000000000180018
#00216:00000028
#0021b:0023
#01112:00160000001600120000130000001300
#01118:1600161200000000
#0111c:0012000000000000
#01116:00000012000000001300000000000000
#0111b:00001313
#01117:0000000000130014
#01115:00000014
#01318:0013
#01312:00000000000000130000000013000000
#0131b:2300000000000013
#01315:00000000000013000016000000000000
#01316:0000130000000013
#01317:13
#01319:0013000000000000
#0201c:1212
#02012:00120012
#02014:00001818000000000000000000000000
#02015:00000000000016160000000000000000
#02016:00000000000000000000141400000000
#02017:00000000000000000000000000001212
#02217:00001313000000001300000000000000
#02212:00000013
#0221b:1300000000130000
#02215:0000000000130013
#02218:00000000000000000000000000000013
#0241a:1414
#02412:13141313
#02418:00130000000000130000000000000013
#02415:00001300000013000000131600001600
#0241b:00000013001300000000000000130000
#0261b:13130013
#02615:0016000000160016
#02612:13130013
#02618:00130013000012000000000000000000
#02616:0000001200000000
#0271a:2400001424001400
#02716:1414140000000000
#02717:0000000000140000
#02712:0024002414000000
#02715:0000000000000014
#03412:000000001a3836340000000013000000
#03414:1a12000000000013
#0341b:00000013
#03419:0000000000000013
#0341a:00000034000012000000000000000000
#03418:0036000016000000
#03416:00380000000000000000140000000000
#03513:0017000000000000
#03515:00000017000000000000000000000000
#03516:0000001500140000
#03514:00000000000000150000000000000000
#03518:00000000000000000000001400000000
#03517:0000270000000012
#03512:29232523
#0351b:0023
#0351a:00000024
#0351c:22
#04215:00000012
#0421b:0000130013000013
#04219:00000012
#04212:1300001300000013
#04217:13
#04216:00001300000000120000000000000000
#04218:00000000001200000000000000000000
#04312:16261626
#04318:26001300160000132600130016000000
#04315:00000013000013000000001300000000
#04314:0000000000000013
#04319:0000000000000013
#04310:41
#04518:00130000
#04515:0013
#04512:0000001500001315
#04516:0013000000130000
#04519:0015000000150000
#04517:0000001300000013
#05218:00120012
#05215:0000000000000012
#05216:0000001200000000
#0521a:0000001400000012
#05212:14
#05217:0014000000000000
#0591b:13
#05912:00130000
#05919:00000000000000001300003200001200
#05914:00000013
#05918:0012000000000000
#05917:0000001200120000
#05915:00000000000000320000000000000012
#0591a:00000032000000000000000000000000
#06018:16001300260000131600000000000013
#06012:26162613
#06015:00000013000013000000131600001600
#0601b:00000000000000000000000000130000
#00316:13000013000000000000000000000000
#00312:0017000013000013
#00317:00000000000000001300171300000000
#0031b:1300001300000000
#00416:00001400000014000000140000141414
#00412:26232626
#00418:00262626
#0041b:23
#0101c:00000012
#01019:000012
#01016:000000000000000000000000000000000012000000000000
#01013:0000000000120000
#01018:2616001326000012
#0101b:00130000
#01012:26001600000000002600000000000012
#00918:2616001326160000
#00912:2616000026161300
#00915:0000000000000013
#0091b:00130000
#01412:1300000000000013
#01415:00000000000000001316000000000000
#0141b:00000000000000130000000013000000
#01417:0000130000000013
#01416:13
#01414:0013000000000000
#01418:0000001300000000
#0151b:1300000000130013
#01513:00000000000000181318000000000000
#01512:00130013
#01516:0000131300130013
#01517:1313000000000000
#01510:41
#01212:26000013000026000000000000000000
#0121b:1300001300000000
#01215:0013000013000000
#01218:00000026001300001300000000000000
#01918:00000013000013000000000000000000
#0191b:00130000
#01915:00001300000000130000000000000000
#01912:13
#01917:13
#01916:00130000
#02119:0013000023000000
#02117:0000261300000000
#02115:2600000000132600
#02113:0000000026000013
#0211b:23
#02114:00230000
#02112:00000023
#02312:00000013000000001300000013000000
#02315:0000000000130000
#0231b:13000000130000000000001300000000
#02318:0013000000000000
#02317:0013
#02316:13
#02815:0000001400000000
#02817:0014140000001200
#0281a:0000001400000000
#02812:14000012
#02819:0000000000000013
#02814:0000000000000013
#02515:0000001300120000
#02513:0000000000000000000000000000000012000000000000000000000000000000000000000000000000000000000000000000000000000000000000000000000000000000000000000000000000000000000000000000000000160000000000000000000000000000000000000000000013000000000000000000000000000000
#02519:2200000000000000000000000000000000000000000000000000000000000000000000000000000000120000000000000000000000000000000000000000000000000000000000000000000000000000000000000000000000000000000000000000000000000000000000000000000000000000000000000000000000000000000000000000000000000000000000000000000000000000000000000000000000000000000000000000000000000000000000000000000000000000000000000000000000000000000000000000000000000000000000000000000000000000000000000000000000000000000000000000000000000000000000000000000000000000000000000000000000000000000000000000000000000000000000000000000000000000000000000000000000000000000000000000000000000000
#02517:0000000000000000000000000000000000000000000000000016000000000000000000000000000000000000000000000000000000000000000000000000000000000000000000000000000000000000000000000000000000000000000000000000000000000000000000000000000000000000000000000000000000000000
#0251c:0012
#02518:0000000000000013
#02512:1228
#02514:00120000
#0251b:0000000000120000
#0251a:0000001300001200
#02510:41
#03617:0012001200001300
#03612:00000000140000000000001200000000
#0361a:1414
#03615:0000000000130000
#03616:14000000140000001400000000000012
#03619:0000000000000013
#03614:00000000000000000000000000120000
#01615:00000016000000160000160000001616
#01612:00231323
#0161b:23002313
#01714:00000000000000130000000000000000
#01719:00000013000000000000000000000000
#01712:0000001300000000130000000000000000001300130000000000000000000000
#01716:13000013
#01717:0000130000130000
#0171b:2300000000000000000000130000000013000000000000000000000013000000
#03315:0000001200000000
#03316:0000000014141414
#03312:24000012000000000000001300000000
#0331c:00000000000000120000000000000000
#03319:0012000000000000
#0331a:24140000
#0331b:00000000000000000013000000000000
#03310:41
#03215:00000013000000000000000012000000
#03219:00000012
#03212:1313000013000013
#0321b:1300001300000013
#03214:0000000000140000
#03218:00130000000000000000140000000000
#03216:0000242424000000
#0501b:13000013
#05016:00141414000000000000000000001400
#05012:13000013
#05015:0000000000130000
#05018:00000000000000000000001300000000
#05119:0012001200000000
#05115:12120000
#05112:0026002613000000
#05117:0000000000130000
#0511b:00000013
#05116:0000000000000013
#05118:2626
#0531c:0000000012000012
#05317:0000000012000012
#05314:00000012000000000000000000000000
#05312:12
#05316:0000001200000000
#0531f:11
#05418:12
#05416:00120000
#05413:12
#05417:00001212
#0541b:00120000
#0541a:0000000000000012
#05412:0012
#05414:0000000000000012
#05518:0000001200000000
#05517:1200000012000012
#0551a:00000012000000000000000000000000
#0551c:12
#05512:0000000012000012
#05712:12000012000000120000001200000000
#0571c:12000000000000000000000000000012
#0571a:0012001200120000
#05718:00121212
#05714:0000000000000012
#05816:1200120012000012
#05814:00001200000012000000120000000032
#0581c:00000012000000120000000012000000
#05818:00000000000000000000001200000000
#0581a:00000000000000000012000000000000
#05812:00000012
#06612:1400181400001300
#0661b:0000000000000013
#06618:00000012
#06616:00181400001400181400000000001200
#0661a:00000014000000000000000000000000
#06716:00181400000000000000000000000000
#06712:000000142c0000002c1300132c000000
#0671b:0000001300000013
#06715:00000000001600160000160000160016
#0671a:24
#0741b:0000000000120013
#07412:26001600241800002c00000012000000
#07415:000000000000000000000000000000001200000000130000
#07418:260000160000000000000000000000000012000000000000
#0741a:00000000000000140000000000000000
#07416:0000002800000000
#07518:00160012001600000000000000000000
#07512:1612160023002300
#07516:0000001200130000
#0751c:00000000000000120000000000000000
#07517:00001314
#07515:0000000000000014
#0751b:0000000000230023
#0721b:0000000013001313
#07215:00000000240000000016001600160016
#0721c:0012001200000000
#07212:2200120013130000
#07217:0024002400000000
#07216:24
#07612:2600000000001300000000002600000000333333333333330000000000000000
#0761a:14
#0761b:0000000000000000000000001300000000333333333333330000000000000000
#0761b:0000000000000000000000000000000000000000000000330000000000000000
#07615:00001300000000001300000000001616
#07618:00000026001300001300000000000000
#07718:1600001616000000
#07715:00161600161600000000000000000000
#07712:00000016000000001600000000000000
#01812:00001313
#01816:12000012000000000000130000000000
#01818:12000012000000001200000012000000
#0181b:000000000012000000000000000012000000000000000000000000000000000000000000000000000000000000000000
#01813:000000000012000000000000000012000000000000000000000000000000000000000000000000000000000000000000
#0181c:0000000000120012
#0181a:00320000
#01814:00320000
#0561c:1212
#05617:0012000000121200
#05614:0000000000000012
#0561a:0000000000000012
#06812:2c162c002c002c000000230000002500
#06814:00000016000000002300000024000000
#06816:00000000001600000000000000000000
#06818:00000000000000160000000000240000
#06819:00000000000000000023000000000025
#0681b:00000000000000000000002300000000
#04413:00160000000000000000000000000000
#04415:00000016000000000000000000000000
#04417:00000000001600000000000000000000
#04412:2c2c2c2c23000000
#07312:26001600241800002600160000002814
#0731a:00000000000000140000000024000000
#07316:00000000000028000000000000180000
#07318:2616000026160000
#06412:000000000012000000000000120000130000140000000000
#0641c:0000001200001200
#06417:0000000000000013
#0641b:0000000000000013
#06414:0012000000000000
#0641a:001200000000
#06416:1400242424130000
#06117:0013130000000013
#06112:00000018000000000000130000001300
#0611c:00000012
#06116:23000000000013181300000000000000
#06118:0000000000120000
#0611a:24
#0611f:21
#06115:00000000000000000000003200000000
#06216:0000001300140000
#0621b:13000000133300330000000000000000
#06212:13330033000000001300000012000000
#06219:0000000000000013
#0621c:00000012
#06214:0000002200000013
#06217:0013000000000000
#0621a:0022000000000000
#06210:41
#0651c:00001212
#06517:2212121212120000
#06512:0000120000120018
#06514:00000013000000000000000000000000
#06519:00000000000000130000000000000000
#06516:00000000000000000000000000000014
#0651a:24
#06515:00000000000000000032003200000000
#06312:13000000000000180000000012001400
#0631a:0000000000000014
#06316:00001318130000000000120000000000
#06317:1300001313000000
#0631b:0000000000130000
#06319:00000000000000000000003200000000
#02917:0013130000000013
#02912:00000018000000000000130000001300
#0291c:00000012
#02916:23000000000013181300000000000000
#02918:0000000000120000
#0291b:23
#03018:00000013000000000000140000000000
#0301b:1313000013000000
#03014:0000000000140013
#03017:00000012
#0301c:00000012
#03019:0000000000000013
#03012:1300001300000000
#03015:00130000000000000000000000000000
#03016:0000242424000000
#03112:13000000000000180000000012000000
#03116:00001318130000000000000000001300
#03115:0000000000120000
#03117:1300001313000000
#0311b:0000000000130013
#0411b:0000000000000013
#0411c:00000012
#04117:2212121212120000
#04112:0000140000120013
#0411a:2414
#04115:00000000000000000032003200000000
#0061b:0000000000120013
#00612:0016000025001200
#00615:000000000000000000150000000000001200000000130000
#00618:000000160000000000000000000000000012000000000000
#00613:00000000000000150000000000000000
#00617:00000000001500000000000000000000
#00619:25152300
#00614:23
#0081b:0012000013130000
#00813:00120000
#00815:00000000000023000016001600160016
#00812:2400000000001313
#00817:0023000000000000
#00816:00230000
#0081c:0000002200000000
#00818:23
#00715:00000000001400002300000000000012
#00716:0000000000000013
#00717:00000000000013000000000000140000
#00718:2316000000161600
#00712:2316160000160000
#00719:00000000000000120000000000000000
#0071a:0024
#00513:00000000000000150000000000000000
#00515:0000001500000000
#00517:00000000001500000000000000000000
#00519:00152300
#00512:2416000025161500
#00518:00001600000000000000160000000015
#00514:00000000000000000000000000150000
#00516:0000000000000015
#0051a:24
#00510:41
#04015:00130000000000000000000012000000
#04019:00000012
#04012:1300000000000013
#0401b:00000013000000000000000000001300
#04014:0000000000140000
#04018:1313000000140000
#04016:0000242424000000
#03717:0013130000000012
#03712:00000018000000000000130000001200
#0371c:00000012
#03716:23000000000013181300000000000000
#03718:0000000000120000
#0371b:23
#03912:13000000000000180000000012000000
#03916:00001318130000000000000000000000
#03915:0000000000120000
#03917:1300001313000012
#0391b:0000000000130000
#0391c:0000000000000012
#03814:0000000000140013
#03817:00000012
#0381c:00000012
#03819:0000000000000013
#03818:00130000000000000000140000000000
#0381b:13
#03815:1313000000000000
#03812:00000013000000000000000000000000
#03816:0000242424000000
#04812:14000013001300001400000000130000
#0481a:00140000
#0481b:13001313
#04815:00130000000000130000001600000016
#04818:0013001300130013
#04919:0000000000120000
#04917:0000000000000000000000000000000000000000000000000000000000000000000000000000000000000000000000000000000000000000000000000000000000000000000000000000000000000000000000000000000000160000000000000000000000000000000000000000000000000000000000000000000000000000
#04915:2200000000000000000000000000000000000000000000000000000000000000000000000000000000120000000000000000000000000000000000000000000000000000000000000000000000000000000000000000000000000000000000000000000000000000000000000000000000000000000000001300000000000000000000000000000000000000000000000000000000000000000000000000000000000000000000000000000000000000000000000000000000000000000000000000000000000000000000000000000000000000000000000000000000000000000000000000000000000000000000000000000000000000000000000000000000000000000000000000000000000000000000000000000000000000000000000000000000000000000000000000000000000000000000000000000000000000
#04913:0000000000000000000000000000000000000000000000000016000000000000000000000000000000000000000000000000000000000000000000000000000000000000000000000000000000000000000000000000000000000000000000000000000000000000000000000000000013000000000000000000000000000000
#0491a:0012001300000000
#04912:0012
#0491c:12
#04918:0000120000000013
#04914:0000000000120000
#04916:00002812
#07012:22001600000000150000000000001600
#0701c:00002212
#07019:000000150000000012000000
#07016:240000000000000000000000000000140000140000000000240000000000000000001200000000000000000000000000
#07013:0000000000120000
#07018:0016000000000016
#07112:2c001600140000000000160000000018
#07116:00000000001414182400000000141400
#0711a:00000014
#07118:0016000000160000
#0711c:0022
#06912:2c001600000000150000160015000000
#06916:00000000001414002400000000141400
#06919:00000000150000000000000000000015
#06918:0016000000160000
#0691c:0022
#04616:00001313000000001300000000000000
#0461b:00000013
#04612:1300000000130000
#04618:0000000000130013
#04615:00000000000000000000000000000013
#0471b:00000013000000001300000013000000
#04718:0000000000130000
#04712:13000000130000000000001300000000
#04715:0013000000000000
#04716:0013
#04717:13
#00252:00003833
#00256:00000048
#0025b:0043
#00452:3636
#00458:00460046
#00958:0016000016000000
#00952:1600000000160000
#01252:3600003600001300
#01258:00000046000000005300000000000000
#0125b:00000013
#01255:0053
#02052:00320032
#0205c:4242
#0245a:4444
#02452:00340000
#02652:00233200
#0265c:0042
#0265b:00230000
#02656:0000005200000000
#02658:0000005200000000
#0275a:14001464
#02752:0014001454000000
#02757:0000000000240000
#02755:0000000000000024
#02553:0000000000000000000000000000000000000000000000000000000000000000000000000000000000000000000000000000000000000000000000000000000000000000000000000000000000000000000000000000000000260000000000000000000000000000000000000000000000000000000000000000000000000000
#02557:0000000000000000000000000000000000000000000000000026000000000000000000000000000000000000000000000000000000000000000000000000000000000000000000000000000000000000000000000000000000000000000000000000000000000000000000000000000000000000000000000000000000000000
#02555:0000000000520000
#02559:0000000000000000000000000000000000000000000000000000000000000000000000000000000000520000000000000000000000000000000000000000000000000000000000000000000000000000000000000000000000000000000000000000000000000000000000000000000000000000000000000000000000000000000000000000000000000000000000000000000000000000000000000000000000000000000000000000000000000000000000000000000000000000000000000000000000000000000000000000000000000000000000000000000000000000000000000000000000000000000000000000000000000000000000000000000000000000000000000000000000000000000000000000000000000000000000000000000000000000000000000000000000000000000000000000000000000000
#02357:0053
#02356:53
#0235b:00000000000000000000002300000000
#02352:00000023000000000000000000000000
#05158:1616
#05152:0016001653000000
#05157:0000000000230000
#0515b:00000063
#05156:0000000000000023
#05052:0032
#0505c:0042
#0535c:0052
#05357:0052
#05458:52
#05456:00520000
#05457:0052
#05557:0062
#05552:0062
#05856:0000000000000052
#05958:0052000000000000
#05957:0000005200520000
#06058:4646
#06052:00360000
#07655:0053
#07658:00000046000000005300000000000000
#07652:3600003600001300
#0765b:00000013
#07752:00000036000000005600000000000000
#07758:4600004656000000
#0285a:0000004400000000
#02852:54340000
#02857:0024000000000000
#03356:0000000024240024
#0335a:14240000
#03352:24
#01756:53000063
#01757:0000530000530000
#01752:0000002300000000000000000000000000000000000000000000000000000000
#0175b:0000000000000000000000230000000000000000000000000000000000000000
#01852:00005353
#01856:62000062000000000000530000000000
#0185b:000000000022000000000000000022000000000000000000000000000000000000000000000000000000000000000000
#01858:52000052000000000000000000000000
#01853:000000000022000000000000000022000000000000000000000000000000000000000000000000000000000000000000
#0565c:2262
#05657:0062000000220000
#06859:00000000000000000043000000000045
#06858:00000000000000000000000000440000
#0685b:00000000000000000000004300000000
#06852:0000000000330035
#06854:00003334
#0455b:43
#04558:00430000
#04555:0033
#04552:00000033
#0365a:4444
#03652:00340000
#05252:54340000
#05257:0024000000000000
#0525a:0000004400000000
#03458:0016
#03454:5a
#03452:325a1200
#0345c:00420000
#0225b:0000000000230000
#02257:0053
#04352:3636
#04358:00460046
#06656:0014
#06557:52525200
#0655a:14
#06552:0000000000220000
#06252:23130000
#0625b:13231300
#06256:0000005300000000
#06257:0053000000000000
#05752:12
#02956:5363
#0295b:13
#02957:00530000
#02952:0000000000230000
#03058:00000023000000000000000000000000
#0305b:0053000000000000
#03055:00230000000000000000000000000000
#03052:63
#03156:00630000
#03157:6363
#0315b:0000000000230000
#0415b:0000000000000063
#04157:52525200
#04152:0000000000220000
#07352:1600000000160000
#07358:0016000016000000
#00552:0016000000160000
#00558:0016000000160000
#00652:0016000000000000
#00658:0016000000000000
#00752:0016000000160000
#00758:0016000000160000
#01058:0016000000000000
#01052:16
#01357:53
#01356:00530000
#01456:53
#01457:00530000
#01557:53
#01556:00530000
#0155b:0000000000530000
#01957:23
#01956:00230000
#03255:00000023000000000000000000000000
#03252:0063000000000000
#03258:00230000000000000000000000000000
#0325b:53
#03757:00530000
#03756:5363
#03752:0000000000230000
#0375b:13
#03956:00630000
#03957:6363
#0395b:0000000000230000
#04852:3434
#0485a:00440000
#04959:0000000000620000
#04957:0000000000000000000000000000000000000000000000000000000000000000000000000000000000000000000000000000000000000000000000000000000000000000000000000000000000000000000000000000000000260000000000000000000000000000000000000000000000000000000000000000000000000000
#04955:0000000000000000000000000000000000000000000000000000000000000000000000000000000000620000000000000000000000000000000000000000000000000000000000000000000000000000000000000000000000000000000000000000000000000000000000000000000000000000000000000000000000000000000000000000000000000000000000000000000000000000000000000000000000000000000000000000000000000000000000000000000000000000000000000000000000000000000000000000000000000000000000000000000000000000000000000000000000000000000000000000000000000000000000000000000000000000000000000000000000000000000000000000000000000000000000000000000000000000000000000000000000000000000000000000000000000000
#04953:0000000000000000000000000000000000000000000000000026000000000000000000000000000000000000000000000000000000000000000000000000000000000000000000000000000000000000000000000000000000000000000000000000000000000000000000000000000000000000000000000000000000000000
#06157:00530000
#06156:5363
#06152:0000000000230000
#0615a:14
#06356:00630000
#06357:5353
#0635b:0000000000230000
#06452:00000014
#06952:1c16000000160000
#06958:0016000000160000
#07052:0016000000000000
#07058:0016000000000000
#07152:0016000000160000
#07158:0016000000160000
#01157:0000000000530054
#01155:00000054
#01156:0053
#04252:5300335332000000
#0425b:00530000
#04256:00005300000000220000000000000000
#04258:00000000002200000000000000000000
#0425c:0000004200000000
#04257:53
#07458:4646000000000000
#07452:3636000000000000
#07557:00006364
#07555:0000000000000064
#07556:0000000000630000
#03856:0000242400000000
#04056:0000242400000000
#04756:0063
#04752:00000000000000000000002300000000
#04757:63
#0475b:00000023000000000000000000000000
#04652:0000000000230000
#04656:0063
#0013b0:00000013000000000000000000000000
#001360:0000002300000000
#001320:00000000000000000000001300000000
#001370:0000000000000023
#0023b0:00000013000000000000000000000000
#002360:0000002300000000
#003320:00000013000000000000000000000000
#003370:0000002300000000
#0033b0:00000000000000000000001300000000
#003360:0000000000000023
#009320:0000133300000000
#009350:00000000003300230000000000000000
#0093b0:0000000000001333
#009380:00000000000000000000000000330023
#010320:0000133300000000
#010350:00000000003300230000000000000000
#011360:0013
#011350:00000000000000000022000000000000
#011370:0000000000130000
#011390:00000000000000000000002200000000
#011350:00000014
#011340:00000000000000000000000000220000
#011370:0000000000000014
#0113a0:00000000000000000000000000000022
#012350:0013
#012320:00000023
#012381:0013
#0123b1:00000023
#013371:13
#013321:00230000
#013360:00130000
#0133b0:00000000000000230000000000000000
#0133b0:0000000000130000
#013370:00000023
#014360:13
#0143b0:00230000
#014371:00130000
#014321:00000000000000230000000000000000
#014321:0000000000130000
#014361:00000023
#015371:13
#015321:0023000000000000
#015361:00130000
#0153b1:0000002300000000
#0153b1:0000000000130000
#015361:00000023
#016321:13
#016361:0023000000000000
#0163b1:00130000
#016371:0000002300000000
#017361:13
#017321:0000005300000000000000000000000000000000000000000000000000000000
#017351:00000023000000000000000000000000
#017371:00130000
#0173b1:0000000000000000000000530000000000000000000000000000000000000000
#017381:00000000000000230000000000000000
#017371:0000000000130000
#0173b1:00000023
#017360:00000013
#017320:0000000000000023
#018380:12000032000022000000000000000000
#0183b0:000000000052000000000000000052000000000000000000000000000000000000000000000000000000000000000000
#0183a0:00320000
#018361:12000032000022000000000000000000
#018331:000000000052000000000000000052000000000000000000000000000000000000000000000000000000000000000000
#018341:00320000
#018321:00001333
#018361:0000000000330023
#019371:13
#0193b1:0023000000000000
#019361:00130000
#019321:0000002300000000
#019381:00001252
#0193c1:0000000000520022
#019320:00000000000000001323000000000000
#019350:00000000000000000000132300000000
#019320:00000000000000000000000013230000
#019350:00000000000000000000000000001323
#022360:13
#022320:0023000000000000
#022370:00130000
#0223b0:0000002300000000
#022361:0000001300000000
#022321:0023
#022370:00001323
#0223b0:0000000000530000
#023360:13
#023320:00000053000000000000000000000000
#023380:0000002200000000
#023370:0013
#0233b0:00000000000000000000005300000000
#023360:0000000000000022
#025390:120000000000000000000000000000000000000000000000000000000000000000000000000000000000000000000000000000000000000000000000000000000000000000000000000000000000000000000000000000000000000000000000000000000000000000000000000000000000000000000000000000520000000000000000000000000000000000000000000000000000000000000000000000000000000000000000000000000000000000000000000000000000000000000000000000000000000000000000000000000000000000000000000000000000000000000000000000000000000000000022000000000000000000000000000000000000000000000000000000000000000000000000000000000000000000000000000000000000000000000000000000000000000000000000000000000000000000000000000000000000000000000000000000000000000000000000000000000000000000000000000000000000000000000000000000000000000000000000000000000000000000000000000000000000000000000000000000000000000000000000000000000000000000000000000000000000000000000000000000000000000000000000000000000000000000000000000000000000000000000000000000000000000000000000000000000000000000000000000000000000000000000000000000000000000000000000000000000000000000000000000000000000000000000000000000000000000000000000000000000000000000000000000000000000000000000000000000000000000000000000000000000000000000000000000000000000000000000000000000000000000000000000000000000000000000000000000000000000000000000000000000000000000000000000000000000000000000000000000000000000000000000000000000000000000000000000000000000000000000000000000000000000000000000000000000000000000000000000000000000000000000000000000000000000000000000000000000000000000000000000000000000000000000000000000000000000000000000000000000000000000000000000000000000000000000000000000000000000000000000000000000000000000000000000000000000000000000000000000000000000000000000000000000000000000000000000000000000000000000000000000000000000000000000000000000000000000000000000000000000000000000000000000000000000000000000000000000000000000000000000
#025360:0038000000000000
#025370:0000000000000000000000000000000000000000000000560056000000000000000000000000000000000000000000000000000000000000000000000000000000000000000000000000000000000000000000000000000000000000000000000000000000000000000000000000000000000000000000000000000000000000
#025320:0018
#025350:0000000000322200
#025330:0000000000000000000000000000000000000000000000000000000000000000000000000000000000000000000000000000000000000000000000000000000000000000000000000000000000000000000000000000005600560000000000000000000000000000000000000000000000000000000000000000000000000000
#026320:00132200
#026360:0000003200000000
#0263b1:00130000
#026381:0000003200000000
#0263c1:0022
#027321:00001424
#027371:0000000000540000
#0273a0:00000014
#027350:0000000000000054
#0283a0:24
#028321:14240000
#028371:0054000000000000
#029361:13
#029321:0023000000000000
#029371:00130000
#0293b1:0000002300000000
#029361:0013
#029321:0000000000530000
#029371:00000022
#030321:1323000000000000
#030351:00330000000000000000000000000000
#0303b0:0013230000000000
#030380:00000033000000000000000000000000
#031370:13
#0313b0:0023000000000000
#031360:00130000
#031320:0000002300000000
#031370:00001322
#0313b0:0000000000530000
#0323b0:1323000000000000
#032380:00330000000000000000000000000000
#032321:0013230000000000
#032351:00000033000000000000000000000000
#033321:14
#033371:0022000000000000
#0333a1:00140000
#033371:0000002200000000
#033361:0014
#033321:0000000000220000
#033360:0000000000140000
#0333c0:00000022
#033360:0000000000000014
#034320:22
#034341:1a
#034361:00380000000000000000000000000000
#034381:0036000000000000
#0343a1:00000034000000000000000000000000
#0343c1:00220000
#034320:000000001a3836342200000000000000
#037360:13
#037320:0023000000000000
#037370:00130000
#0373b0:0000002300000000
#037360:0013
#037320:0000000000530000
#037370:00000022
#038360:00140000
#0383c0:0000002200000000
#038361:0000001400000000
#038321:0022
#039371:13
#0393b1:0023000000000000
#039361:00130000
#039321:0000002300000000
#039371:00001322
#0393b1:0000000000530000
#040361:00140000
#040321:0000002200000000
#040360:0000001400000000
#0403c0:0022
#041370:12
#041320:00000022000000000000000000000000
#041370:00120000
#0413c0:00000000000000220000000000000000
#041370:00001222
#041350:00000000000000000032003200000000
#041320:0000000000520000
#0413b0:0000000000000013
#042370:53
#0423b0:0023000000000000
#042321:13230000
#042361:0053000000000000
#0423b0:00130000
#042380:00000000003200000000000000000000
#0423c0:0000002200000000
#042321:0000001322000000
#042361:00000000000000320000000000000000
#044321:000000000000000000000000000000000000000000000000000000000000000000000000000000000000000000000000000000000000000000000000000000000000000000000000000000000000000000000000000000000000000000000000130000000000000000000000000000000000000000000000000000000000000000000000000000000000000000000059000000000000000000000000000000000000000000000000000000000000000000000000000000000000000000000000
#044361:000000000000000000000000000000000000000000000000000000000000000000000000000000000000000000000000000000000000000000000000000000000000000000000000000000000000000000000000000000000000000000000000000000000000000000000000000000000000000000000000000000000000000000000000000000535400545500545700555800555700000054000000000000000000000000000000000000000000000000000000000000000000000000000000
#044351:000000000000000000000000000000000000000000000000000000000000000000000000000000000000000000000000000000000000000000000000000000000000000000000000000000000000000000000000000000000000000000000000000000000000000000000000000000000000000000000000000000000000000000000000000000000054000000000000000000000000000000000000000000000000000000000000000000000000000000000000000000000000000000000000
#044341:000000000000000000000000000000000000000000000000000000000000000000000000000000000000000000000000000000000000000000000000000000000000000000000000000000000000000000000000000000000000000000000000000000000000000000000000000000000000000000000000000000000000000000000000000000000000000056000000000000000057000000000000000000000000000000000000000000000000000000000000000000000000000000000000
#044331:000000000000000000000000000000000000000000000000000000000000000000000000000000000000000000000000000000000000000000000000000000000000000000000000005800000000000000000000000000000000000000000000
#044371:000000000000000000000000000000000000000000000000000000000000000000000000000000000000000000000000000000000000000000000000000000000000000000000000000000000000000000000000000000000000000000000000000000000000000000000000000000000000000000000000000000000000000000000000000000000000000000000000000000000000545500530000000000000000000000000000000000000000000000000000000000000000000000000000
#0453b1:23
#044390:0015
#044370:0000000000550000
#044380:00000000000000000000000000000000000000000000000000000000000000000000000000000000000000560000000000000000000000000000000000000000
#044320:00000000000000000000000000000000000000000000000000000000000000000000000000000000000000000000000000000000005600000000000000000000
#044340:0000000000000055
#045320:25
#046370:13
#0463b0:0023000000000000
#046360:00130000
#046320:0000002300000000
#046371:0000001300000000
#0463b1:0023
#046360:00001323
#046320:0000000000530000
#047370:13
#0473b0:00000053000000000000000000000000
#047360:0000002200000000
#047360:0013
#047320:00000000000000000000005300000000
#047380:0000000000000022
#049350:120000000000000000000000000000000000000000000000000000000000000000000000000000000000000000000000000000000000000000000000000000000000000000000000000000000000000000000000000000000000000000000000000000000000000000000000000000000000000000000000000000520000000000000000000000000000000000000000000000000000000000000000000000000000000000000000000000000000000000000000000000000000000000000000000000000000000000000000000000000000000000000000000000000000000000000000000000000000000000000022000000000000000000000000000000000000000000000000000000000000000000000000000000000000000000000000000000000000000000000000000000000000000000000000000000000000000000000000000000000000000000000000000000000000000000000000000000000000000000000000000000000000000000000000000000000000000000000000000000000000000000000000000000000000000000000000000000000000000000000000000000000000000000000000000000000000000000000000000000000000000000000000000000000000000000000000000000000000000000000000000000000000000000000000000000000000000000000000000000000000000000000000000000000000000000000000000000000000000000000000000000000000000000000000000000000000000000000000000000000000000000000000000000000000000000000000000000000000000000000000000000000000000000000000000000000000000000000000000000000000000000000000000000000000000000000000000000000000000000000000000000000000000000000000000000000000000000000000000000000000000000000000000000000000000000000000000000000000000000000000000000000000000000000000000000000000000000000000000000000000000000000000000000000000000000000000000000000000000000000000000000000000000000000000000000000000000000000000000000000000000000000000000000000000000000000000000000000000000000000000000000000000000000000000000000000000000000000000000000000000000000000000000000000000000000000000000000000000000000000000000000000000000000000000000000000000000000000000000000000000000000000000000000000000000000000000000000000000000000000000
#049320:0038000000000000
#049330:0000000000000000000000000000000000000000000000560056000000000000000000000000000000000000000000000000000000000000000000000000000000000000000000000000000000000000000000000000000000000000000000000000000000000000000000000000000000000000000000000000000000000000
#049360:0018
#049390:0000000000322200
#049370:0000000000000000000000000000000000000000000000000000000000000000000000000000000000000000000000000000000000000000000000000000000000000000000000000000000000000000000000000000005600560000000000000000000000000000000000000000000000000000000000000000000000000000
#050320:00132200
#050390:0000003200000000
#0503b1:00130000
#050351:0000003200000000
#0503c1:0022
#051321:00001323
#051371:0000000000330000
#0513b0:00000013
#051360:0000000000000033
#0523b0:23
#052321:14240000
#052371:0034000000000000
#053371:12000022
#0533c1:0032
#053370:0012
#053320:00000022
#054380:12
#0543c0:0022000000000000
#054360:00120000
#054320:0000002200000000
#054370:0012
#0543c0:00000022
#055370:12000022
#055320:0032
#055371:0012
#0553c1:00000022
#0563c1:12220000
#056371:0032000000000000
#056370:00122200
#056320:0000003200000000
#0563c1:00001222
#056371:0000000000520000
#058361:0000000000000012
#058341:00000000000000000000000000000032
#059321:22
#059381:0012000000000000
#0593a1:00000032000000000000000000000000
#0593c1:00220000
#059371:0000001200000000
#059351:00000000000000320000000000000000
#059331:0022
#059371:0000000000120000
#059391:00000000000000000000003200000000
#0593b1:00000022
#061361:13
#061321:0023000000000000
#061371:00130000
#0613b1:0000002300000000
#061361:0013
#061321:0000000000530000
#061351:00000000000000000000003200000000
#061371:00000022
#062321:13330033230000000000000000000000
#062371:0033000000000000
#0623b0:00000000133300332300000000000000
#062360:0000003300000000
#063370:13
#0633b0:0023000000000000
#063360:00130000
#063320:0000002300000000
#063370:00001322
#0633b0:0000000000530000
#063390:00000000000000000000003200000000
#0643c0:12
#064380:0022000000000000
#065370:12
#065320:0022000000000000
#065370:00120000
#0653c0:0000002200000000
#065370:00001222
#065350:00000000000000000032003200000000
#065320:0000000000520000
#075370:0013
#075390:00000000000000000022000000000000
#075360:0000000000130000
#075350:00000000000000000000002200000000
#075370:00000014
#0753a0:00000000000000000000000000220000
#075350:0000000000000014
#075340:00000000000000000000000000000022
#076350:0013
#076320:0000000000000000000000000000000000333333333333332300000000000000
#076381:0013
#0763b1:0000000000000000000000000000000000333333333333332300000000000000
#077321:0016
#077361:00000022
#077380:00001622
