This file was generated by Ched 2.7.0.0.
#TITLE ""
#ARTIST ""
#DESIGNER ""
#DIFFICULTY 0
#PLAYLEVEL
#SONGID ""
#WAVE ""
#WAVEOFFSET 0
#JACKET ""
#REQUEST "ticks_per_beat 480"
#00002: 4
#BPM01: 154
#00008: 01
#TIL00: ""
#HISPEED 00
#MEASUREHS 00
#00712:14140000
#00718:00001414
#0131a:2414
#01314:00140000
#03112:0014
#03114:14
#0311a:00140000
#03118:00000014
#01712:1414
#01718:00140000
#01912:1414
#01918:00140014
#01012:14140000
#01018:0014
#01014:00000014
#0061a:14140000
#00614:0014
#00618:00000014
#0151a:1414
#01514:00140014
#01510:41
#0291a:0014
#02912:00140000
#02914:00000014
#02918:24
#03312:00140000
#03318:14
#0331a:0014
#03314:00000014
#03310:41
#00918:00001414
#00912:24140000
#01412:1414
#01418:00140000
#0181a:1414
#01814:00140000
#0351a:14
#03512:00140000
#03518:0014
#03514:00000014
#05717:14
#05812:14
#05814:00340000
#02719:14
#02713:0014
#02819:14
#0301a:1434003400000000
#03017:00140000
#0361a:14
#03613:0014
#03619:0014
#03612:00140000
#05918:16
#05914:0016
#05916:00160000
#05912:00000016
#06712:16
#06714:00160000
#06716:0016
#06718:00000016
#0431a:14
#04312:00140000
#04318:0014
#04314:00000014
#04310:41
#01113:00000014
#0111a:0034000000000000
#01119:00340000
#01118:0000003400000000
#00819:00000014
#00812:0034000000000000
#00813:00340000
#00814:0000003400000000
#04712:14
#04714:0014
#04718:00140000
#0471a:00000014
#04518:0014
#04514:00140000
#04512:00000014
#05112:14
#05118:14
#0511a:0014
#05114:0014
#05212:14
#05218:14
#06814:00000014
#06818:00000014
#06813:24242400
#06819:24242400
#00514:00001414
#0051a:24140000
#00510:41
#03418:14141400
#03414:0014001400000000
#03212:1434003400000000
#03215:00140000
#0391a:0014
#03918:14
#03914:00140000
#03912:00000014
#03712:0014
#03718:00140000
#0371a:00000014
#03714:24
#04118:00140000
#04114:14
#04112:0014
#0411a:00000014
#04017:1434003400000000
#0401a:00140000
#04214:14141400
#04218:0014001400000000
#03815:1434003400000000
#03812:00140000
#02114:00140000
#02118:0014
#02112:00000014
#0211a:24
#02312:14
#02318:00140000
#02314:0014
#0231a:00000014
#0251a:14
#02514:00140000
#02518:0014
#02512:00000014
#02510:41
#0491a:14
#04914:00140000
#04918:0014
#04912:00000014
#07112:14140000
#07118:00001414
#07412:14140000
#07418:0014
#07414:00000014
#0701a:14140000
#07014:0014
#07018:00000014
#07318:00001414
#07312:24140000
#07513:00000014
#0751a:0034000000000000
#07519:00340000
#07518:0000003400000000
#07219:00000014
#07212:0034000000000000
#07213:00340000
#07214:0000003400000000
#06914:00001414
#06314:0014
#06312:14
#06318:00140000
#0631a:00000014
#06118:0014
#06114:00140000
#06112:00000014
#0611a:24
#0611f:21
#06514:00140000
#06518:14
#0651a:0014
#06512:00000014
#0621a:1434003400000000
#06217:00140000
#06215:1434003400000000
#06212:00140000
#06210:41
#06618:14140000
#06614:0014000000000000
#06612:0000001400000000
#0661a:0014
#06412:1434003400000000
#06415:00140000
#06417:1434003400000000
#0641a:00140000
#0531f:11
#06019:24242400
#06013:24242400
#01212:0026
#01218:26
#04418:24242400
#04414:0024002400000000
#07712:25
#07719:25
#00416:24
#00414:0038
#00415:00360000
#07612:0026
#07618:26
#05757:64
#05852:54
#0305a:54
#03057:00240000
#01258:16
#01252:0016
#0455a:14
#0695a:14
#06952:14
#06853:0054
#06859:0054
#06854:00000024
#06858:00000024
#07759:55
#07752:55
#02759:14
#02753:0014
#02859:14
#03252:64
#03255:00240000
#04057:64
#0405a:00240000
#03855:54
#03852:00240000
#07652:0016
#07658:16
#0625a:54
#06257:00240000
#06255:54
#06252:00240000
#06452:64
#06455:00240000
#06457:64
#0645a:00240000
#001380:1424
#002320:1424
#0033a0:1424
#004360:14
#004350:00360000
#004340:0038
#004320:0000002c
#008320:1434000000000000
#008330:00340000
#008340:0000003424000000
#0113a0:1434000000000000
#011390:00340000
#011380:0000003424000000
#0163a0:14
#016390:00340000
#016380:0034
#016370:00000024
#020320:14
#020330:00340000
#020340:0034
#020350:00000024
#0223a0:1424
#022380:00340000
#024320:1424
#024340:00340000
#0263a0:1424
#026380:00340000
#026321:1424
#026341:00340000
#0303a1:1434003424000000
#030371:00340000
#032321:1434003424000000
#032351:00340000
#038351:1434003424000000
#038321:00340000
#040371:1434003424000000
#0403a1:00340000
#044381:0014
#0453a1:24
#046381:1424
#0463a1:00340000
#048341:1424
#048321:00340000
#0503a1:1424
#050381:00340000
#050320:1424
#050340:00340000
#053380:14
#0533a0:0024
#054320:14
#054330:00340000
#054340:0024
#0553a0:14
#055380:0024
#056340:14
#056330:00340000
#056320:0024
#057370:14
#0573a0:0024
#058320:14
#058340:00340000
#058350:0024
#0623a0:1434003424000000
#062370:00340000
#062351:1434003424000000
#062321:00340000
#064321:1434003424000000
#064351:00340000
#064370:1434003424000000
#0643a0:00340000
#068330:0014
#068340:00000054
#069320:24
#068391:0014
#068381:00000054
#0693a1:24
#072321:1434000000000000
#072331:00340000
#072341:0000003424000000
#0753a1:1434000000000000
#075391:00340000
#075381:0000003424000000
#077321:15
#077331:0025
#077390:15
#077380:0025
