This file was generated by Ched 2.6.4.0.
#TITLE ""
#ARTIST ""
#DESIGNER ""
#DIFFICULTY 0
#PLAYLEVEL
#SONGID ""
#WAVE ""
#WAVEOFFSET 0
#JACKET ""
#REQUEST "ticks_per_beat 480"
#00002: 4
#BPM01: 108
#00008: 01
#TIL00: ""
#HISPEED 00
#MEASUREHS 00
#0081a:14
#00810:41
#0091a:14
#01318:14
#02512:16
#02518:0016
#02510:41
#02612:1616
#02718:1616
#02918:16
#02912:0016
#03714:0014
#0371a:14
#03614:0014
#0361a:14
#0401a:14
#04114:14
#0421a:14
#04210:41
#04412:14
#04518:14
#04612:14
#01218:14
#01014:14
#01114:14
#01412:14
#01410:41
#01812:14
#0221a:14
#03018:1616
#03112:1616
#03818:14
#03812:0014
#0041a:14
#00514:14
#00618:14
#00712:14
#02312:14
#03918:14
#03912:0014
#0191a:14
#01512:14
#0161f:00110000
#02418:26
#0241f:21
#00210:41
#03410:41
#000390:14
#001390:24
#002330:14
#003330:24
#016380:00140000
#017380:24
#020340:00140000
#021340:24
#024380:1626
#028320:1626
#0323a0:14
#0333a0:24
#034320:14
#035320:24
#0433a0:1424
#047320:1434
#048320:000000000000000000000024
