This file was generated by Ched 2.6.4.0.
#TITLE ""
#ARTIST ""
#DESIGNER ""
#DIFFICULTY 0
#PLAYLEVEL
#SONGID ""
#WAVE ""
#WAVEOFFSET 0
#JACKET ""
#REQUEST "ticks_per_beat 480"
#00002: 4
#BPM01: 108
#00008: 01
#TIL00: ""
#HISPEED 00
#MEASUREHS 00
#00012:000000000013000000000000130000000000000000000000
#00015:000013000000000000000000000000130000000000000000
#0001b:130000000000000000000000000000000013000000000000
#00018:000000130000000000000000000013000000000000000000
#0021b:130000000000000000000000000000000013000000000000
#00215:000000130000000000000000000013000013000000000000
#00218:000013000000000000000000000000130000000000000000
#00212:000000000013000000000000130000000000000000000000
#00210:41
#0031b:130000000000000000000000000000000000130000000013
#00315:130000130000000000000012000000000000130000000000
#00312:000000000013000000000000000000000000000013000000
#00318:000013000013000000000000000000000000000000130000
#00319:0012
#00417:0013001300130000
#00412:000013000000000013000000000013000000000000130000
#0041b:000000000013000000000013000000000000130000000000
#00416:00131300
#00415:23
#02317:00000013000000000000000000000000
#02315:0000000000130000
#02319:00000013
#02318:0000000000000013
#0231b:0013
#02316:0013
#02314:00000013
#02416:00000013
#02414:0000000000130000
#0241b:00230013
#02419:0000000000000013
#02417:230000000000000000000033000000000000000000000000
#02412:23
#0241f:21
#0261b:1300001300000000
#02616:130000000000000000000000000000000013000000000000
#02612:0000000013000013
#02617:000000000013000000000000130000000000000000000000
#02712:13000013
#02715:0013000000000000
#02718:000000000013000000000000000000000000000000000000
#02716:001300
#0271b:000000000000000013000013000000130000000000000000
#02717:13000013
#02517:1300130013130000
#0251b:0013001300001300
#02516:0000000000000013
#02512:13001313
#02510:41
#02916:1300130013130000
#02912:0000001300001300
#02917:0000000000000013
#0291b:13000013
#03018:13
#0301b:0000001300000000
#03015:0013
#03012:0000000000000013
#03113:14
#03119:14
#0311b:000000000000000000000013000000000000000000000000
#03112:000000000000000000000000000000130013000000000000
#03116:0000000013000013
#03117:000000000000001300000000
#03212:00000013000000000000000000000000
#03216:13
#0321b:2300001300000000
#03215:0013
#03217:000000000000000000000000000000130013000000000000
#03316:13
#03314:0014
#0331b:0000000000000013
#03318:00000000000000130000140000000000
#03317:00130000
#03312:000000000013000000000000000000000000000000000000
#03912:1414141400001300
#0391a:1414141400000000
#03915:0000000000000013
#03918:000000000013
#0391b:00000013
#04018:1300000000000013
#04016:000013000000130000000000000000130013000000000000
#0401b:000000130013000000000000000013000013000000000000
#04012:130013130013
#04015:000000000000000000000000000000000000000000000013
#0011b:130000000000000000000000000000000013000000000000
#00118:000000130000000000000000000013000000000000000000
#00115:000013000000000000000000000000130000000000000000
#00112:000000000013000000000000130000000000000000000000
#0051b:0013000000000000
#00515:0013000013000000
#00518:00000000000000130000130000000000
#00512:00130000
#0061b:1313000013000000
#00612:0000131300001300
#00618:0000000000130000
#00616:0013000000000000
#00617:0000001300000000
#00615:0000000000130000
#00715:1300001300000000
#0071b:0013000000000000
#00712:0000130000120000
#00718:000000000000000013000000120000000000000000120000
#00716:000000000012
#0071a:00000012
#00815:000013000000130000000013000000000013000000000000
#00818:000000130013000000130000000000000000000000000000
#00812:230000000000000013000000000013000000000000130000
#0081b:2313
#00817:000000000013
#00816:000000000000000000000000000000000000000000000013
#00810:41
#00918:000013000000130000000013000000000000000000000000
#00915:000000130013000000130000000000000013000000000000
#0091b:130000000000000013000000000000000000000000000013
#00912:000000130013
#01218:000013000000130000000013000000000013000000000000
#01215:000000130013000000130000000000000000000000000000
#0121b:230000000000000013000000000013000000000000130000
#01212:2313
#01217:000000000000000000000000000000000000000000000013
#01216:000000000013
#01312:130000000000000013000000000013000000000000000013
#01315:000013000000130000000013000000000013000000000000
#01318:000000130013000000130000000000000000000000000000
#0131b:000000130013
#01316:0000000000000013
#01518:000000000012
#01516:0000000000000012
#01514:13000012
#0151a:00000012
#01513:000000000000000000000000000000000000000000000012
#0151b:000000000000130000000000000000000000000000000012
#01512:000000130000000013000000000000000000000000000000
#01517:001300000000000000000000
#01515:000000000013000000000000130000000000000000000000
#01612:0000231300001313
#0161b:0000000013130000
#01616:0013
#01617:00230013
#0161f:00110000
#0171b:1313000013000000
#01716:1313
#01712:0000131300000000
#01717:0000131300000013
#0181b:13000013
#01817:0000001313000013
#01812:0013
#01816:1300000000131300
#01912:130000000014
#01917:13
#01916:000000130000130000000000000000000000000000001400
#0191b:00130000
#0191a:00000014
#0221b:000000130000000000000000000000000000000000000013
#02212:0000001300000000
#02217:000000000000000000130013000000000000000000000000
#02216:000000000013000000000000000000130013000000000000
#02218:0000000000000013
#0211b:00130013
#02115:000000000013
#02118:0000000000000013
#02112:130000000000000000000013000000130000000000000013
#02116:001300
#02117:13
#02114:0013000000000000
#02019:0000001300000013
#02012:0013
#02014:0000000000130000
#0201b:00230013
#02017:0013
#02016:00230013
#04112:000000000000000000000000130000000013000015000000
#04116:000000130000001300000000
#0411b:000000000013000000000000000000130000000000000000
#04119:000013000015
#04114:0000001300000000
#04117:000000000000000000000000130000000013000000000000
#04715:121200121200000000000000
#04719:000000120012000000120000000000000000000000000000
#04619:000000000000000000000000000000000000000000000012
#04614:120000001200001200000000
#04616:000000120012000000000000000000000000000000000000
#04618:001200120000000000000000
#0461a:0000001200120000
#0461c:0012
#04612:000000000000000000000012000000000000000000000000
#04512:0000000000000012
#0451c:000000000012
#0451a:000000000000000000000000000000000000000000000012
#04516:000000120000000000120000000000120012000000000000
#04514:00121200
#04218:13
#04215:001300000000000000131300
#04219:0000001300000000
#04212:000000000000000000000013000000000000000000000013
#0421b:000000000013000000000000000000000013000000130000
#04214:0000000000130000
#04210:41
#04318:131300001300130000000000
#04312:0013000000000000
#04315:000000000013000000130013000000000000000000000000
#0431a:00000013
#0431b:000000000013000000000000000000000000000000000000
#04313:000000000000000000000000000000000013000000000000
#0441a:12121200
#04419:000000000012
#04414:000000000000000000000000000000000000000000120012
#04418:000000120000000000120000000000120012000000000000
#03612:2300001300000000
#03618:001300000000130000000000
#03616:000000000000000000000000000000130013000000000000
#03615:0013000000000000
#0361b:230000000013000000000000000000000000000000000000
#03718:0014
#03712:0000000000000013
#03715:00000000000000130000000000000000
#03716:00130000
#0371b:000000000013000000000000000000000000000000000000
#03714:0000000000140000
#03717:13
#03512:13131314
#0351a:000000000014
#03516:000000000000000000000014
#03518:1300000000130000
#0351b:0013130013000000
#03515:000000130000000000000000000013000000000000000000
#03414:13
#03416:0013000000000000
#0341b:001300000000130000130000
#03412:000000000013000000000000000000000000130000000000
#03419:13
#03410:41
#03819:13
#03817:0013000000000000
#03812:001300000000130000130000
#0381b:000000000013000000000000000000000000130000000000
#03814:13
#01016:1300001300001300
#01019:001300000000000000000000
#01014:000000130000000000000000000000000000000000000013
#01017:000000000013000000000013000000000000000000130000
#01012:000000130000000000001300
#0101b:001300
#01119:13
#01115:000000000013000000000000130000000000000000000000
#0111b:0013000000001300
#01116:001300000000000000001200
#01112:0000001300130000
#01118:000000000000000013000013000000000000000000120000
#01114:000000000000000000000000000000000033000000000000
#01417:1300001300000000
#01414:001300000000000000000000
#01419:000000130000000000000000000000000000000000000013
#01416:000000000013000000000013000000000000000000130000
#0141b:000000000000130000000000000000130000000013000000
#01412:000000001300001300000000
#01415:000000000000000000000000000000000013000000000000
#01418:00000013
#01410:41
#02817:00000013
#02819:0000000000130000
#02812:00230013
#02814:0000000000000013
#02816:230000000000000000000033000000000000000000000000
#0281b:23
#02656:630000000000000000000000000000000013000000000000
#02657:000000000013000000000000530000000000000000000000
#0305b:0000001300000000
#03052:0000000000000013
#03252:00000023000000000000000000001300
#03256:53
#03255:0033
#0045b:00000063
#00452:0000000000000013
#0055b:0013000000000000
#00555:0013
#0065b:0013000000000000
#00652:0000001300000000
#00658:0000000000130000
#00755:13
#0075b:0013000000000000
#00752:0000000000120000
#00758:0012
#02256:000000000000000000000000000000000053000000000000
#0225b:000000000000000000000000000000000000000000000053
#02257:000000000000000000000053000000000000000000000000
#02357:00000023000000000000000000000000
#02152:000000000000000000000000000000000000000000000053
#01757:0000006300000000
#01752:0000006300000000
#01756:0023
#0175b:0023
#0185b:63
#01856:63
#01952:0000000000130000
#01957:0000000000130000
#02452:53
#0245b:00530000
#02457:4343
#02456:00330000
#0335b:0013000000000000
#03354:0034
#03358:0000000000440000
#0435a:00000043
#04353:000000000000000000000000000000000033000000000000
#03658:0043
#0365b:000000000023000000000000000000000000000000130000
#03758:0044
#03754:0000000000340000
#03752:0013000000000000
#03457:0000001300000000
#03456:0000000000130000
#03558:43
#03555:0033000000000000
#03856:0000001300000000
#03857:0000000000130000
#02756:0000000000330000
#02757:00000043
#00952:000000000053
#01155:000000000053000000000000530000000000000000000000
#0115b:00000043
#01152:0000000000230000
#01555:0033
#02857:00430000
#02856:3333
#0285b:63
#02852:00630000
#001350:0000000000000013
#002350:23
#002380:00132300
#0043b0:00000013
#004370:0000000000000023
#005360:00000013
#005320:0000000000000023
#0053b1:00000013
#005371:0000000000000023
#008381:000000000000000000000000000000130023000000000000
#0093b1:000000000000001300000000
#009381:000000000000000000000000000000000023000000000000
#009321:000000000013
#009361:000000000000000000000000000000000000000000000023
#010321:0013
#010361:0000000000230000
#0103b0:0000000000132300
#011350:000000000013000000000000000000000000000000000000
#011320:002300
#011350:00001323
#011320:0000000000530000
#011340:000000000000000000000000000000000033000000000000
#012350:000000000000000000000000000000130023000000000000
#013380:000000000000000000000000000000130023000000000000
#0143b0:000000000000132300000000
#015380:0000001323000000
#017370:0000001300230000
#0173b0:0053
#017321:0000001300230000
#017361:0053
#0183b1:13
#018371:00230000
#018360:13
#018320:00230000
#019360:0000001300000000
#019320:0000000033230000
#0193b1:0000001300000000
#019371:0000000033230000
#021371:000000000000000000000013000000230000000000000000
#021321:000000000000000000000000000000000000000000000013
#022361:0023000000000000
#022371:000000000000000000000013000000000000000000000000
#0223b1:0000000000230000
#022361:000000000000000000000000000000000013000000000000
#022321:0000000000000023
#0223b1:000000000000000000000000000000000000000000000013
#023371:00000053000000000000000000000000
#0233b1:0000002300000000
#024321:13
#024361:00230000
#0243b0:00130000
#024370:000000000000000000000033230000000000000000000000
#025360:0013002300000000
#025320:00330000
#026360:13
#026320:000000000033000000230000000000000000000000000000
#026370:0013
#0263b0:000000000000000000000000000000000033000000230000
#027360:000000000000000000000013000000230000000000000000
#0283b0:13
#028370:00230000
#028321:00130000
#028361:000000000000000000000033230000000000000000000000
#0293b1:00132300
#029371:0000003300000000
#030321:1323000000000000
#030380:0013230000000000
#030351:0000132300000000
#0303b1:0000000013230000
#030350:0000000000132300
#030381:0000000000001323
#031371:00000013
#0313b1:0000000000000023
#032361:1300002300000000
#032321:00000053000000000000000000000000
#032321:0000000000001323
#0333b1:1323000000000000
#033351:00000013
#033321:0000000000000023
#034371:0000132300000000
#034361:0000000013230000
#0363b1:000000000013000000000000000000000000000000000000
#036371:0000002300000000
#0363b1:0000000000001323
#037321:1323000000000000
#037381:00000013
#0373b1:0000000000000023
#038361:0000132300000000
#038371:0000000013230000
#039321:0000000014240000
#0393a0:0000000014240000
#040370:0000001323000000
#0413b0:132300000000000000000000
#041361:000013000023000000000000000000000000000000000000
#042361:0000132300000000
#042371:0000000013230000
#044351:120000000032320000000032320000000022000000000000
#044331:000032320000000032320000000032320000000000000000
#045391:120000000032320000000032320000000022000000000000
#0453b1:000032320000000032320000000032320000000000000000
#046331:000000000000000000000000000000000012000022000000
#0463b0:000000000000000000000000000000000012000022000000
#0473b0:0012
#0483b0:000000000000000000000022
#047331:0012
#048331:000000000000000000000022
