This file was generated by Ched 2.6.4.0.
#TITLE ""
#ARTIST ""
#DESIGNER ""
#DIFFICULTY 0
#PLAYLEVEL
#SONGID ""
#WAVE ""
#WAVEOFFSET 0
#JACKET ""
#REQUEST "ticks_per_beat 480"
#00002: 4
#BPM01: 108
#00008: 01
#TIL00: ""
#HISPEED 00
#MEASUREHS 00
#00315:000000000000000000000013000000000000000013000000
#00318:0000000013000013
#0031b:00000013
#00312:000000000000000000000000000000000000000000000013
#00319:000033330000000000000000000000000000000000000000
#00415:0013000000130000
#00418:00130000
#00412:0000001300000000
#0041b:2313
#02318:0000000000130000
#02315:00000013
#02312:0000000000000013
#0231b:0013
#02418:0000000000130000
#02415:00000013
#0241b:0000000000000013
#0241a:24
#02412:0023
#0241f:21
#0261b:0000001313000000
#02612:1300000000000013
#0271b:13000013
#02715:0013000000130000
#02718:000000000013000000000013000000000000000000000000
#02712:001300
#03918:0000000000000013
#03915:000000000013
#0391b:00000013
#03919:14141400
#03913:0014001400000000
#04018:000000130000000000000000000000000000000013000000
#04015:0000130000330013
#04012:1313
#0401b:0000001300000000
#0051b:0013000000001300
#00518:00131300
#00515:00001300000000130000000000000000
#00512:0000130000130000
#00615:0013000013000000
#0061b:0000001300001300
#00618:1300000000130000
#00612:00130000
#00712:00130013
#00715:0000001300000013
#00718:000000130013
#0071b:0000000000130000
#00815:0013001300000013
#00818:000000130000000000001300
#0081b:2313
#00810:41
#01012:13
#0101b:0013000000000000
#01015:00130000
#01018:1300001300000013
#01014:0000000000330000
#01215:0013001300000013
#01218:000000130000000000001300
#0121b:2313
#01212:23
#01412:1313
#01415:0013001300000013
#01418:000000130000000000001300
#0141b:1313
#01410:41
#01612:0000230000000013
#0161b:0013
#01618:00230013
#01615:0013
#0161f:00110000
#0171b:1300000000000013
#01712:0000001300000000
#01715:0013000000000013
#01718:00130000
#0181b:1300001300000013
#01815:1313
#01818:0000000000130000
#01812:00130013
#01915:13
#01918:0013000000000000
#01912:00130000
#0191b:0000001300000000
#02115:000000130000000000001300
#02118:000000000000000013000000000000000000130000130000
#02112:13
#0211b:0013000000000000
#02015:0000001300001300
#0201b:00001313
#02012:0000230000130000
#02018:0000230000000013
#0311b:1300000000130000
#03112:13000013
#03118:000000000000000000000013000000000000000000130000
#03115:0013
#04514:0000000000000013
#04519:0000000000000013
#0431b:00130000
#04318:13
#04315:0013000000000000
#04312:0000001300000000
#04215:0000130013000013
#04218:000000130000000000000000000000000000000013000000
#0421b:0000001300130000
#04212:13000013
#04210:41
#0351b:13130000
#03518:0013000013000000
#03512:0013000013000000
#03515:13130000
#0341b:0000001300130000
#03415:0013000013000000
#03418:13130013
#03412:0000001300130000
#03410:41
#00112:0000000000000013
#0011b:0000000000000013
#00918:0013001300000000
#00915:000000130000000000001300
#00912:1313
#02815:0000000000130000
#02818:00000013
#02812:2400000000000013
#0281b:0023
#03218:0013000000130000
#03215:00130000
#0321b:0000001300000000
#03212:2313
#03312:0013000000001300
#03315:00131300
#03318:00001300000000130000000000000000
#0331b:0000130000130000
#03615:0013000000130000
#03618:00130000
#03612:0000001300000000
#0361b:2313
#0371b:0013000000001300
#03718:00131300
#03715:00001300000000130000000000000000
#03712:0000130000130000
#03812:0000001300130000
#03818:0013000013000000
#03815:13130013
#0381b:0000001300130000
#04115:0013000000000000
#04118:0000130000330000
#0411b:1313
#04112:0000001300000000
#04419:0000000000000013
#04414:0000000000000013
#0111b:13
#01112:0013000000000000
#01118:000000000000130000000000000000000033000000000000
#01115:1300001300000000
#01318:0013001300000013
#01315:000000130000000000001300
#01312:1313
#0131b:13
#01518:130000000013
#0151b:000000000000130000000000000000000000000000000013
#01512:0013000000001300
#01515:0000000000000013
#01519:0000003300000000
#02212:000000000000000000000013000000000000000000000013
#02218:0000001300000013
#0221b:0000000000130000
#02215:000000000000000000000000000000000013000000000000
#02512:1313
#02518:0013000000000013
#02515:00130013
#0251b:0000001300130000
#02510:41
#02919:0000000000000013
#02913:00000013
#0291a:0000000000130000
#02914:0013
#0291b:1300001300000000
#02915:00130000
#03015:0000001300000013
#03018:0013000013001300
#0301b:0000000000130000
#03012:13130000
#04715:13130000
#04718:0013001300000000
#0461a:0000000000130000
#04613:00001313
#04618:0013001300000013
#04615:13130000
#00219:000033330000000000000000000000000000000000000000
#00214:000000000000000000000000000033330000000000000000
#00210:41
#0265b:0063
#02657:000000000000000000000000000000000013000000000000
#02652:53
#02656:000000000013000000000000000000000000000000000000
#01752:0000006300000000
#01957:0000000000130000
#0195b:0000006300000000
#0245a:64
#02456:00140000
#02452:0013
#02755:0000000000130000
#0275b:00000013
#02852:54
#02856:00140000
#0285b:0013
#03552:0053
#03558:0053
#04052:0053
#0415b:0063
#04358:00000013
#01158:00000013
#0155b:00630000
#01557:0013
#02252:000000000000000000000000000000000000000000000063
#0003b0:130033330023000000000000000000000000000000000000
#000320:000000000000000000000000130033330023000000000000
#001380:130033330023000000000000000000000000000000000000
#001350:000000000000000000000000130033330023000000000000
#002380:13
#002390:000033330000000000000000000000000000000000000000
#0023b0:000000000023000000000000000000000000000000000000
#002350:0013
#002340:000000000000000000000000000033330000000000000000
#002320:000000000000000000000000000000000023000000000000
#003380:13
#003390:000033330000000000000000000000000000000000000000
#0033b0:000000000023000000000000000000000000000000000000
#0043b0:00000013
#004380:0000000000000023
#0073a0:1323000000000000
#007331:1323000000000000
#008321:000000000000000000000000000000130023000000000000
#0093b1:000000000000000000000000000013000023000000000000
#010321:0013
#010341:0000000000330000
#010351:00000023
#0113b1:0013
#011381:000000000000000000000000000000000033230000000000
#012351:000000000000000000000000000000130023000000000000
#013381:000000000000000000000000000000130023000000000000
#014351:000000000000000000000000000000130023000000000000
#0153b1:00130000
#015391:0000003300000000
#015371:0023
#017321:0000001300000000
#017361:0000000000230000
#0193b1:0000001300000000
#019371:0000000000230000
#021321:000000000000000000000013000000230000000000000000
#021351:000000000000000000000000000000000000000000000013
#022351:000000330023000000000000000000000000000000000000
#022321:000000000000000000000000000000000000000000000013
#023361:00230000
#0243a1:14
#024361:00240000
#026321:13
#026361:000000000023000000000000000000000000000000000000
#0263b1:0013
#026371:000000000000000000000000000000000023000000000000
#028321:14
#028361:00240000
#032321:00000013
#032351:0000000000000023
#035321:0013
#035351:00000023
#035380:0013
#0353b0:00000023
#0363b0:00000013
#036380:0000000000000023
#040320:0013
#040350:0000000000330000
#040360:000000000000000000000000000000000023000000000000
#0413b0:0013
#041380:0000000000330000
#041370:000000000000000000000000000000000023000000000000
#043380:000000000000000000000000130000000033230000000000
#044320:130000000000000033330033330000000000000000000000
#044340:000033330033330000000000000033330023000000000000
#0453b0:130000000000000033330033330000000000000000000000
#045390:000033330033330000000000000033330023000000000000
#0473a0:0013
#0483a0:000000000000000000000022
#047331:0013
#048341:000000000000000000000022
