This file was generated by Ched 2.6.4.0.
#TITLE ""
#ARTIST ""
#DESIGNER ""
#DIFFICULTY 0
#PLAYLEVEL
#SONGID ""
#WAVE ""
#WAVEOFFSET 0
#JACKET ""
#REQUEST "ticks_per_beat 480"
#00002: 4
#BPM01: 108
#00008: 01
#TIL00: ""
#HISPEED 00
#MEASUREHS 00
#01412:00001600001a0000001a00000000000000160000161c001c
#01418:160000161600001600160000
#01414:0000001a000000000000001a000000000000000000000000
#01410:41
#0161f:00110000
#01612:00230013
#01617:0000130000131300
#01616:0000001313000013
#0161b:0013
#0261b:130000000000000000001300000000000000000000000000000000000013000000000000000000000000130000000000
#02617:0013
#02612:000000000013000000000000000000000000130000000000130000000000000000001300000000000000000000000000
#02616:13
#0241a:00001400240000002400140000140000
#02416:240000000000140000000000000000140000000000001400140000000000000000000000140000000000000000000000
#02412:24000000000014000014000014001400
#0241f:21
#02812:00001400240000002400140000140000
#02816:240000000000140000000000000000140000000000001400140000000000000000000000140000000000000000000000
#0281a:24000000000014000014000014001400
#03617:000000000017000000000000000000130000000000000000
#03615:001600160000000000000000
#03618:2600001600000000
#0361b:00001313
#03616:000000000000000000000000130000000013000000000000
#03612:2616000000130000
#00417:00000000000000000000000000130000
#00415:260000000016000000130016000000000000130000000000
#0041b:00130013
#00412:000016000000000000000000130016000000000000160000
#00418:000000130000000016000000000000130000000000000000
#04712:0014
#04716:0012001200000000
#04714:000012000012000012000000000000000000000000000000
#0471a:000012000012000012000000000000000000000000000000
#04718:12120000
#04813:0000000000000000000000000000001200000000000000000000000000000000
#02912:14000000140000140000140000001400
#02916:00001400001414000000001414000014
#0291a:14000000140000001400140000140000
#0301a:1400000000000014
#03018:00001616
#03016:0000000000180000
#03012:000000180000160000140016000000130000150000170000
#03017:0000001700000000
#03019:00150000
#0301b:0013000000000000
#02516:00130013001300001300000013000000
#02512:1313130000130013
#0251b:0013001313131300
#02517:13000000130000000013001300130000
#02510:41
#04514:000000000000000000000012000000000012000012000012
#04518:000012000000000000000000000000000000000000120000
#04517:000000000000001200000000
#04512:000000000012000000000000000000000000000000000000
#0451a:000012000012
#0441a:000000000000000000000012000000000012000012000012
#04416:000012000000000000000000000000000000000000120000
#04417:000000000000001200000000
#0441c:000000000012000000000000000000000000000000000000
#04414:000012000012
#04017:000000000000000000000000000013130000000000000000
#0401b:130000130000000000130000000000000013000000000000
#04012:130000130000130000001300
#04015:000016000016000016000000000000000000000000160016
#03816:00130000
#0381b:000000000013000000130000000000000000130000000000
#03818:160013000000000000000000160000130000000000000000
#03812:1319000000161300
#03815:0013
#03716:00000000000000000000000000130000
#03712:1300180000191300
#0371b:000000000000000000001300000000000000000000000000000000000000000000000000000000130000000000000000
#03717:13000013
#03715:00000000000000131900000000000000
#03417:00130000
#03415:000013190000000000000000000000130000130000000000
#03412:160000000013000000130000160000000000000000000000
#0341b:13
#03418:0000000013161300
#03410:41
#0311b:000000000000000000000000000000000000000000001300000000000000130000000000000000130000000000000000
#03117:000000000000001300130000
#03112:140000000000000000000000000000130013000000130000
#03116:0013
#0311a:14
#02212:000000000013000000000000001300000013000000000000
#02216:000000000000000000130013000000000000001300000000
#02217:000000000013000000000000001300000013000000000000
#0221b:000000130000000000130013000000000000001300000000
#02218:000000000000000000000000000000000000000000000013
#02112:000000000000000000000000000000000000001300000000000000000000130000000000130000000000000000001300
#0211b:130000000000000013000000001300000000000000000000
#02117:00130000000000000000000000000000
#02116:000000131300000000000000
#02115:0013000000000000
#02118:000000000000000000000013000000000000000000000000
#01512:001c001300001200
#01515:000000000000130000000000000000000000000012120000
#0151b:000000000000000013000000000000000000000000000012
#01518:160016000016000000000000000000000000000000000000
#01519:000000000000000000000000000000000000000012120000
#01513:000000000000000000000000000000000000000000000012
#0151c:00000012
#01315:000000000000000000000000000000000000000016000016
#01312:160014000018000000000000000013130000000000160000
#01314:000000180000000014000018000000000000000000000000
#0131a:0014
#01316:0000001800000000
#01318:00140000
#01317:000000000000000000000000000013130000000000000000
#00915:000000000016000000160000000000000000000000000000
#00912:160000000000000000000016000000000013000013000000
#00918:0016000012000000
#00913:001200
#0091b:000000120000001300000000
#00916:001200000000000000000000
#00917:000000000013
#01117:000000000000000000000000001300000000000000000000000000000000000000000000000000000000000000000000
#01118:0000001600000000
#01112:000000160016000016000000130000000000000000000000
#01116:000000000000000000000000000000000000000000000014
#01114:160016000000000000000000000000000000000012120000
#0111a:000000000000000000000000000000000000000012120000
#0111b:000000000013000000000013000000000000000000000000
#01012:00131300
#01016:130000000000000000000000000000000000000000000000000000130000000000000000000000000000160000001600
#0101b:130013000000000013000000000000130000000000000000
#01017:00000000000000000000001300000000
#01018:000000000016
#01015:000000000017000000000017000000000000000000000000
#01014:0017001700000000
#02016:00000000001300000000000000130000
#02012:00130013
#02017:00000000000000000013000000000000
#0201b:00231300
#02018:0000001300000013
#02015:0000000000130000
#04212:000000000000000000000018000000000000000000160000
#04215:000000000000000000000000000000000016000016000016
#04218:00000016
#04216:000000000018000000000000000000130000000000000000
#04217:0000001300000000
#04210:41
#04312:00000016000000001c1c001c1c0000000000000000000000
#04315:000016000000000000000000000000000016160000000000
#04318:16
#0431b:000000000013000000000000000000000000000000000000
#04316:000000000013000000000000000000000000000000000000
#04115:001600161600001600000000
#04112:000000130000000000130000000000000013000015000000
#04117:000000000000000000000000000000000013000000000000
#04119:000000000015
#0411b:000000000013000000000000130000130000000000000000
#03919:1515151500001500
#03912:1515151500001500
#03915:000000000000000000000000000000000000000016160000
#03317:00000000000000000000000000130000
#0331b:13000013
#03312:000000000000000000001300000000000000000000000000190000000000000000000000000000130000000000000000
#03316:13180013
#03318:00000000000000130000000000000000
#03315:0000000000190000
#03216:1300000000130000
#03212:00000013000000001300000013000000
#03217:000000000000000000000000130000000013000000000000
#0321b:2300001300130000
#03519:000000000000000000000015000000000000130013001300
#03514:000000000000150000131313
#03512:000000130000001500000000
#03517:0000000000150000
#03515:000000160000000016160000000000000000000000000000
#0351b:00130000
#04614:120000000000000012000012120000000000000000000012
#04618:000012120000000000000000000012120000000000000000
#04612:0012000000120000
#0461a:120000000000000012120000120000000000000000000012
#0461c:000000000012000000000000000000000000000000000000
#04616:000000000012120000000000000000000000000000000000
#02716:000000000000000018000013000000000000130000000000
#0271b:130000000000000000000013000000000000130000000000
#02717:0000000000130000
#02712:180000000019000013000000000000000000000000000000
#02715:0019000000000000
#02315:130013000000000000000000000000130000000000000000
#02318:001300130000000000000000000000000000000000130000
#02313:0000000000000013
#0231a:0000000000130000
#02319:0000001300001300
#02312:000000000013130000000000000000000000000000000000
#02314:0000001300001300
#0231b:000000000000000000000013130000000000000000000000
#02317:00130000
#02316:0013
#01917:000000000000000000121212
#01916:13000000130014140000000000000000
#0191b:13130000
#01912:000000130000000000000000000000000000000014000000
#0191a:000000000000000000140014
#01817:00130013
#01812:0000130000131300
#0181b:1300001313000013
#01816:1313
#01712:0000001300130013
#01717:0013001300130013
#0171b:13130000
#01716:13130000
#01215:000000000000000000000000000000000000000016000016
#01218:000000000000000014000000000000000000000000160000
#01216:000000000018000000000000000013130000000000000000
#0121b:000000000000000000000000000013130000000000000000
#01214:000000180000140000000018000000000000000000000000
#01212:2400001814000000
#0121a:241400000000000000000000
#00815:000000000016000000160000000000000000000000160016
#00818:000012000000000000000016000000000000000016000000
#0081b:000000001200001300000000
#00812:240000160000000000000000000013000000000000000000
#00816:0012
#00813:00120000
#0081a:24
#00810:41
#00714:00000012
#00718:0000000000120012
#00716:000000120012
#00715:000000160000000016160000000000000000000000000000
#0071a:00000012
#0071b:00130000
#00712:0000130000120000
#0071c:0012
#00618:160013000000160000000000160000130000130000000000
#0061b:0013001300000000
#00612:1316130000160000
#00615:000000000013000000000000130000000000130000000000
#00516:00000000000000000000130000130000
#00516:0000000000130000
#00512:0013130000131300
#0051b:00000000000000130000000000130000
#00517:00000013
#00515:00160000
#00514:0013
#00518:0016000000000000
#00314:0012
#00315:00000013
#0031b:130000000013000000000000000000000000130000000013
#00312:130000000013000000000000000000000000000013000000
#00318:0000000000000013
#0031a:0012
#00317:000013000000000000000012000000000000000000000000
#00316:0013000000000000
#00112:000000000013000000000000130000000000000000130000
#00116:130000000000000000000000000000000013000000000000
#00117:000000000013000000000000130000000000000000000000
#0011b:130000000000000000000000000000000013000000000000
#00118:000000130000000000000000000013000000000000000000
#00115:000013000000000000000000000000130000000000000000
#0021b:130000000000130000000000000000000013000000000000
#00215:000000000000000000000000000000000013000000000000
#00212:000000000013000000000000130000000000000000000000
#00216:000000130000000000000000000013000000000000000000
#00217:000013000000000000000000000000130000000000000000
#00210:41
#0001b:130000000013000000000000130000000013000000000000
#00012:130000000013000000000000130000000013000000000000
#00015:000013000000000000000000000000130000000000000000
#00018:000000130000000000000000000013000000000000000000
#02657:000000000000000000000000530000000033000000000000
#02656:630000000043000000000000000000000000000000000000
#0265b:130000000000000000006300000000000000000000000000000000000023000000000000000000000000000000000000
#02652:000000000023000000000000000000000000000000000000130000000000000000005300000000000000000000000000
#03052:3400000000000017
#03057:0000001700000000
#03756:00001300000000000000000000230000
#0375b:00001300000000000000000000230000
#03752:5300000000395300
#03757:63000053
#03755:0049
#03657:0000000000000013
#03652:0000000000000013
#03655:00260000
#0365b:00004363
#03656:000000000000000000000000330000000063000000000000
#01555:00533300
#01558:0043
#01552:0000006300000000
#0155b:005300
#03357:00001300000000000000000000230000
#03352:00001300000000003900000000230000
#0335b:63000063
#03356:53000063
#03355:0000000000490000
#03256:5300000000000013
#0325b:0000000000000013
#03252:00000023000000003300000053000000
#03257:000000000000000000000000430000000053000000000000
#03552:13
#0355b:13
#03554:0035
#03557:0000000000450000
#03555:0016000000000000
#0195a:0000000000140000
#01952:0000000000140000
#0195b:23
#01155:00000033
#01158:000000000000000000000000000000000043000000000000
#01157:000000000000000000000000002300000000000000000000000000000000000000000000000000000000000000000000
#0115b:000000000063000000000053000000000000000000000000
#01152:0053
#0075b:13
#00752:1300000000120000
#00758:0000000000120000
#00756:0012
#0075c:0012
#00755:0016000000000000
#02752:0000000000130000
#02756:000000000000000000000063000000000000130000000000
#0275b:00000013
#02757:0000000000130000
#0245a:00000000640000004400000000240000
#02452:54000000340000000024000000000000
#02456:44002400002400006400000054000000
#02852:00000000540000003400000000240000
#0285a:64000000440000000024000000000000
#02856:34002400002400005400000064000000
#00457:00000000000000000000000000230000
#0045b:00000063
#00452:0000000000000036
#04752:0054
#04853:0000000000000000000000000000002200000000000000000000000000000000
#02952:00000000000000240000540000005400
#02956:00000000002464000000002454000024
#0295a:00000000640000004400000000240000
#02556:00230023002300000000000000000000
#02552:5353530000000033
#0255b:0000004363636300
#02557:00000000000000000023002300230000
#03856:00630000
#0385b:0000004300005300
#03858:0000000000430000
#03852:0039000000006300
#03855:0033
#03457:00530000
#03455:0049000000336300
#03452:0000003300000000
#03458:00004353
#03157:00000063
#0315b:00000000000000000000000000230000
#03156:0053
#02252:000000000000000000000000002300000063000000000000
#02256:000000000000000000000053000000000000002300000000
#02257:000000000000000000000000002300000063000000000000
#0225b:000000000000000000000053000000000000002300000000
#02152:000000000000000000000000000000000000002300000000000000000000000000000000000000000000000000005300
#0215b:530000000000000000000000002300000000000000000000
#02157:00230000000000000000000000000000
#02158:000000000000000000000063000000000000000000000000
#02156:006300
#01052:0053
#01056:00000000000000000023000000000000
#0105b:0000000000530000
#01057:00000000000000000000002300000000
#02056:00000000002300000000000000230000
#02052:00630063
#02057:00000000000000000023000000000000
#0205b:0053
#04352:0016004c3c000000
#04358:16
#04355:000000000000000000000000000000000046360000000000
#04252:0000000000000016
#04258:00000016
#0405b:0013005300000000
#04052:00130000
#03959:45450000
#03952:0035003500000000
#01852:00230023
#0185b:6323
#01856:63
#01757:0000006300330000
#01752:0000006300330000
#01756:53
#01657:00630063
#01656:0053
#01357:0000000000230000
#01352:0000000000230000
#01256:0000000000230000
#0125b:0000000000230000
#00957:000000000063
#0095b:000000000000005300000000
#00952:000000000063
#00658:0000000000435300
#0065b:0000004300000000
#00652:0036530000000000
#00655:00003363
#00556:00000000000000000000000000230000
#00552:00530053
#0055b:00000000000000000000000000230000
#00557:00000053
#00554:0033
#00558:0046000000000000
#00152:0000000000000053
#0025b:00530000
#00852:000000000000006300000000
#001320:0000000000000013
#002360:23
#0023b0:00130000
#002370:0023
#0043b0:0000000000001323
#004370:00000000000000000000000000530000
#005320:00130000
#005370:00000000000000230000000000000000
#005320:0000000000001323
#005360:00000000000000000000000000530000
#005371:0000000000001323
#0053b1:00000000000000000000000000530000
#006321:00130000
#006361:0000002300000000
#006381:00000013
#0073b1:23
#006350:00000013
#007320:23
#008320:000000000000001300000000
#008360:000000000000000000000000000000000023000000000000
#0083b1:000000000000000000000000000000130023000000000000
#0093b1:000000000000001300000000
#009371:000000000000000000000000000000000023000000000000
#009371:000000000013
#0093b1:000000000000000000000000000000000000000000000023
#009320:000000000013
#009360:000000000000000000000000000000000000000000000023
#010320:0000000013230000
#010360:00000000000000000053000000000000
#0103b1:0000000000132300
#010371:00000000000000000000005300000000
#0113b1:000000000013000023000000000000000000000000000000
#011371:000000000000000000000000005300000000000000000000000000000000000000000000000000000000000000000000
#0113b1:000000000000000000000013000000000000000000000000
#011381:000000000000000000000000000053000023000000000000
#011320:0013
#011350:0000000000532300
#012360:0000000000130000
#012320:000000000000000000000000000000000023000000000000
#0123b1:0000000000130000
#012371:000000000000000000000000000000000023000000000000
#013371:0000000000130000
#0133b1:000000000000000000000000000000000023000000000000
#013320:0000000000130000
#013360:000000000000000000000000000000000023000000000000
#014320:000000000000162600000000
#014380:000000000000000000000000000000160026000000000000
#015350:00130000
#015320:002300
#0153b1:001300
#015381:00000000000000532300000000000000
#015320:0000001300000000
#015350:00000000000000532300000000000000
#016370:00130000
#0163b0:0000002300000000
#016360:0013
#016320:0000000000230000
#016370:00000013
#0163b0:0000000000000023
#017360:13
#017320:0023000000000000
#017320:0000001300000000
#017360:0023
#017371:0000001300000000
#0173b1:0023
#018361:13
#018321:0023000000000000
#0183b0:13
#018370:0023000000000000
#018320:00130000
#018360:0000002300000000
#0183b0:0013
#018370:0000000000230000
#018320:00000013
#018360:0000000000000023
#0193b0:13
#019370:0023000000000000
#0193a0:0000000014240000
#019321:0000000014240000
#020321:0000135323000000
#020361:00000000005300000000000000000000
#0203b0:0000000013532300
#020370:00000000000000000053000000000000
#020321:0000000000001353
#020361:00000000000000000000000000530000
#021321:23
#0213b0:1353230000000000
#021370:00530000000000000000000000000000
#021360:001300
#021320:000000000000000000000000000000000000005300000000000000000000000000000000000000000000000000000000
#021350:000000000000000000000023000000000000000000000000
#021381:000000000000000000000013000000000000000000000000
#0213b1:000000000000000000000000005300000000000000000000
#021371:0000000000230000
#0213b1:000000000000000000132300
#021350:000000000000000000000000000000000000000013230000
#021381:000000000000000000000000000000000000000000130023
#021320:000000000000000000000000000000000000000000000013
#022360:0023000000000000
#022360:000000000000000000000013000000230000000000000000
#022320:000000000000000000000000005300000000000000000000
#0223b1:000000000000000000000013000000230000000000000000
#022371:000000000000000000000000005300000000000000000000
#022371:000000000000000000000000000000000013000000230000
#0223b1:000000000000000000000000000000000000005300000000
#022320:000000000000000000000000000000000013000000230000
#022360:000000000000000000000000000000000000005300000000
#024320:14240000
#024360:0054000000000000
#0243a1:0000142400000000
#024361:00000000005400000000000000000000
#024361:0000000014240000
#024321:00000000000000000054000000000000
#024361:0000000000001424
#0243a1:00000000000000000000000000540000
#025321:1333332300000000
#025361:00530053005300000000000000000000
#0253b1:0000000013333323
#025371:00000000000000000053005300530000
#026361:130000000023000000000000000000000000000000000000
#026321:000000000053000000000000000000000000000000000000000000000000000000000000000000000000000000000000
#0263b0:000000000013000000000000000000000000000000000000
#026360:0000002300000000
#026370:000000000000000000000000130000000023000000000000
#0263b0:000000000000000000000000000000000000000000000000000000000053000000000000000000000000000000000000
#026321:000000000000000000000000000000000013000000000000
#026371:0000000000000023
#027361:000000000000000000000013000000000000000000000000
#027321:0000000000230000
#0283a1:14240000
#028361:0054000000000000
#028320:0000142400000000
#028360:00000000005400000000000000000000
#028360:0000000014240000
#0283a0:00000000000000000054000000000000
#028360:0000000000001424
#028320:00000000000000000000000000540000
#0293a0:0000142400000000
#029360:00000000005400000000000000000000
#029361:0000001424000000
#029321:00000000000000540000000000000000
#029321:0000000000142400
#029361:00000000000000000000005400000000
#029360:0000000000001424
#0293a0:00000000000000000000000000540000
#029321:0000000000000014
#029361:00000000000000000000000000000054
#030321:24
#031361:0013
#031321:000000000000002300000000
#031371:0000000000001323
#0313b1:00000000000000000000000000530000
#032361:1300002300000000
#032321:00000053000000000000000000000000
#032371:000000000000000000000000000000000013000000000000
#0323b1:0000000000000023
#032320:00000013
#032360:0000000000000023
#0333b0:13
#033370:0023000000000000
#033361:13
#033321:0023000000000000
#0333b1:0000000000001323
#033371:00000000000000000000000000530000
#033360:0000000000001323
#033320:00000000000000000000000000530000
#034370:00130000
#0343b0:0000002300000000
#034350:00000013
#035320:23
#034381:00000013
#0353b1:23
#036351:00160000
#036321:0000002600000000
#036361:000000000000000000000000000000000013000000000000
#036321:0000000000000023
#0363b0:00000013
#036370:0000000000000023
#037320:13
#037360:0023000000000000
#037371:13
#0373b1:0023000000000000
#037321:0000000000001323
#037361:00000000000000000000000000530000
#037370:0000000000001323
#0373b0:00000000000000000000000000530000
#038360:00130000
#038320:0000002300000000
#0383b0:00000013
#038380:0000000000000023
#038321:00000013
#038351:0000000000000023
#039321:000000001c2c0000
#0403b1:0000001300000000
#040371:0023
#040321:000000000000000000000000000000130023000000000000
#0413b1:132300000000000000000000
#041321:000000000000132300000000
#042361:13
#042321:002300000000000000000000
#0423b0:13
#042370:002300000000000000000000
#042320:0000132300000000
#0423b0:0000000013230000
#0443c0:122200000000000000000000
#044360:000000120022000000000000000000000000000000000000
#0443a0:000000122200000000000000
#044340:000000000000000000120022000000000000000000000000
#0443c0:000000000000122200000000
#044370:0000000000120000
#044320:000000000000000000000000000000000022000000000000
#045320:122200000000000000000000
#045380:000000120022000000000000000000000000000000000000
#045340:000000122200000000000000
#0453a0:000000000000000000120022000000000000000000000000
#045320:000000000000122200000000
#045370:0000000000120000
#0453c0:000000000000000000000000000000000022000000000000
#046390:000000000000000000000000000000000012000000000000
#0463c0:000000000022
#046351:000000000000000000000000000000000012000000000000
#046321:000000000022
#047321:0014
#047331:00000000000000000052000000000000
#048331:0000000000000000000000000000005200000000000000000000000000000000
#048321:0024
#0473c0:000000000000000000000000000000000000000000000000000000000000000000000000000000000000000000000000120000000000000000000000000000000000000000000052005200000000000000000052005200000000000000000000
#0473a0:00000054
#047390:0000000000000055
#0483c0:000000000000000000000052005200000000000000000000000052005200520000000000000000000000000000000052005200520000005200520052000000000000000000000000000000000052005200520000000000002200000000000000
#048380:0056000000000000
#0483a0:000000000000000000000000000000000000000000000000000000540000000000000000000000000000000000000000540054000000000000000000000000000000000000000000000000000000540000000000000000000000000000000000
#0483b0:000000000000000000000000000000000000000000000000000000000053000000000000000000000000000000000000000000000000000000005300000000000000000000000000000000000000000053000000000000000000000000000000
#048390:000000000000005500000000
