This file was generated by Ched 2.6.4.0.
#TITLE ""
#ARTIST ""
#DESIGNER ""
#DIFFICULTY 0
#PLAYLEVEL
#SONGID ""
#WAVE ""
#WAVEOFFSET 0
#JACKET ""
#REQUEST "ticks_per_beat 480"
#00002: 4
#BPM01: 108
#00008: 01
#TIL00: ""
#HISPEED 00
#MEASUREHS 00
#0001a:14
#00019:0014
#00213:0014
#00212:14
#00210:41
#00918:1414
#00912:00140014
#01214:00140000
#0121a:14001414
#04012:0014
#0401a:14
#04118:14
#0411a:0014
#04114:00140000
#0461a:1414
#0041a:1414
#00514:14
#0051a:0014
#00612:1414
#00718:14
#00712:0014
#01312:14001414
#01318:00140000
#02412:00160000
#02418:26
#0241f:21
#02512:16
#02518:0000160000140000
#02514:00001414
#02510:41
#02718:16001414
#02712:00160000
#02714:0000000000140000
#02818:00160000
#02812:26
#02918:16001414
#02912:00160000
#02914:0000000000140000
#04212:14
#0421a:0014
#04210:41
#04712:14
#04514:14
#04512:00140000
#0081a:1414
#00814:00140014
#00810:41
#01614:00000014
#0161f:00110000
#0161a:00240000
#0171a:00000014
#01812:00000014
#01918:00000014
#02018:00000014
#02012:00240000
#02114:14
#0211a:00140000
#02112:0014
#02118:00000014
#02214:14
#0221a:00140000
#02212:0014
#02218:00000014
#02618:14
#02612:0014
#03112:16
#03118:0000160000140000
#03114:00001414
#03014:14
#0301a:0014
#0321a:14
#03218:0014
#0341a:14001414
#03414:00140000
#03410:41
#03512:14001414
#03518:00140000
#03312:14
#03314:0014
#03818:14
#03814:00140000
#0381a:0014
#03812:00000014
#04314:14
#04318:00140000
#04312:0014
#04418:14
#0441a:00140000
#01019:00340000
#01018:0034
#01113:00340000
#01114:0034
#01410:41
#03955:0016
#04554:64
#04552:00240000
#02652:0054
#02658:54
#03054:64
#0305a:0064
#0325a:54
#03258:0024
#03352:64
#03354:0024
#04458:54
#0445a:00240000
#02052:00140000
#0165a:00140000
#001380:1424
#003340:1424
#0103a0:14
#010390:00340000
#010380:00003424
#011320:14
#011330:00340000
#011340:00003424
#0143a0:1434
#014380:00340024
#015320:1434
#015340:00340024
#0163a0:14240000
#017380:14
#0173a0:0024
#018340:14
#018320:0024
#0193a0:14
#019380:0024
#020320:14240000
#023320:1636363626000000
#024380:00001626
#026380:14
#0263a0:00240000
#026320:0014
#026340:00000024
#028320:00001626
#030340:14
#030320:00240000
#0303a0:0014
#030380:00000024
#0323a0:14000024
#032380:00343400
#033320:14000024
#033340:00343400
#0363a0:14240000
#036340:00001424
#037380:14240000
#037320:00001424
#039350:1636363626000000
#044380:1424
#0443a0:00540000
#045340:1424
#045320:00540000
#047320:0014
#048320:000000000000000000000024
