This file was generated by Ched 2.7.0.0.
#TITLE ""
#ARTIST ""
#DESIGNER ""
#DIFFICULTY 0
#PLAYLEVEL
#SONGID ""
#WAVE ""
#WAVEOFFSET 0
#JACKET ""
#REQUEST "ticks_per_beat 480"
#00002: 4
#BPM01: 193
#00008: 01
#TIL00: ""
#HISPEED 00
#MEASUREHS 00
#00119:14
#00213:14
#00319:14
#00413:14
#00618:14
#00714:14
#00814:14
#0091a:14
#0101a:14
#01112:14
#01212:14
#01718:14
#01818:14
#01914:14
#02014:14
#0251a:14
#0261a:14
#02712:14
#02812:14
#03318:14
#03310:41
#03414:14
#03518:14
#03614:14
#04118:14
#04214:14
#04512:0016
#04518:26
#0451f:21
#04712:16
#04718:0016
#04918:1616
#05112:1616
#05318:16
#05312:0016
#05512:16
#05518:0016
#05718:16
#05712:0016
#05818:16
#05812:0016
#05918:16
#05912:0016
#06514:14
#06618:14
#06714:14
#06818:14
#08214:14
#08318:14
#08418:14
#08512:14
#08612:14
#0871a:14
#0881a:14
#0291a:14
#02914:14
#03112:14
#03118:14
#03712:14
#03718:14
#0371f:11
#0391a:14
#03914:14
#00518:24
#06112:26
#06110:41
#06218:26
#06312:26
#06418:26
#06912:26
#07018:26
#07112:26
#07110:41
#07218:26
#07312:26
#07618:26
#07912:26
#07918:0026
#08012:26
#08018:0026
#08114:24
#04610:41
#01410:41
#02210:41
#013390:14
#014390:24
#015330:14
#016330:24
#0213a0:14
#022380:24
#023320:14
#024340:24
#043350:16363636
#044350:26
#046380:1626
#048320:1626
#050380:1626
#052320:1626
#054380:16
#054360:0026
#056320:16
#056340:0026
#060380:1626
#073320:1636
#074320:3636
#075320:26
#076380:16363636
#078380:0026
#089330:14000000000000000000000000000024
