This file was generated by Ched 2.7.0.0.
#TITLE ""
#ARTIST ""
#DESIGNER ""
#DIFFICULTY 0
#PLAYLEVEL
#SONGID ""
#WAVE ""
#WAVEOFFSET 0
#JACKET ""
#REQUEST "ticks_per_beat 480"
#00002: 4
#BPM01: 193
#00008: 01
#TIL00: ""
#HISPEED 00
#MEASUREHS 00
#00118:1300000000000013
#00119:0013000000000000
#0011a:00130000
#0011b:0000001300001300
#00112:13131313
#00218:00130000
#00219:00000013
#0021a:0000000000000013
#0021b:0000001300000000
#00212:13131313
#00518:0013001300001300
#00515:0000130000000013
#00512:2313
#0051b:23
#00612:0000000000130000
#00615:0000131300001300
#00618:0000001300000013
#0061b:13
#01318:0000130000000013
#0131b:0013
#01312:00130000
#01315:0013
#01418:13000013
#01415:0000131300130013
#0141b:0000130000130000
#01410:41
#01512:1313
#01518:1313
#01515:0000130000000013
#0151b:00130000
#01618:0000131300001300
#01615:13
#01612:0000130000232300
#01718:1300000000000013
#01715:1300000000001313
#0171b:0000001300000000
#01712:00131300
#0191b:13000013
#01918:0013001300130013
#01915:0000130000000013
#01912:0000001300000000
#02018:0013001300131300
#0201b:00130000
#02015:00000000000000000000001300001300
#02012:0000001300000000
#0211b:1313
#02112:1300130000000013
#02118:00130000
#0271b:1300000000130013
#02718:0013000000001300
#02715:0000130000000013
#02712:0000001300000000
#0281b:0013
#02815:0000130000001313
#02812:0013000000000000
#02818:00000000000013000000000000130013
#02915:0000131300000000
#02918:0000000000001313
#02912:24000024
#0291a:0000002400000000
#03018:0000000013000013
#0301b:00000013
#03015:0000000000131300
#03012:0013
#0321b:13131313
#03218:0013000000130013
#03215:00000000130000001300000000130000
#03212:13000000000013000000000000000013
#0331b:1313
#03312:00140014
#03319:0013000000000013
#03317:00130013
#03310:41
#0341b:1313
#03418:0000130000001313
#03412:00130013
#03415:0000000013130000
#03618:0000000013001313
#03612:13
#0361b:00130000
#03615:00000000130000000000130000130013
#0381b:0013
#03819:00000013
#03816:0013
#03814:00000013
#04018:00000000130000001300130000000013
#0401b:13000013
#04015:00001300000000000013000000001300
#04012:0000001300001300
#04115:13
#04118:00000013
#04112:0000001300000000
#0411b:00131300
#04218:13
#04212:13130000
#04215:00001313
#0421b:0013
#04517:13
#04516:0000131300000000
#04518:0000000000131300
#04512:23
#0451f:21
#0461b:1300000000130013
#04615:13130023
#04618:0013000023000000
#04612:0000001300130013
#04610:41
#04718:2300131300000000
#04715:1300000000131313
#04912:0000131300000000
#0491b:0000000000130013
#04918:13000013
#04915:2300000000000013
#05015:0000000013130000
#05018:0000000000001313
#05012:00130023
#0501b:0023
#05115:1300130000131313
#05118:0000001300000013
#05112:0013001300000000
#0511b:23
#05218:00000000000000000013000000001300
#05215:00000000000000000000130000130000
#0521b:0013130000002300
#05212:0023
#0531b:1300001300001300
#05315:0000130000000013
#05312:2300001300000000
#05318:0013000000130013
#05415:0014
#05417:00000014
#05412:0013130000002300
#05416:0000000000140014
#0541b:0023
#05515:1400000000000013
#05518:0000131300001300
#0551b:2300000000130013
#05512:0000131300000000
#0571b:0000130000000013
#05718:0013001300131300
#05715:2300001300001300
#05712:0013
#05815:1300000000000013
#0581b:00130013
#05812:0013
#05818:0000000000130000
#05816:00002424
#0591b:0000131300000013
#05912:13
#05916:2400131300000000
#06012:13131313
#06018:13131313
#0601b:0000001300000013
#06015:0013000000130000
#06118:23131313
#0611b:0000000000000013
#06112:23232323
#06110:41
#06218:13131313
#0621b:0000001300130000
#06212:23232323
#06518:0000131300000013
#06515:1300000000131300
#0651b:13
#06618:1300001313000000
#06615:1300000013000013
#06612:00000013000000000000000000000000
#0661b:00000000000000000000001300000000
#07318:13000000000000000000001300000000
#07312:1300130000000013
#07315:0000001313001300
#0731b:0000001300000000
#07512:1313000013001300
#07515:0000131300000000
#07518:0000000013130000
#0751b:1300130000001313
#07618:13000000000013000000000000160000
#07612:13000000000013000000000000160000
#0761b:00130000
#0761a:00000012
#07614:00000012
#07615:00130000
#08812:0000130000000013
#0881b:1300001300000000
#08815:0013001300131300
#08818:00000000000000000000001300000000
#00915:0013001300001300
#00918:0000130000000013
#0091b:2313
#00912:23
#01218:0000001300131300
#01212:1300001300000013
#01215:00000000000000000000001300000000
#0121b:0000130000000013
#01812:00000000000000130000000000000000
#0181b:1313
#01818:00130013
#02212:1300000000130000
#0221b:0000131300130000
#02218:00000013
#02215:0000000000000013
#02216:00130000
#02210:41
#02312:1313
#0231b:1300130000000013
#02315:00130000
#0241b:1300000000232300
#02412:0000131300000000
#02417:00130000
#02415:00000013
#02512:00000013000000001300000000000000
#02515:13000013
#02518:1300001300000000
#0251b:00130000
#0261b:0013000000000000
#02612:0033330000003300
#03118:0000131300000000
#03115:0000000000131300
#03112:1300002400000000
#0311a:24000024
#03512:1313
#0351a:00140014
#03514:0013000000000013
#03516:00130013
#03715:0013130000000000
#03718:00000013000000000000000000000000
#03716:0000000000131313
#03717:0000001300000000
#0371f:11
#0371a:24000024
#03712:0000002400000000
#03918:0013130000000000
#03915:00000013000000000000000000000000
#03916:0000001300000000
#03917:1300000000131300
#03912:24000024
#0391a:0000002400000000
#04312:1313
#04316:0014001400140014
#0431b:00130013
#04315:00130013
#04318:0013
#04412:13333333333333330000000000000000
#04418:13
#0441b:0023
#04419:00000023
#04414:00000023
#04818:00000000130000130000130023000000
#04815:00000000000013002300001300000000
#04812:0000000000000013
#0481b:0000000000000013
#05618:00000000130000130000000023000000
#05612:0000001300000013
#0561b:0000000000130013
#05615:00000000000000002300001300000000
#06715:0000131300000013
#06718:1300000000131300
#06712:13
#06815:1300001313000000
#06818:1300000013000013
#0681b:00000013000000000000000000000000
#06812:00000000000000000000001300000000
#06912:00130013
#06915:2300000013000013
#0691b:2323
#06918:00230023
#07012:1313
#07015:0000130000131300
#07018:2300001323000000
#0701b:00230023
#08115:0013001300001300
#08118:0000130000000013
#0811b:2300001313000000
#08112:2300000000130013
#08218:0000131300001300
#08215:0000001300000013
#0821b:0013000000130000
#08212:13
#0831b:2300001313000000
#08312:2300000000131313
#08315:0013001300000000
#08318:0000130000000013
#08418:0000001300131300
#08415:00000000000000000000001300001300
#08412:1300001300000000
#0841b:0013130000000000
#08518:0013001300131313
#08515:0000131300000013
#08512:2313
#0851b:23
#08615:0013131300001300
#08618:0000001300000013
#08612:0000000000130000
#0861b:13
#08712:2313
#0871b:23000013
#08718:0013001300130013
#08715:0000131300000013
#0741b:0000131300000000
#07418:0000000013001313
#07412:13001313
#07415:0000130000130000
#07712:00000016000000001400000014000000
#07715:0000000000140014
#0771b:00001313
#07718:12000016000000000000000000000000
#07716:12
#0781a:14140000
#07817:0014001400000000
#07812:00131414
#07815:0000000000140014
#0781b:00000013
#06315:23131313
#06312:0000000000000013
#0631b:23232323
#06415:13131313
#06412:0000001300130000
#0641b:23232323
#0711b:00130013
#07118:2300000013000013
#07112:2323
#07115:00230023
#07110:41
#0721b:1313
#07218:0000130000131300
#07215:2300001323000000
#07212:00230023
#01118:0000130000000013
#01115:0013001300000000
#01112:23000013
#0111b:2313
#01015:0000001300000013
#01018:0000131300001300
#0101b:0000000000130000
#01012:13
#0081b:1300001300000000
#00815:0000001300131300
#00812:00130000
#00818:00000000000000000000001300001300
#00715:0000130000000013
#00718:0013001300000000
#0071b:23000013
#00712:2313
#00412:0000001300000000
#00413:0000000000000013
#00414:00000013
#00415:00130000
#0041b:13131313
#00315:1300000000000013
#00312:0000001300001300
#00313:00130000
#00314:0013000000000000
#0031b:13131313
#07918:2626
#07912:00260026
#0801b:23
#08016:23
#08012:00232400
#08017:00230000
#0801a:0024
#03352:00140014
#0015b:0000005300000000
#00158:0000000000000053
#0025b:0000005300000000
#01352:00230000
#01355:0053
#01458:13
#01455:0000001300000000
#01655:13
#01658:0000001300000000
#0155b:00230000
#01558:0063
#01758:53
#01755:0000000000000053
#0175b:0000002300000000
#01852:00000000000000230000000000000000
#01952:0000005300000000
#01955:0000000000000053
#02252:13
#0225b:0000001300000000
#02152:00230000
#0215b:0063
#02352:0053
#0235b:00230000
#0245b:13
#02452:0000001300000000
#02555:53
#02552:00000023000000000000000000000000
#02558:0000005300000000
#0265b:0023000000000000
#02752:0000005300000000
#0275b:0000000000000063
#02952:14000014
#0295a:0000001400000000
#02958:0000000000000053
#0315a:14000014
#03152:0000001400000000
#0355a:00140014
#03756:0000000000000063
#0375a:14000014
#03752:0000001400000000
#03952:14000014
#0395a:0000001400000000
#04155:53
#04152:0000005300000000
#0425b:0053
#04258:53
#04452:53
#04557:53
#04556:0000005300000000
#04552:13
#04755:5300000000000053
#04758:1300005300000000
#04955:13
#04958:53
#04952:0000005300000000
#0495b:0000000000000053
#0515b:13
#05158:0000006300000000
#05155:0000000000000063
#05352:1300006300000000
#05358:0000000000000063
#0555b:13
#05552:0000005300000000
#05555:0000000000000053
#05755:1300005300000000
#05758:00000053
#05752:0023
#0575b:0000000000000023
#05855:53
#05956:1400005300000000
#0595b:0000005300000000
#06558:0000005300000000
#06555:53
#06655:53
#06658:0053
#06652:00000023000000000000000000000000
#0665b:00000000000000000000002300000000
#06755:0000006300000000
#06758:63
#06858:63
#0685b:00000023000000000000000000000000
#06855:0063
#06852:00000000000000000000002300000000
#08155:0000006300000000
#0815b:0023
#08158:0000000000000053
#08255:0000006300000000
#08252:23
#0835b:0063
#08355:0000002300000000
#08358:0000000000000023
#08452:53
#08558:0000005300000000
#08552:0023
#08555:0000000000000063
#08658:0000005300000000
#0865b:23
#08752:0053
#08758:0000002300000000
#08755:0000000000000023
#0885b:63
#07358:53000000000000000000002300000000
#0735b:0000005300000000
#07752:00000026000000005400000054000000
#07755:0000000000540054
#07758:52000026000000000000000000000000
#07756:62
#0785a:64640000
#07857:0064006400000000
#07852:00005454
#07855:0000000000540054
#08052:0014
#0805a:0014
#0765a:00000052
#07658:00000000000000000000000000260000
#07654:00000062
#07652:00000000000000000000000000260000
#01158:0000000000000023
#01155:0000002300000000
#0115b:0063
#01252:53
#01055:0000006300000000
#01052:23
#00958:0000000000000053
#0095b:0023
#00955:0000006300000000
#00755:0000000000000023
#00758:0000002300000000
#00752:0053
#0085b:63
#00658:0000005300000000
#0065b:23
#00555:0000000000000063
#00552:0023
#00558:0000005300000000
#00452:0000006300000000
#00355:0000000000000063
#00352:0000006300000000
#0013b0:0000001300000000
#001380:0000000000230000
#001380:0000000000000013
#0023b0:0023000000000000
#0023b0:0000001300000000
#002380:0000000000230000
#003320:0000001300000000
#003350:0000000000230000
#003350:0000000000000013
#004320:0023000000000000
#004320:0000001300000000
#004350:0000000000230000
#005380:0000001300000000
#0053b0:0023
#005321:0013
#005351:0000000000230000
#005351:0000000000000013
#006321:23
#0063b0:13
#006380:0023000000000000
#006380:0000001300000000
#0063b0:0000000000230000
#007380:0000001300000000
#0073b0:0023
#007321:0013
#007351:0000000000230000
#007351:0000000000000013
#008321:23
#0083b0:13
#008380:0023000000000000
#009350:0000001300000000
#009320:0023
#0093b1:0013
#009381:0000000000230000
#009381:0000000000000013
#0103b1:23
#010320:13
#010350:0023000000000000
#010350:0000001300000000
#010320:0000000000230000
#011350:0000001300000000
#011320:0023
#0113b1:0013
#011381:0000000000230000
#011381:0000000000000013
#0123b1:23
#012320:13
#012350:0023000000000000
#013320:0000130000000023
#013350:0033
#0153b0:0000130000000023
#015380:0033
#017380:13000023
#0173b0:0000005300000000
#017350:0000000000000013
#018320:00000000000000530000000000000000
#019350:23
#019320:0000001300000000
#019350:0000000000230000
#019350:0000000000000013
#020320:0023000000000000
#021320:00130000
#021350:0023
#0213b1:0013
#021371:0000000000000023
#0233b1:00130000
#023381:0023
#023320:0013
#023360:0000000000000023
#025350:1300002300000000
#025320:00000053000000000000000000000000
#025381:0000001300000000
#0263b1:0053000000000000
#026381:0000000000000023
#026320:1333330000000000
#026350:0000002300000000
#026350:0000000000130000
#026320:0000000000003323
#027320:0000001300000000
#027360:0000000000230000
#0273b0:0000000000000013
#028370:0023000000000000
#029380:0000000000000013
#0303b0:00230000
#037360:0000000000000013
#038320:00230000
#041350:13000023
#041320:0000003300000000
#042380:13
#0423b0:0033
#043380:23
#044320:13333333333333330000000000000000
#044360:0023
#045370:13
#0453b0:0000002300000000
#045361:0000001300000000
#045321:00000023
#047351:13
#047321:0000002300000000
#047380:0000001300000000
#0473b0:00000023
#047350:0000000000000013
#048320:00230000
#049380:13
#0493b0:0000002300000000
#049321:0000001300000000
#049351:0000000000230000
#0493b1:0000000000000013
#050381:00230000
#051381:0000001300000000
#0513b1:00000023
#051351:0000000000000013
#052321:00230000
#053321:0000001300000000
#053351:00000023
#053381:0000000000000013
#0543b1:00230000
#055321:0000001300000000
#055351:0000000000230000
#055351:0000000000000013
#056321:00230000
#057351:0000001300230000
#057321:0053
#057381:00000013
#0573b1:0000000000000053
#058381:23
#058350:13
#058320:00230000
#0593b0:0000001300000000
#059370:00000023
#059361:0000001300000000
#059321:00000023
#065351:13
#065321:0000002300000000
#065380:0000001300000000
#0653b0:00000023
#066350:1300002300000000
#066320:00000053000000000000000000000000
#066380:0000000013000023
#0663b0:00000000000000000000005300000000
#067380:13
#0673b0:0000002300000000
#067351:0000001300000000
#067321:00000023
#068381:1300002300000000
#0683b1:00000053000000000000000000000000
#068351:0000000013000023
#068321:00000000000000000000005300000000
#073381:13
#0733b1:00230000
#0733b1:0000001300000000
#073381:00000000000000000000005300000000
#0743b1:23
#0763a1:00000012
#076381:00000000000000000000000000560000
#077381:32000056000000000000000000000000
#0773a1:00220000
#076340:00000012
#076320:00000000000000000000000000560000
#077360:32
#077320:00000056000000000000000000000000
#077340:00220000
#077320:00001434
#077350:0000000000340034
#078320:24
#0783a1:14342400
#078371:0034003400000000
#078320:00001434
#078350:0000000000340034
#079320:24
#0803b0:130000000000000000000000000000000000000000000000000000000000000000000000000000000000000000000000000000000000000000000053000000000000000000000000000000000000000000000000000000000000000000000000000000000000000000000000000000000000000000000000230000000000000000000000000000000000000000000000000000000000000000000000000000000000000000000000000000000000000000000000000000000000000000000000000000000000000000000000000000000000000000000000000000000000000000000000000000000000000000000000000000000000000000000000000000000000000000000000000000000000000000000000000000000000000000000000000000000000000000000000000000000000000000000000000000000000000000000000000000000000000000000000000000000000000000000000000000000000000000000000000000000000000000000000000000000000000000000000000000000000000000000000000000000000000000000000000000000000000000000000000000000000000000000000000000000000000000000000000000000000000000000000000000000000000000000000000000000000000000000000000000000000000000000000000000000000000000000000000000000000000000000000000000000000000000000000000000000000000000000000000000000000000000000000000000000000000000000000000000000000000000000000000000000000000000000000000000000000000000000000000000000000000000000000000000000000000000000000000000000000000000000000000000000000000000000000000000000000000000000000000000000000000000000000000000000000000000000000000000000000000000000000000000000000000000000000000000000000000000000000000000000000000000000000000000000000000000000000000000000000000000000000000000000000000000000000000000000000000000000000000000000000000000000000000000000000000000000000000000000000000000000000000000000000000000000000000000000000000000000000000000000000000000000000000000000000000000000000000000000000000000000000000000000000000000000000000000000000000000000000000000000000000000000000000000000000000000000000000000000000000000000000000000000000000000000000000000000000000000000000
#0803a0:00540000000000000000000000000000
#080361:130000000000000000000000000000000000000000000000000000000000000000000000000000000000000000000000000000000000000000000053540000000000000000000000000000000000000000000000000000000000000000000000000000000000000000000000000000000000000000000000230000000000000000000000000000000000000000000000000000000000000000000000000000000000000000000000000000000000000000000000000000000000000000000000000000000000000000000000000000000000000000000000000000000000000000000000000000000000000000000000000000000000000000000000000000000000000000000000000000000000000000000000000000000000000000000000000000000000000000000000000000000000000000000000000000000000000000000000000000000000000000000000000000000000000000000000000000000000000000000000000000000000000000000000000000000000000000000000000000000000000000000000000000000000000000000000000000000000000000000000000000000000000000000000000000000000000000000000000000000000000000000000000000000000000000000000000000000000000000000000000000000000000000000000000000000000000000000000000000000000000000000000000000000000000000000000000000000000000000000000000000000000000000000000000000000000000000000000000000000000000000000000000000000000000000000000000000000000000000000000000000000000000000000000000000000000000000000000000000000000000000000000000000000000000000000000000000000000000000000000000000000000000000000000000000000000000000000000000000000000000000000000000000000000000000000000000000000000000000000000000000000000000000000000000000000000000000000000000000000000000000000000000000000000000000000000000000000000000000000000000000000000000000000000000000000000000000000000000000000000000000000000000000000000000000000000000000000000000000000000000000000000000000000000000000000000000000000000000000000000000000000000000000000000000000000000000000000000000000000000000000000000000000000000000000000000000000000000000000000000000000000000000000000000000000000000000000000000000000000000
#080321:000000000000000000000000000000000000000000000000000000000000000000000000000000000000000000000000000000000000000000000000000000000000000000000000000000000000000000000000000000000000000000000000000000000000000000000000000000000000000000000000000000000000000000000000000000000000000000000000000000000000000000000000000000000000000000000000000000000000000000000000000000000000000000000000000000000000000000000000000000000000000000000000000000000000000000000000000000000000000000000000130000000000000000000000000000000000000000000000000000000000000000000000000000000000000000000000000000000000000000000053540000000000000000000000000000000000000000000000000000000000000000000000000000000000000000000000000000000000000000000000230000000000000000000000000000000000000000000000000000000000000000000000000000000000000000000000000000000000000000000000000000000000000000000000000000000000000000000000000000000000000000000000000000000000000000000000000000000000000000000000000000000000000000000000000000000000000000000000000000000000000000000000000000000000000000000000000000000000000000000000000000000000000000000000000000000000000000000000000000000000000000000000000000000000000000000000000000000000000000000000000000000000000000000000000000000000000000000000000000000000000000000000000000000000000000000000000000000000000000000000000000000000000000000000000000000000000000000000000000000000000000000000000000000000000000000000000000000000000000000000000000000000000000000000000000000000000000000000000000000000000000000000000000000000000000000000000000000000000000000000000000000000000000000000000000000000000000000000000000000000000000000000000000000000000000000000000000000000000000000000000000000000000000000000000000000000000000000000000000000000000000000000000000000000000000000000000000000000000000000000000000000000000000000000000000000000000000000000000000000000000000000000000000000000000000000000000000000000000000000000
#080370:000000000000000000000000000000000000000000000000000000000000000000000000000000000000000000000000000000000000000000000000000000000000000000000000000000000000000000000000000000000000000000000000000000000000000000000000000000000000000000000000000000000000000000000000000000000000000000000000000000000000000000000000000000000000000000000000000000000000000000000000000000000000000000000000000000000000000000000000000000000000000000000000000000000000000000000000000000000000000000000000130000000000000000000000000000000000000000000000000000000000000000000000000000000000000000000000000000000000000000000053000000000000000000000000000000000000000000000000000000000000000000000000000000000000000000000000000000000000000000000000230000000000000000000000000000000000000000000000000000000000000000000000000000000000000000000000000000000000000000000000000000000000000000000000000000000000000000000000000000000000000000000000000000000000000000000000000000000000000000000000000000000000000000000000000000000000000000000000000000000000000000000000000000000000000000000000000000000000000000000000000000000000000000000000000000000000000000000000000000000000000000000000000000000000000000000000000000000000000000000000000000000000000000000000000000000000000000000000000000000000000000000000000000000000000000000000000000000000000000000000000000000000000000000000000000000000000000000000000000000000000000000000000000000000000000000000000000000000000000000000000000000000000000000000000000000000000000000000000000000000000000000000000000000000000000000000000000000000000000000000000000000000000000000000000000000000000000000000000000000000000000000000000000000000000000000000000000000000000000000000000000000000000000000000000000000000000000000000000000000000000000000000000000000000000000000000000000000000000000000000000000000000000000000000000000000000000000000000000000000000000000000000000000000000000000000000000000000000000000000000
#080360:00000000005400000000000000000000
#081350:0000001300000000
#081320:0023
#0813b1:0013
#081381:0000000000230000
#081381:0000000000000013
#0823b1:23
#082320:13
#082350:0023000000000000
#082350:0000001300000000
#082320:0000000000230000
#083350:0000001300000000
#083320:0023
#0833b1:0013
#083381:0000000000230000
#083381:0000000000000013
#0843b1:23
#084320:13
#084350:0023000000000000
#085380:0000001300000000
#0853b0:0023
#085321:0013
#085351:0000000000230000
#085351:0000000000000013
#086321:23
#0863b0:13
#086380:0023000000000000
#086380:0000001300000000
#0863b0:0000000000230000
#087380:0000001300000000
#0873b0:0023
#087321:0013
#087351:0000000000230000
#087351:0000000000000013
#088321:23
#0883b0:13
#088380:0023000000000000
#088380:0000000000000013
#089380:00000000000000000000000000000023
