This file was generated by Ched 2.7.0.0.
#TITLE ""
#ARTIST ""
#DESIGNER ""
#DIFFICULTY 0
#PLAYLEVEL
#SONGID ""
#WAVE ""
#WAVEOFFSET 0
#JACKET ""
#REQUEST "ticks_per_beat 480"
#00002: 4
#BPM01: 193
#00008: 01
#TIL00: ""
#HISPEED 00
#MEASUREHS 00
#0011b:13
#00115:0013000000000013
#00118:00130013
#00112:0000001300000000
#00218:00130013
#00215:0000000000000013
#00212:0000001300000000
#00515:0013000000001300
#00518:0000130000130013
#00512:2300001300000000
#0051b:23
#0061b:0000000000130000
#00615:0013001300001300
#00618:0000130000000013
#01312:00130000
#01318:0013
#01415:13000013
#01412:0000001300000000
#0141b:0000000000130000
#01418:0000130000000013
#01410:41
#01618:13000013
#0161b:0000001300000000
#01615:00130000
#01612:00000013
#01715:13
#01712:0000001300000000
#01718:0000000000000013
#01915:0013000000000013
#0191b:00130013
#01912:0000001300000000
#0201b:00130000
#02015:0000000000000013
#02012:0000001300000000
#02018:00000013
#0211b:1313
#02115:00130000
#0271b:1300000000130000
#02715:0013000000001300
#02718:0000130000000013
#02712:0000001300000000
#0281b:0013
#02815:0000001300001300
#02812:0013000000000000
#02818:00130000
#02915:00130000
#02912:0000000000130000
#0291a:24
#02918:0000002400000000
#02916:00000024
#03018:0013
#0301b:00000013
#03012:0013
#03015:00000013
#0321b:1313
#03215:0013
#03218:00000013
#03212:00000013
#0331b:1313
#03312:00160016
#03315:13
#03310:41
#0341b:13000013
#03415:00130013
#03418:0013
#03412:0013
#0361b:0013
#03619:00000013
#03612:13
#03616:0013
#03614:00000013
#04112:13
#04115:0000331333000000
#0431b:13
#04318:00331333
#04312:13
#04315:00331333
#04612:13
#04618:1324
#04614:00000024
#04610:41
#05315:0000001300000000
#0531b:0000001300000000
#05318:0000000000000013
#05312:2300000000000013
#05317:23
#05515:0000000000130013
#05518:0000001300001300
#05512:00130000
#0551b:23
#05516:23
#0571b:23130000
#05715:2300001300000000
#05718:00000013
#05915:00130000
#05918:2300001300000000
#05912:2300000000000013
#06118:23131300
#0611b:0000000000000013
#06112:23232323
#06110:41
#06218:0000001300130000
#06212:23
#06215:00232323
#06518:0000000000000013
#06515:13
#06512:0000001300000000
#07515:0013000000130013
#07512:0000001300000000
#0751b:13001313
#07518:00130000
#0761b:13000013
#07618:00130000
#07615:0000001300000000
#07612:13000013
#00915:0013000000001300
#00918:0000130000130000
#00912:0000001300000000
#0091b:2300000000000013
#01215:0000130000130000
#01218:0013000000001300
#0121b:0000001300000013
#0181b:00000000000000130000000000000000
#02212:13
#02215:0000001300001300
#0221b:0000130000130000
#02218:0000000000000013
#02210:41
#02515:0000001300000000
#0251b:13
#02612:0013000000000000
#03715:00130000
#03718:0000000000130000
#0371f:11
#03712:24000024
#0371a:0000002400000000
#0451b:00130000
#04515:0000001300000000
#04512:24
#0451f:21
#06615:13
#06618:0013
#07312:0000001300000000
#0731b:13
#07315:13
#07318:0000001300000000
#07415:00130000000000000000000000000000
#0741b:00130000000000000000000000000000
#07712:0014
#07714:0000000000140000
#07715:13
#07718:13
#00312:13
#00318:0013000000000013
#00315:00130013
#0031b:0000001300000000
#00415:00130013
#00418:0000000000000013
#0041b:0000001300000000
#00718:0013000000001300
#00715:0000130000130013
#0071b:0000001300000000
#00712:23
#00812:0000000000130000
#00818:0013001300001300
#00815:0000130000000013
#01015:0013000000001300
#01018:0000130000000013
#01012:0000001300000000
#0101b:0000000000130000
#01118:0013000000001300
#01115:0000130000130000
#0111b:0000001300000000
#01112:2300000000000013
#0151b:00130000
#01515:0013
#02312:0013
#02318:00130000
#0241b:13
#02418:0000001300001300
#02412:0000130000130000
#02415:0000000000000013
#03118:00130000
#0311b:0000000000130000
#03112:24
#03114:0000002400000000
#03116:00000024
#03512:1313
#03518:13160016
#03812:0013
#03814:00000013
#03817:0013
#03819:00000013
#03918:00130000
#03915:0000000000130000
#0391a:24000024
#03912:0000002400000000
#04012:0013
#04018:0000000000130000
#04015:00000013
#0401b:0000000000000013
#0421b:13
#04218:0000331333000000
#0471b:0000000000000013
#04712:00130000
#04718:0000001300000000
#04715:00000013
#0471a:24
#04912:00130000
#04918:0000001300000000
#0491b:0000000000000013
#04915:00000013
#0491a:24
#0511b:00130000
#05115:0000001300000000
#05112:2400000000000013
#05118:00000013
#0581b:13000023
#05818:0023
#05815:00000023
#05812:0023
#06018:13
#06015:0000001300000000
#06315:23131300
#06312:0000000000000013
#0631b:23232323
#06415:0000001300130000
#0641b:23
#06418:00232323
#06715:0000000000000013
#06718:13
#0671b:0000001300000000
#06818:13
#06815:0013
#06912:0000130000000013
#06915:2313
#0691b:2323
#06918:00230023
#07015:0000001300130000
#07018:2323
#0701b:00230023
#0711b:0000130000000013
#07118:2313
#07112:2323
#07115:00230023
#07110:41
#07218:0000001300130000
#07215:2323
#07212:00230023
#0781a:14
#07818:0014000000000000
#07812:0014
#07814:0000000000140000
#08115:0013000000001300
#08118:00130000
#08112:2300001300000000
#0811b:2300000000130013
#0821b:0000000000130000
#08215:00000013
#08218:0000130000000013
#08212:0013001300000000
#08515:0013000000001300
#08518:0000130000130000
#08512:0000001300000013
#0851b:2300000000000013
#08318:0013000000001300
#08315:00130000
#0831b:0000001300000000
#08312:2300000000130013
#08412:0000000000130000
#08418:00000013
#08415:0000130000000013
#0841b:0013001300000000
#08615:0013000000001300
#08618:0000130000000013
#08612:0000001300000000
#0861b:0000001300130000
#08718:0013000000001300
#08715:0000130000130000
#0871b:0000001300000013
#08712:2300000000000013
#08818:0013000000001300
#08815:0000130000130000
#0881b:0000001300000000
#08812:0000001300000000
#07918:2424
#07914:00240024
#04414:0024
#04418:00000024
#05216:0023
#05219:00000023
#0521b:0023
#05214:00000023
#05615:0023
#05618:00000023
#0561b:0023
#05612:00000023
#08012:00232400
#0801a:0024
#0801b:23
#08015:23
#08018:00230000
#04812:0024
#04816:00000024
#0501a:0024
#05016:00000024
#05417:0023
#05414:00000023
#05412:0023
#05419:00000023
#03352:00160016
#00152:0000005300000000
#00155:0000000000000063
#00252:0000006300000000
#01455:13
#01452:0000001300000000
#01755:63
#01758:0000000000000063
#01752:0000002300000000
#0185b:00000000000000230000000000000000
#01952:0000005300000000
#01955:0000000000000053
#02252:13
#02255:0000001300000000
#0215b:0063
#02652:0023000000000000
#02555:0000006300000000
#0295a:14
#02958:0000001400000000
#02956:00000014
#03752:14000014
#0375a:0000001400000000
#04152:63
#04155:0000006300000000
#04358:0063
#0435b:63
#04352:53
#04355:0053
#04552:14
#04555:0000005300000000
#05352:1300000000000053
#05355:0000006300000000
#05357:13
#0535b:0000006300000000
#05358:0000000000000053
#05555:0000000000000053
#0555b:13
#05556:13
#05755:1300005300000000
#05758:00000053
#0575b:13
#05958:1300006300000000
#05952:13
#06655:53
#06658:0063
#07352:0000006300000000
#07358:0000006300000000
#07455:00230000000000000000000000000000
#0745b:00230000000000000000000000000000
#07752:0054
#07754:0000000000540000
#07758:23
#07755:23
#08052:0014
#0805a:0014
#06555:53
#06552:0000005300000000
#0035b:0000006300000000
#00358:0000000000000053
#0045b:0000005300000000
#01358:0053
#01555:0063
#01658:13
#0165b:0000001300000000
#02052:0000005300000000
#02352:0053
#0245b:13
#02458:0000001300000000
#03152:14
#03154:0000001400000000
#03156:00000014
#0325b:53
#03558:00160016
#03652:53
#0395a:14000014
#03952:0000001400000000
#0425b:53
#04258:0000005300000000
#04652:53
#04658:53
#0475b:0000000000000063
#04758:0000006300000000
#0475a:14
#04958:0000005300000000
#0495a:14
#0495b:0000000000000063
#05155:0000006300000000
#05152:1400000000000053
#0585b:53
#06058:63
#06055:0000006300000000
#06858:63
#06855:0053
#06758:63
#0675b:0000006300000000
#0765b:00000053
#07652:00000053
#0785a:64
#07858:0064000000000000
#07852:0054
#07854:0000000000540000
#04452:33
#0445b:43
#001320:0000001300000000
#001350:0000000000230000
#001350:0000000000000013
#002320:0023000000000000
#002320:0000001300000000
#002350:0000000000230000
#0033b0:0000001300000000
#003380:0000000000230000
#003380:0000000000000013
#0043b0:0023000000000000
#0043b0:0000001300000000
#004380:0000000000230000
#013380:0013
#0133b0:0000000000000023
#015350:0013
#015320:0000000000000023
#017350:13000023
#017320:0000005300000000
#017380:0000000000000013
#0183b0:00000000000000530000000000000000
#019380:23
#019320:0000001300000000
#019350:0000000000230000
#019350:0000000000000013
#020320:0023000000000000
#020320:0000001300000000
#020350:0000000000230000
#0213b0:0013
#021380:0000000000000023
#023320:0013
#023350:0000000000000023
#025350:0000001300000000
#026320:0053000000000000
#026350:0000000000000023
#0323b0:13
#032380:00230000
#036320:13
#036350:00230000
#041320:13000023
#041350:0000335333000000
#0423b0:13000023
#042380:0000335333000000
#0433b0:13
#043380:00333333
#0443b0:23
#043321:13
#043351:00333333
#044321:23
#045351:0000001300000000
#045321:00000023
#046321:13
#046351:00230000
#046380:13
#0463b0:00230000
#047380:0000001300000000
#0473b0:0000000000230000
#0473b0:0000000000000013
#048380:00230000
#049380:0000001300000000
#0493b0:0000000000230000
#0493b0:0000000000000013
#050380:00230000
#051350:0000001300000000
#051320:0000000000230000
#051320:0000000000000013
#052350:00230000
#053350:0000001300000000
#053320:00000023
#0533b1:0000001300000000
#053381:00000023
#053381:0000000000000013
#0543b1:00230000
#053320:0000000000000013
#054350:00230000
#055350:0000000000000013
#056320:00230000
#057350:0000001300000000
#057320:0000000000230000
#057380:00000013
#0583b0:33
#058380:00230000
#059380:0000001300000000
#0593b0:00000023
#060380:13
#0603b0:00230000
#060350:0000001300000000
#060320:00000023
#065350:13000023
#065320:0000003300000000
#066350:13
#066320:0000002300000000
#066380:0013
#0663b0:00000023
#067380:13000023
#0673b0:0000003300000000
#068380:13
#0683b0:0000002300000000
#068350:0013
#068320:00000023
#073320:0000001300000000
#074350:00530000000000000000000000000000
#074320:00000023
#073381:0000001300000000
#0743b1:00530000000000000000000000000000
#074381:00000023
#0763b1:00000013
#077381:53
#0773b1:00230000
#076320:00000013
#077350:53
#077320:00230000
#077320:00001424
#077340:0000000000340000
#0783a0:14240000
#078380:0034000000000000
#078320:00001424
#078340:0000000000340000
#088320:0000000000000013
#089320:00000000000000000000000000000023
