This file was generated by Ched 2.7.0.0.
#TITLE ""
#ARTIST ""
#DESIGNER ""
#DIFFICULTY 0
#PLAYLEVEL
#SONGID ""
#WAVE ""
#WAVEOFFSET 0
#JACKET ""
#REQUEST "ticks_per_beat 480"
#00002: 4
#BPM01: 193
#00008: 01
#TIL00: ""
#HISPEED 00
#MEASUREHS 00
#00118:0014000000000000
#0011a:0000140000000014
#00116:1400001400001400
#00112:13131313
#00113:0000001300000013
#0021a:0000140000000013
#00219:00000013
#00216:0000001400000000
#00212:13131313
#00213:0000001300000013
#00517:0013000000000000
#00514:00130000
#0051b:2300001300130000
#00512:2313000013000000
#00518:0000000000001313
#00519:00130000
#00516:0000001300000000
#00515:00000000000000000000000000130000
#00615:0000131300000013
#0061b:0000000000130000
#00618:00001300001300001300000013000000
#00612:13
#01318:0000130000131300
#0131b:0013
#01315:0000000000000016
#01312:0000131316000000
#01418:1300001300000000
#01412:00160016
#01415:1300001300000000
#0141b:00130000
#01419:0000000000250000
#01414:0000000000220000
#01410:41
#0281b:00000013
#02815:00000000000000000000000000130000
#02818:0000121200000013
#02812:26000000000026001200120000000013
#02816:0012120000000000
#02916:2400142400142414
#0291b:0000001300000000
#02912:0014000000001314
#0291a:0014
#03018:0013
#0301b:00000013
#03016:0000140000130013
#03012:0013
#03014:00000013
#03212:13001300000000001300130000000013
#0321b:0000131313131300
#03215:00000000000000000000000000130000
#03218:0000000000000013
#03217:1313000000000000
#03216:0000131300000000
#0331b:1313
#03312:00141300
#0331a:00000014
#03319:0013001300000000
#03317:00130000
#03316:00000013
#03315:13
#03314:0000000000130013
#03310:41
#03418:13000000000000000000130000130000
#0341b:00131300
#03412:13130013
#03415:00001600000016000013000000001300
#03618:00000000130000001300000000130000
#03612:00130013
#03615:1316000000130013
#0361b:13000000000000000000000000000013
#04018:00000000130000001300130000000013
#0401b:1300001300000000
#04015:00001300000000000013000000001300
#04012:1300001300001c00
#04112:0000000013131300
#0411b:0013130000000000
#04118:0000001300000000
#04115:0000000000000013
#04512:23001313
#04516:0000000000140014
#04518:0013000000000000
#04515:00000013000013000000000000000000
#0451b:00131300
#04517:23000017
#0451f:21
#0461b:1313
#04612:17130013
#04616:0014001400140014
#04617:00170000
#04615:00002626
#04610:41
#04718:0013130000130013
#0471b:00000013
#04715:26000013000000001300000000000000
#04712:0000001300000000
#05315:00000013000000000000000000000000
#05318:0013130000000000
#0531b:2300001300000013
#05316:00001414
#05312:2300000000130000
#05416:14141414
#0541a:0000000000140000
#05412:0013001300002314
#0541b:0000001323000000
#05516:14
#05518:00000013000013001300000013000000
#0551b:2300000000130000
#05512:0000130000130000
#05515:0013000000000013
#0591b:00000000130000000000001300000000
#05916:1414141414141414
#05912:23000000000000001300000000000013
#06016:14
#06018:00000000130000000000160000130000
#0601b:0000001300001300
#06015:00001600000000000013000000000000
#06012:0000130013000016
#06517:0000131300000000
#06516:1300000000131300
#06518:0000000000000013
#0651b:13
#06519:0013000000000000
#06514:0013
#06512:0000000000000013
#06618:13000033000013001300000000000000
#06615:13000000000000001300003300001300
#06612:00000013000000000000000000000000
#0661b:00000000000000000000001300000000
#07317:13
#07312:1300001300000000
#07316:00130000
#07319:0013
#07315:00000000000000000000001300000000
#0731a:0000001300000000
#0731b:00000000000000000000003300000033
#07512:0013001300001300
#07515:00130000
#07514:0000000000000013
#0751b:1300001313000000
#07517:00000013
#07518:0000000000130000
#07519:0000000000000013
#07616:1300001300000000
#0761b:1300001300000000
#07612:00000000130000000000000000160000
#0761a:00000012
#07618:00000000000000000000000000160000
#07614:00000012
#07617:00130000
#02112:1300000013000013
#02118:1316
#02115:0000131600131600
#0211b:00130000
#0221b:0013000000130000
#02219:00000013
#02212:0000000000000013
#02216:0000000000130000
#02215:1613161300000000
#02218:0000001300000000
#02214:00000013
#02217:0000000000000013
#02210:41
#02315:1300001600001600
#0231b:1300000013000013
#02318:0000130000130000
#02312:00131600
#0481b:0000130023002313
#04815:13000000000013000000001300000000
#04818:00000000000000130000130000000000
#04812:0013130023002313
#0561b:0013130000130013
#05612:0013131300000013
#05618:00000000000000130000000000000000
#05615:13000000000000002600001326000000
#07412:00130013
#0741b:0000001300000013
#07418:00131313
#07415:0013000000130000
#07712:00000016000000001300000013000000
#07715:0000000000130013
#0771b:00001313
#07718:12000016000000000000130000001300
#07716:12
#00314:0014000000000000
#00312:00140000
#00316:1400001400001400
#0031b:13131313
#0031a:0000001300000000
#00315:0000000000000013
#00318:00000000000000000000000000000013
#00412:13131300
#00418:00130000001300000013000000000000
#00415:0013001300130000
#0041b:00000013000000130000001300000000
#00716:0013000000000000
#00719:00130000
#00712:2300001300130000
#0071b:2313000013000000
#00715:0000000000001313
#00714:00130000
#00717:0000001300000000
#00718:00000000000000000000000000130000
#00818:00000000130013000000001300001300
#00812:0000000000130000
#00815:00001300001300001300000013000000
#0081b:13
#00916:0013000000000000
#00919:00130000
#00912:2300001300130000
#0091b:2313000013000000
#00915:0000000000001313
#00914:00130000
#00917:0000001300000000
#00918:00000000000000000000000000130000
#01018:0000131300000013
#01012:0000000000130000
#01015:00001300001300001300000013000000
#0101b:13
#01117:0013000000000000
#01114:00130000
#0111b:2300001300130000
#01112:2313000013000000
#01118:0000000000001313
#01119:00130000
#01116:0000001300000000
#01115:00000000000000000000000000130000
#01215:00000000130013000000001300000000
#0121b:0000000000130013
#01212:1300000000000013
#01218:00001300001300001300000013000000
#01515:0000130000131316
#01512:0013
#0151b:0000131300000000
#01518:0016
#01615:1300001300000000
#01618:1300161300162600
#01612:0000130000261600
#01712:1200001200000000
#01714:0012000000000000
#01716:0000120000001212
#0171b:0000000000001313
#01812:0000121200000012
#01814:00000012
#0181b:0000000000001313
#0191c:1200001200000000
#0191a:0012000000000000
#01918:0000120000001212
#01912:0000000000001313
#0201c:0000121200000012
#0201a:00000012
#02012:0000000000001313
#02415:1600161300000000
#02412:0013000000162600
#02418:0013001300261600
#0251c:12
#0251a:0012000000000000
#02518:00120000
#02512:0000000000001212
#02516:0000001200000000
#0251b:0000000000001313
#02616:00120000
#02618:0000001200000012
#0261a:00000012
#02612:0000000000001313
#02712:1200000000001313
#02714:0012000000000000
#02716:00120000
#0271c:0000000000001212
#02718:0000001200000000
#03116:2400142400142400
#03112:0000001314000000
#0311b:00000013
#0311a:0014000000000014
#03512:13001314
#0351a:00140000
#03514:0013001300000000
#03516:00130000
#03517:00000013
#03518:13
#0351b:0013
#03519:0000000000130013
#03716:2414142414142414
#03712:0000001300000000
#0371b:00000013
#03713:00000013000000000000000000000000
#0371a:0000000000000014
#0371f:11
#03815:0013
#03812:00000013
#03817:0000000000130013
#0381b:0013
#03819:00000013
#03816:00140000
#03916:2414142414142414
#0391b:0000001300000000
#03912:00000013
#0391a:00000013000000000000000000000000
#0421b:13130000
#04218:0013001300000000
#04212:00001313
#04215:0000000000130013
#04318:13
#0431b:00001300003333330000003300000033
#04312:00333333000013000033000000330000
#04412:13
#04417:00130000000000000000000000000000
#04413:0013000000000000
#04418:00000013000000000000000000000000
#04414:00130023
#04419:00000000001300000000000023000000
#04415:0000001300000000
#0441a:00000000000000130000000000000000
#0441b:0023
#04416:0023
#05115:2613130000000000
#05118:00000013000000001300000000000000
#0511b:0000001300000000
#05112:0000000000131300
#05117:00000000000000000000001300000000
#05212:00132323
#05218:00000000000013000013000000001300
#05215:00000000000013000000130000130000
#0521b:00132323
#04915:0013000000000000
#04918:00000013000013000000000000000000
#04912:23131317
#0491b:23001313
#04916:0000000000140014
#05718:00000013000000000000000000000000
#05715:0013130000000000
#05712:2300001300000013
#05716:00001414
#0571b:2300000000130000
#05816:1400140014141414
#0581b:0013001300002300
#05812:0000001323000000
#06215:0000000000000013
#06218:1600160016131600
#0621b:0000001300000000
#06212:26262626
#0611b:0000001300000000
#06118:1600160016001613
#06112:26262626
#06110:41
#06312:1600161316001600
#06318:2600260026002613
#06412:1600161316001600
#06415:0013000000130000
#06418:2600260026002613
#06716:0000131300000000
#06717:1300000000131300
#06715:0000000000000013
#06712:13
#06714:0013000000000000
#06719:0013
#0671b:0000000000000013
#06815:13000033000013001300000000000000
#06818:13000000000000001300003300001300
#0681b:00000013000000000000000000000000
#06812:00000000000000000000001300000000
#07018:2600260026002613
#07012:1600161316001600
#07015:0013000000130000
#0701b:0000001300000000
#06915:0000001300000000
#06912:16161616
#06918:2600260026002613
#0691b:0000001300000000
#07118:1600161316001600
#07115:0000000000000013
#07112:2600261326002600
#07110:41
#07218:1613160016131600
#0721b:0000001300000000
#07215:0000000000000013
#07212:2600261326002600
#0781b:13130013
#07818:0013001300130013
#07812:00131313
#07815:0013001300130013
#07916:0014001400140014
#07918:2626
#07912:00260026
#08116:0013000000000000
#08119:00130000
#08112:2300001300130000
#0811b:2313000013000013
#08115:0000000000001313
#08114:00130000
#08117:0000001300000000
#08118:00000000000000000000000000130000
#08218:00000000130013000000000000130013
#08212:0000001300130000
#08215:00001300001300001300000013001300
#0821b:13
#08317:0013000000000000
#08314:00130000
#0831b:2300001300130000
#08312:2313000013000013
#08318:0000000000001313
#08319:00130000
#08316:0000001300000000
#08315:00000000000000000000000000130000
#08415:00000000130013000000001300001300
#0841b:0000001300130000
#08418:00001300001300001300000013000013
#08412:13
#08517:0013000000000000
#08514:00130000
#0851b:2300001300130000
#08512:2313000013000013
#08518:0000000000001313
#08519:00130000
#08516:0000001300000000
#08515:00000000000000000000000000130000
#08615:00000000130013000000000000130013
#0861b:0000001300130000
#08618:00001300001300001300000013001300
#08612:13
#08716:0013000000000000
#08719:00130000
#08712:2300001300130000
#0871b:2313000013000013
#08715:0000000000001313
#08714:00130000
#08717:0000001300000000
#08718:00000000000000000000000000130000
#08818:00000000130013000000001300130000
#08812:0000001300130000
#0881b:13
#08815:00001300001300001300000013000000
#05012:13171300
#05017:17
#05016:0014001400140014
#0501b:00130013
#05015:00002626
#08012:23232600
#08018:0026
#0801b:23230000
#03352:00140000
#0335a:00000014
#00156:0000005400000000
#0015a:0000000000000054
#00256:0000005400000000
#0055b:0000005300000000
#00552:0023
#00558:0000000000000053
#00652:23
#00655:0000006300000000
#01458:13
#01455:0000001300000000
#01454:0000000000520012
#01452:00000026
#01459:0000000000000015
#02956:1400001400001454
#04552:13000013
#04557:13
#0455b:0013
#04755:16
#05352:1313
#0535b:13000013
#0555b:13
#06557:0000005300000000
#06556:53
#06655:53
#06658:0053
#06652:00000023000000000000000000000000
#0665b:00000000000000000000002300000000
#07357:53
#07352:0000006300000000
#07355:00000000000000000000002300000000
#07752:00000026000000005300000053000000
#07755:0000000000530053
#07758:52000026000000000000000000000000
#07756:62
#0765a:00000052
#07658:00000000000000000000000000260000
#07654:00000062
#07652:00000000000000000000000000260000
#00356:0000006400000000
#00858:0000005300000000
#0085b:53
#00752:0000002300000000
#0075b:0053
#00755:0000000000000023
#00952:0000006300000000
#0095b:0023
#00955:0000000000000063
#01058:0000005300000000
#0105b:23
#0115b:0000002300000000
#01152:0063
#01158:0000000000000023
#01255:0000006300000000
#01252:63
#01352:0056
#01655:13
#01658:0000001300001600
#01652:0000000000160000
#01558:0066
#01752:0000005200000000
#01756:0000000000000052
#01852:0000006200000000
#01958:0000000000000062
#0195c:0000006200000000
#0205c:0000005200000000
#02255:16
#02258:0000001300000000
#02158:0066
#02455:1600001300000000
#02458:0000000000160000
#02452:00000016
#02352:0056
#02552:0000000000000062
#02556:0000006200000000
#02658:0000005200000000
#0275c:0000000000000052
#02758:0000005200000000
#02858:0000005200000000
#03156:1400001400001400
#0355a:00140000
#03552:00000014
#03756:1400001400001464
#03956:1400001400001400
#04155:0013000000000000
#04152:0000001300000000
#04158:0000000000130000
#0415b:0000000000000013
#04255:0013000000000000
#04252:0000001300000000
#04258:0000000000130000
#0425b:0000000000000013
#0465b:1313
#04652:00130013
#0495b:13000013
#04952:1313
#05456:00001414
#05452:13
#0545b:00130000
#05856:00001414
#0585b:13
#05852:00130000
#0575b:1313
#05752:13000013
#05952:13
#06756:0000006300000000
#06757:63
#06858:63
#0685b:00000023000000000000000000000000
#06855:0063
#06852:00000000000000000000002300000000
#0785b:63630000
#07858:0063006300000000
#07852:00005353
#07855:0000000000530053
#08058:0046
#08052:0036
#08152:0000006300000000
#0815b:0023
#08155:0000000000000063
#08258:0000005300000000
#0825b:23
#0835b:0000002300000000
#08352:0063
#08358:0000000000000023
#08455:0000006300000000
#08452:63
#0855b:0000005300000000
#08552:0023
#08558:0000000000000053
#08655:0000006300000000
#08652:23
#08752:0000002300000000
#0875b:0053
#08755:0000000000000023
#08858:0000005300000000
#0885b:53
#05052:1313
#0505b:00130013
#05155:16
#001360:0000001400000000
#0013a0:0000000000240000
#0013a0:0000000000000014
#002360:0024000000000000
#002360:0000001400000000
#0023a0:0000000000240000
#003360:0000001400000000
#003320:0000000000240000
#0053b0:0000001300000000
#005380:0023
#005321:0013
#005351:0000000000230000
#005381:0000000000000013
#0063b1:23
#006320:13
#006350:0023000000000000
#006350:0000001300000000
#006320:0000000000230000
#007320:0000001300000000
#007350:0023
#0073b1:0013
#007381:0000000000230000
#007351:0000000000000013
#008321:23
#0083b0:13
#008380:0023000000000000
#008380:0000001300000000
#0083b0:0000000000230000
#009320:0000001300000000
#009350:0023
#0093b1:0013
#009381:0000000000230000
#009351:0000000000000013
#010321:23
#0103b0:13
#010380:0023000000000000
#010380:0000001300000000
#0103b0:0000000000230000
#0113b0:0000001300000000
#011380:0023
#011321:0013
#011351:0000000000230000
#011381:0000000000000013
#0123b1:23
#012320:13
#012350:0023000000000000
#012350:0000001300000000
#012320:0000000000230000
#013320:0016
#013350:00000023
#014340:0000000000120022
#014320:00000056
#014391:0000000000155225
#015381:00001623
#0173b1:13230000
#017321:0000001200000000
#017361:0000000000220000
#0173b0:0000001300230000
#017360:0000000000000012
#018320:0022000000000000
#0183b1:13230000
#018321:0000001200000000
#018361:0000000000220000
#0183b0:0000001300230000
#019320:13230000
#0193c0:0000001200000000
#019380:0000000000220000
#019321:0000001300230000
#019381:0000000000000012
#0203c1:0022000000000000
#020320:13230000
#0203c0:0000001200000000
#020380:0000000000220000
#020321:0000001300230000
#021381:0016
#0213b1:00000023
#023321:00001623
#025321:13230000
#025361:0000001200000000
#025321:0000000000220000
#0253b0:0000001300230000
#025320:0000000000000012
#026360:0022000000000000
#0263b1:13230000
#026381:0000001200000000
#0263c1:0000000000220000
#026320:0000001300230000
#0273b0:13230000
#027380:0000001200000000
#0273c0:0000000000220000
#027321:0000001300230000
#0273c1:0000000000000012
#028381:0022000000000000
#028381:0000001200000000
#0283c1:0000000000220000
#029361:0000000000000014
#0303a1:00240000
#037361:0000000000000014
#038321:00240000
#041351:1323000000000000
#041321:0000132300000000
#041381:0000000013230000
#0413b1:0000000000001323
#042351:1323000000000000
#042321:0000132300000000
#042381:0000000013230000
#0423b1:0000000000001323
#043321:13333333000000000000000000000000
#043361:00230000
#0433b0:00000000133333330000000000000000
#043370:0023
#043321:00000000000000001333000000000000
#043361:0000000000230000
#0433b0:00000000000000000000133300000000
#043370:00000023
#043321:00000000000000000000000013330000
#043361:0000000000000023
#0433b0:00000000000000000000000000001333
#044370:23
#047380:0000001323000000
#047350:0000000000130023
#047320:00000033
#048380:1323000000000000
#051350:0000001323000000
#0513b0:0000000000000013
#0523b0:0023000000000000
#051321:0000000000000013
#052321:0023000000000000
#053351:0000001300000000
#053321:0023
#053381:0000000000130000
#0533b1:00000023
#053351:0000000000000013
#054321:23
#054381:0013000000000000
#0543b1:00230000
#055351:0000001323000000
#055381:0000000000000013
#056381:23
#057381:0000001300000000
#0573b1:0023
#057351:0000000000130000
#057321:00000023
#057381:0000000000000013
#0583b1:23
#058351:0013000000000000
#058321:00230000
#065361:13
#065321:0000002300000000
#065370:0000001300000000
#0653b0:00000023
#066350:1300002300000000
#066320:00000053000000000000000000000000
#066381:00001333000000000000000000000000
#0663b1:00230000
#066380:0000000013000023
#0663b0:00000000000000000000005300000000
#066351:00000000000000000000133300000000
#066321:00000023
#067370:13
#0673b0:0000002300000000
#067361:0000001300000000
#067321:00000023
#068381:1300002300000000
#0683b1:00000053000000000000000000000000
#068350:00001333000000000000000000000000
#068320:00230000
#068351:0000000013000023
#068321:00000000000000000000005300000000
#068380:00000000000000000000133300000000
#0683b0:00000023
#073371:13
#0733b1:00230000
#073321:0000001300000000
#073351:00000000000000000000005300000000
#074321:23
#073380:0000000000130000
#0733b0:00000000000000000000003323000000
#0733b0:00000000000000000000000000001333
#074380:23
#074350:00000000000013230000000000000000
#074350:00000000000000000000000000001323
#075350:00001626000000000000000000000000
#075350:00000000000000001626000000000000
#0763a0:00000012
#076380:00000000000000000000000000560000
#077380:32000056000000000000000000000000
#0773a0:00220000
#076341:00000012
#076321:00000000000000000000000000560000
#077361:32
#077321:00000056000000000000000000000000
#077341:00220000
#077321:00001333
#077351:0000000000330033
#078321:23
#0783b0:13332300
#078380:0033003300000000
#078321:00001333
#078351:0000000000330033
#079321:23
#0803b1:130000000000000000000000000000000000000000000000000000000000000000000000000000000000000000000000000000000000000000000000000000000000000000000000000000000000000000000000000000000000000000000000000000000000000000000000000000000000000000000053000000000000000000000000000000000000000000000000000000000000000000000000000000000000000000000000000000000000000000000000000000000000000000000000000000000000000000000000000000000000000000000000000000000000000000000000000000000000000000000000230000000000000000000000000000000000000000000000000000000000000000000000000000000000000000000000000000000000000000000000000000000000000000000000000000000000000000000000000000000000000000000000000000000000000000000000000000000000000000000000000000000000000000000000000000000000000000000000000000000000000000000000000000000000000000000000000000000000000000000000000000000000000000000000000000000000000000000000000000000000000000000000000000000000000000000000000000000000000000000000000000000000000000000000000000000000000000000000000000000000000000000000000000000000000000000000000000000000000000000000000000000000000000000000000000000000000000000000000000000000000000000000000000000000000000000000000000000000000000000000000000000000000000000000000000000000000000000000000000000000000000000000000000000000000000000000000000000000000000000000000000000000000000000000000000000000000000000000000000000000000000000000000000000000000000000000000000000000000000000000000000000000000000000000000000000000000000000000000000000000000000000000000000000000000000000000000000000000000000000000000000000000000000000000000000000000000000000000000000000000000000000000000000000000000000000000000000000000000000000000000000000000000000000000000000000000000000000000000000000000000000000000000000000000000000000000000000000000000000000000000000000000000000000000000000000000000000000000000000000000000000000000000000000000000000000000000000000000000000000000000000000000000000000000000000000000000000000000000000000000000000000000000000000000000000000000000000000000000000000000000000000000000000000000000000000000000000000000000000000000000000000000000000000000000000000000000000000000000000000000000000000000000000000000000000000000000000000000000000000000000000000000000000000000000000000000000000000000000000000000000000000000000000000000000000000000000000000000000000000000000000000000000000000000000000000000000000000000000000000000000000000000000000000000000000000000000000000000000000000000000000000000000000000000000000000000000000000000000000000000000000000000000000000000000000000000000000000000000000000000000000000000000000000000000000000000000000000000000000000000000000000000000000000000000000000000000000000000000000000000000000000000000000000000000000000000000000000000000000000000000000000000000000000000000000000000000000000000000000000000000000000000000000000000000000000000000000000000000000000000000000000000000000000000000000000000000000000000000000000000000000000000000000000000000000000000000000000000000000000000000000000000000000000000000000000000000000000000000000000000000000000000000000000000000000000000000000000000000000000000000000000000000000000000000000000000000000000000000000000000000000000000000000000000000000000000000000000000000000000000000000000000000000000000000000000000000000000000000000000000000000000000000000000000000000000000000000000000000000000000000000000000000000000000000000000000000000000000000000000000000000000000000000000000000000000000000000000000000000000000000000000000000000000000000000000000000000000000000000000000000000000000000000000000000000000000000000000000000000000000000000000000000000000000000000000000000000000000000000000000000000000000000000000000000000000000000000000000000000000000000000000000000000000000000000000000000000000000000000000000000000000000000000000000000000000000000000000000000000000000
#080381:00560000000000000000000000000000
#080320:130000000000000000000000000000000000000000000000000000000000000000000000000000000000000000000000000000000000000000000000000000000000000000000000000000000000000000000000000000000000000000000000000000000000000000000000000000000000000000000053560000000000000000000000000000000000000000000000000000000000000000000000000000000000000000000000000000000000000000000000000000000000000000000000000000000000000000000000000000000000000000000000000000000000000000000000000000000000000000000000230000000000000000000000000000000000000000000000000000000000000000000000000000000000000000000000000000000000000000000000000000000000000000000000000000000000000000000000000000000000000000000000000000000000000000000000000000000000000000000000000000000000000000000000000000000000000000000000000000000000000000000000000000000000000000000000000000000000000000000000000000000000000000000000000000000000000000000000000000000000000000000000000000000000000000000000000000000000000000000000000000000000000000000000000000000000000000000000000000000000000000000000000000000000000000000000000000000000000000000000000000000000000000000000000000000000000000000000000000000000000000000000000000000000000000000000000000000000000000000000000000000000000000000000000000000000000000000000000000000000000000000000000000000000000000000000000000000000000000000000000000000000000000000000000000000000000000000000000000000000000000000000000000000000000000000000000000000000000000000000000000000000000000000000000000000000000000000000000000000000000000000000000000000000000000000000000000000000000000000000000000000000000000000000000000000000000000000000000000000000000000000000000000000000000000000000000000000000000000000000000000000000000000000000000000000000000000000000000000000000000000000000000000000000000000000000000000000000000000000000000000000000000000000000000000000000000000000000000000000000000000000000000000000000000000000000000000000000000000000000000000000000000000000000000000000000000000000000000000000000000000000000000000000000000000000000000000000000000000000000000000000000000000000000000000000000000000000000000000000000000000000000000000000000000000000000000000000000000000000000000000000000000000000000000000000000000000000000000000000000000000000000000000000000000000000000000000000000000000000000000000000000000000000000000000000000000000000000000000000000000000000000000000000000000000000000000000000000000000000000000000000000000000000000000000000000000000000000000000000000000000000000000000000000000000000000000000000000000000000000000000000000000000000000000000000000000000000000000000000000000000000000000000000000000000000000000000000000000000000000000000000000000000000000000000000000000000000000000000000000000000000000000000000000000000000000000000000000000000000000000000000000000000000000000000000000000000000000000000000000000000000000000000000000000000000000000000000000000000000000000000000000000000000000000000000000000000000000000000000000000000000000000000000000000000000000000000000000000000000000000000000000000000000000000000000000000000000000000000000000000000000000000000000000000000000000000000000000000000000000000000000000000000000000000000000000000000000000000000000000000000000000000000000000000000000000000000000000000000000000000000000000000000000000000000000000000000000000000000000000000000000000000000000000000000000000000000000000000000000000000000000000000000000000000000000000000000000000000000000000000000000000000000000000000000000000000000000000000000000000000000000000000000000000000000000000000000000000000000000000000000000000000000000000000000000000000000000000000000000000000000000000000000000000000000000000000000000000000000000000000000000000000000000000000000000000000000000000000000000000000000000000000000000000000000000000000000000000000000000000000000000000000000000000000000000000000000000000000000000000
#0803b0:000000000000000000000000000000000000000000000000000000000000000000000000000000000000000000000000000000000000000000000000000000000000000000000000000000000000000000000000000000000000000000000000000000000000000000000000000000000000000000000000000000000000000000000000000000000000000000000000000000000000000000000000000000000000000000000000000000000000000000000000000000000000000000000000000000000000000000000000000000000000000000000000000000000000000000000000000000000000000000000000000000000000000000000000000000000000000000000000000000000000000000000000000000000000000000000000000000000000000000000000000000000000000000000000000000000000000000000000000000000000000000000000000000000000000000000000000000000000000000000000000000000000000000000000000000000000000000000000000000000000000000000000000000000000000000000000000000000000000000000000000000000000000000000000000000000000000000000000000000000000000000000000000000000000000000000000000000000000000000000000130000000000000000000000000000000000000000000000000000000000000000000000000000000000000000000000000000000000000000000000000000000000000000000000000000000000000000000000000000000000000000000000000000000000000000000000000000000000000000000053000000000000000000000000000000000000000000000000000000000000000000000000000000000000000000000000000000000000000000000000000000000000000000000000000000000000000000000000000000000000000000000000000000000000000000000000000000000000000000000000230000000000000000000000000000000000000000000000000000000000000000000000000000000000000000000000000000000000000000000000000000000000000000000000000000000000000000000000000000000000000000000000000000000000000000000000000000000000000000000000000000000000000000000000000000000000000000000000000000000000000000000000000000000000000000000000000000000000000000000000000000000000000000000000000000000000000000000000000000000000000000000000000000000000000000000000000000000000000000000000000000000000000000000000000000000000000000000000000000000000000000000000000000000000000000000000000000000000000000000000000000000000000000000000000000000000000000000000000000000000000000000000000000000000000000000000000000000000000000000000000000000000000000000000000000000000000000000000000000000000000000000000000000000000000000000000000000000000000000000000000000000000000000000000000000000000000000000000000000000000000000000000000000000000000000000000000000000000000000000000000000000000000000000000000000000000000000000000000000000000000000000000000000000000000000000000000000000000000000000000000000000000000000000000000000000000000000000000000000000000000000000000000000000000000000000000000000000000000000000000000000000000000000000000000000000000000000000000000000000000000000000000000000000000000000000000000000000000000000000000000000000000000000000000000000000000000000000000000000000000000000000000000000000000000000000000000000000000000000000000000000000000000000000000000000000000000000000000000000000000000000000000000000000000000000000000000000000000000000000000000000000000000000000000000000000000000000000000000000000000000000000000000000000000000000000000000000000000000000000000000000000000000000000000000000000000000000000000000000000000000000000000000000000000000000000000000000000000000000000000000000000000000000000000000000000000000000000000000000000000000000000000000000000000000000000000000000000000000000000000000000000000000000000000000000000000000000000000000000000000000000000000000000000000000000000000000000000000000000000000000000000000000000000000000000000000000000000000000000000000000000000000000000000000000000000000000000000000000000000000000000000000000000000000000000000000000000000000000000000000000000000000000000000000000000000000000000000000000000000000000000000000000000000000000000000000000000000000000000000000000000000000000000000000000000000000000000000000000000000000
#080380:00000000005600000000000000000000
#080321:000000000000000000000000000000000000000000000000000000000000000000000000000000000000000000000000000000000000000000000000000000000000000000000000000000000000000000000000000000000000000000000000000000000000000000000000000000000000000000000000000000000000000000000000000000000000000000000000000000000000000000000000000000000000000000000000000000000000000000000000000000000000000000000000000000000000000000000000000000000000000000000000000000000000000000000000000000000000000000000000000000000000000000000000000000000000000000000000000000000000000000000000000000000000000000000000000000000000000000000000000000000000000000000000000000000000000000000000000000000000000000000000000000000000000000000000000000000000000000000000000000000000000000000000000000000000000000000000000000000000000000000000000000000000000000000000000000000000000000000000000000000000000000000000000000000000000000000000000000000000000000000000000000000000000000000000000000000000000000000000130000000000000000000000000000000000000000000000000000000000000000000000000000000000000000000000000000000000000000000000000000000000000000000000000000000000000000000000000000000000000000000000000000000000000000000000000000000000000000000053560000000000000000000000000000000000000000000000000000000000000000000000000000000000000000000000000000000000000000000000000000000000000000000000000000000000000000000000000000000000000000000000000000000000000000000000000000000000000000000000230000000000000000000000000000000000000000000000000000000000000000000000000000000000000000000000000000000000000000000000000000000000000000000000000000000000000000000000000000000000000000000000000000000000000000000000000000000000000000000000000000000000000000000000000000000000000000000000000000000000000000000000000000000000000000000000000000000000000000000000000000000000000000000000000000000000000000000000000000000000000000000000000000000000000000000000000000000000000000000000000000000000000000000000000000000000000000000000000000000000000000000000000000000000000000000000000000000000000000000000000000000000000000000000000000000000000000000000000000000000000000000000000000000000000000000000000000000000000000000000000000000000000000000000000000000000000000000000000000000000000000000000000000000000000000000000000000000000000000000000000000000000000000000000000000000000000000000000000000000000000000000000000000000000000000000000000000000000000000000000000000000000000000000000000000000000000000000000000000000000000000000000000000000000000000000000000000000000000000000000000000000000000000000000000000000000000000000000000000000000000000000000000000000000000000000000000000000000000000000000000000000000000000000000000000000000000000000000000000000000000000000000000000000000000000000000000000000000000000000000000000000000000000000000000000000000000000000000000000000000000000000000000000000000000000000000000000000000000000000000000000000000000000000000000000000000000000000000000000000000000000000000000000000000000000000000000000000000000000000000000000000000000000000000000000000000000000000000000000000000000000000000000000000000000000000000000000000000000000000000000000000000000000000000000000000000000000000000000000000000000000000000000000000000000000000000000000000000000000000000000000000000000000000000000000000000000000000000000000000000000000000000000000000000000000000000000000000000000000000000000000000000000000000000000000000000000000000000000000000000000000000000000000000000000000000000000000000000000000000000000000000000000000000000000000000000000000000000000000000000000000000000000000000000000000000000000000000000000000000000000000000000000000000000000000000000000000000000000000000000000000000000000000000000000000000000000000000000000000000000000000000000000000000000000000000000000000000000000000000000000000000000000000000000000000000000000000000000000000000000
#081321:0000001300000000
#081351:0023
#0813b0:0013
#081380:0000000000230000
#081350:0000000000000013
#082320:23
#0823b1:13
#082381:0023000000000000
#082381:0000001300000000
#0823b1:0000000000230000
#0833b1:0000001300000000
#083381:0023
#083320:0013
#083350:0000000000230000
#083380:0000000000000013
#0843b0:23
#084321:13
#084351:0023000000000000
#084351:0000001300000000
#084321:0000000000230000
#0853b1:0000001300000000
#085381:0023
#085320:0013
#085350:0000000000230000
#085380:0000000000000013
#0863b0:23
#086321:13
#086351:0023000000000000
#086351:0000001300000000
#086321:0000000000230000
#087321:0000001300000000
#087351:0023
#0873b0:0013
#087380:0000000000230000
#087350:0000000000000013
#088320:23
#0883b1:13
#088381:0023000000000000
#088381:0000001300000000
#0883b1:0000000000230000
#0883b1:0000000000000013
#0893b1:00000000000000000000000000000023
#088320:0000000000000013
#089320:00000000000000000000000000000023
